#TITLE:L4TS;
#SUBTITLE:;
#ARTIST:cittan* feat. kalon.&core*mc;
#TITLETRANSLIT:;
#SUBTITLETRANSLIT:;
#ARTISTTRANSLIT:;
#CREDIT:DigiMindAxel;
#BANNER:L4TS.png;
#BACKGROUND:L4TS-bg.png;
#LYRICSPATH:L4TS.lrc;
#CDTITLE:SOUND VOLTEX.png;
#MUSIC:L4TS.ogg;
#METERTYPE:DDR X;
#OFFSET:-11.687;
#SAMPLESTART:40.619;
#SAMPLELENGTH:12.000;
#SELECTABLE:YES;
#BPMS:0.000=190.000;
#STOPS:;
#BGCHANGES:;

//---------------dance-single - ----------------
#NOTES:
     dance-single:
     :
     Easy:
     6:
     0.260,0.299,0.044,0.079,0.000:
2000
0000
0000
0000
,
0000
0000
0000
0000
,
3002
0000
0000
0000
,
0000
0000
0000
0000
,
2003
0000
0000
0000
,
0000
0000
0000
0000
,
3002
0000
0000
0000
,
0003
0000
0000
0000
,
1001
0000
1000
0000
,
0001
0010
0001
0000
,
1001
0000
0001
0000
,
1000
0100
1000
0000
,
0110
0000
0100
0000
,
0010
0100
0010
0000
,
1000
0001
1000
0000
,
0100
1000
0010
0000
,
0100
0010
0100
0010
,
0100
0001
1000
0000
,
0001
1000
0001
1000
,
0001
1000
0100
0000
,
0010
0001
0010
0001
,
0010
0001
1000
0000
,
0100
0010
0100
0010
,
0001
0000
0000
0000
,
1001
1000
0001
0000
,
1000
0001
1000
0000
,
0100
1000
0010
0000
,
0100
0001
0010
0000
,
0001
1000
0001
0000
,
1000
0001
1000
0000
,
0100
0010
0001
0000
,
0010
0100
1000
0001
,
1000
0000
0001
1000
,
0001
0000
0010
0001
,
0100
0010
0100
0001
,
1000
0000
0010
0100
,
0010
1000
0001
1000
,
0100
0000
1000
0100
,
1000
0001
1000
0001
,
1000
0001
0010
0000
,
0001
0010
0001
0010
,
0001
1000
0001
1000
,
0100
1000
0100
1000
,
0010
0100
0010
0100
,
0002
0000
1000
0000
,
1003
0000
0001
1000
,
0002
0000
1000
0000
,
1003
0000
0000
0000
,
0010
0100
0010
0100
,
0001
1000
0001
1000
,
0100
0010
0100
0010
,
0001
0100
0001
0100
,
0020
0000
0100
0000
,
0130
0000
0000
0000
,
0020
0000
0100
0000
,
0100
0000
0130
0000
,
0110
0000
0100
0000
,
0010
0000
0100
0000
,
0001
0000
1000
0000
,
0001
0000
1000
0000
,
0100
0000
0010
0000
,
0100
0000
0010
0000
,
0001
0000
1000
0000
,
0001
0000
1000
0000
,
0001
1000
0001
0000
,
0010
0001
0010
0000
,
0100
1000
0100
0000
,
1000
0001
1000
0000
,
0001
0100
0001
0000
,
1000
0010
1000
0000
,
0100
0010
0100
0010
,
0100
0010
0100
0010
,
0200
0000
0000
0000
,
0000
0000
0000
0000
,
0000
0000
0000
0000
,
0000
0000
0000
0300
;

//---------------dance-single - ----------------
#NOTES:
     dance-single:
     :
     Medium:
     8:
     0.402,0.466,0.308,0.237,0.000:
0002
0000
0000
0000
,
0000
0000
0000
0000
,
2003
0000
0000
0000
,
0000
0000
0000
0000
,
3002
0000
0000
0000
,
0000
0000
0000
0000
,
2003
0000
0000
0000
,
3002
0000
0000
0003
,
1001
0000
0001
0000
1000
0000
0001
0010
,
0001
1000
1001
0000
,
1000
0000
0100
0000
1000
0000
0010
0100
,
0010
0100
0110
0000
,
0001
0000
0100
0001
0100
0000
0001
0000
,
0100
0001
0100
0000
0101
0000
0000
0000
,
0001
0010
0100
1000
,
0010
0100
0010
0100
0010
0000
0000
0000
,
1000
0100
1000
0000
1100
0000
0000
0000
,
0010
1000
1001
0000
,
0001
0100
0001
0000
1000
0100
1000
0100
,
1000
0000
0010
0000
0110
0000
0000
0110
,
0000
0000
0010
0100
0010
0000
1000
0000
,
0100
0000
1000
0001
1000
0000
0001
0000
,
0010
0100
0010
0000
0100
0000
1000
0001
,
1000
0000
0000
0000
,
1002
0000
0000
0100
0000
0000
1000
0000
,
0000
0103
0001
1000
,
0001
0000
0000
0100
0000
0000
0010
0000
,
0000
0100
0001
0010
,
0100
0000
0000
0010
0000
0000
0001
0000
,
0000
1000
0010
0100
,
0001
0000
0000
1000
0000
0000
0100
0000
,
0000
0010
0001
1000
,
2001
0000
0000
0100
0000
0000
3001
0000
,
1000
0100
0010
0001
,
1000
0000
0000
0010
0000
0000
0100
0000
,
0001
0010
0100
0010
,
0001
0000
0000
0100
0000
0000
0010
0000
,
1000
0100
0010
0001
,
1000
1001
1001
0000
,
0010
1000
0010
0000
0110
0000
0000
0000
,
0100
0000
1100
0000
1000
0001
1000
0000
,
0001
0000
0101
0000
0100
0010
0100
0000
,
0010
0000
1010
0000
1000
0001
1000
0000
,
0001
0000
0101
0000
0100
0010
0100
0000
,
0002
0000
1000
0000
1000
0000
1003
0001
,
0010
0001
1001
1000
,
1100
0100
0100
0000
,
1001
0001
1001
0000
,
0010
0000
0011
0000
0001
1000
0001
0000
,
1000
0000
1100
0000
0100
0010
0100
0000
,
1000
0000
1001
0000
0001
0100
0001
0000
,
0010
0000
0110
0000
0100
1000
0100
0000
,
2000
0000
0001
0000
0001
0000
3001
1000
,
0100
0010
0100
1000
,
0010
0000
0110
0000
,
0110
0000
0000
0100
0000
0010
0010
0000
,
2000
0000
0000
3002
0000
0000
0023
0000
,
0000
0032
0000
0000
1003
0000
0100
0000
,
0020
0000
0000
0032
0000
0000
0023
0000
,
0000
0230
0000
0000
1300
0000
0010
0000
,
0200
0000
0000
0320
0000
0000
2030
0000
,
0000
3200
0000
0000
1300
0000
0010
0000
,
0200
0000
0000
0302
0000
0000
2003
0000
,
0000
3200
0000
0000
0310
0000
0100
0000
,
1000
0100
1000
0100
1000
0000
0010
0100
,
0010
0000
1000
0001
0000
0000
0000
0000
,
1000
0001
1000
0000
1001
0000
0001
0100
,
0001
0100
0110
0000
,
0010
0001
0010
0000
0100
0010
0100
0000
,
0010
0001
1000
0000
1001
0000
0100
0000
,
0110
0010
0110
1000
,
1001
0001
0110
0100
,
0220
0000
0000
0000
,
0000
0000
0000
0000
,
0000
0000
0000
0000
,
0000
0000
0000
0330
;

//---------------dance-single - ----------------
#NOTES:
     dance-single:
     :
     Hard:
     11:
     0.557,0.632,0.343,0.167,0.040:
1000
0100
1000
0100
,
1000
0100
1000
0100
,
0010
0100
0010
0100
,
0010
0100
0010
0100
,
1000
0001
1000
0001
,
1000
0001
1000
0001
,
0100
0001
0100
0001
,
2000
0000
0000
3000
,
0010
0100
0010
0000
1001
0000
1000
0001
,
0010
0000
0011
0000
1001
0000
0001
1000
,
0001
0010
0100
0000
1010
0000
0100
0010
,
1000
0000
1010
0000
1001
0000
0100
0001
,
1000
0100
0010
0000
0110
0000
0010
1000
,
0001
0010
0100
0000
0110
0000
0100
0010
,
1000
0100
0010
0100
1000
0000
0010
0100
,
0001
0010
0100
0010
0001
0000
1000
0001
,
0100
0010
1000
0000
1001
0000
0001
1000
,
0010
0100
0001
0000
1001
0000
1000
0001
,
1000
0100
0010
0000
0001
0100
1000
0100
,
0001
0000
0101
0000
0100
0010
0100
0110
,
0000
0000
0100
0010
1000
0100
0010
0000
,
0100
1000
0001
0100
0001
0000
1000
0100
,
0001
0100
1000
0010
0100
0001
1000
0001
,
1000
0000
0000
0000
,
1001
0000
0001
0100
0000
0010
0100
0000
,
0001
0000
1000
0010
0100
1000
0100
0010
,
1000
0000
0001
1000
0000
0100
0010
0000
,
0001
0000
0100
0000
0010
1000
0100
1000
,
0010
0000
0100
0001
0000
1000
0100
1000
,
0001
0100
1000
0100
,
0001
0000
1000
0001
0000
0100
0010
0000
,
1000
0001
1000
0100
0010
0001
1000
0000
,
1001
0000
0001
0010
0000
0001
1000
0000
,
0001
0000
1000
0010
0100
1000
0100
0010
,
1000
0000
0010
0100
0000
0001
0100
0000
,
0001
0000
1000
0100
0010
0001
0100
0000
,
0001
0000
1000
0010
0000
0100
0010
1000
,
0100
0001
0100
1000
,
0001
0000
1000
0000
1001
0000
1000
0001
,
0100
0000
0010
0000
0010
0000
0000
0000
1000
0001
1000
0001
1000
0001
1000
0001
,
1000
0010
0100
0010
1000
0100
0001
0100
,
1000
0100
0010
0000
0100
0000
0110
0000
,
0001
0010
0100
0010
0001
0100
1000
0100
,
0001
0010
0100
0000
1010
0000
0110
0000
,
1001
0000
1000
0000
0001
0000
1000
0001
,
0100
0000
0001
0000
1000
0100
0010
0000
,
0101
0101
0110
0000
,
1001
0000
0000
0000
1001
0000
0000
0000
0001
1000
0001
1000
0001
1000
0001
1000
,
0001
1000
0100
1000
0001
0010
1000
0010
,
0001
0100
0010
0000
0100
0000
0110
0000
,
1000
0001
0100
0001
1000
0010
0001
0010
,
1000
0100
0010
0000
0011
0000
0110
0000
,
1001
0000
0001
0000
1000
0000
0001
1000
,
0010
0000
1000
0100
0010
0000
0101
0000
,
0100
0010
0100
0010
1010
0000
0000
0000
,
0010
0000
0100
0010
0100
0000
0010
0000
0000
0000
1000
0000
1000
0000
0000
0000
,
1002
0000
0000
0203
0000
0000
2300
0000
,
0000
3200
0000
0000
0301
0000
1000
0000
,
0002
0000
0000
0203
0000
0000
2300
0000
,
0000
3200
0000
0000
0301
0000
1000
0001
,
2000
0000
0000
3200
0000
0000
0302
0000
,
0000
0203
0000
0000
1300
0000
0001
0000
,
2000
0000
0000
3200
0000
0000
0302
0000
,
0000
0203
0000
0000
1300
0000
1001
0000
,
0010
0100
1000
0100
0010
0000
0001
1000
,
0100
0000
0100
1000
0001
0000
0010
0001
,
1000
0010
0100
0000
0110
0000
0010
1000
,
0001
0100
0010
0000
0110
0000
0000
0000
,
1000
0010
0100
0010
1000
0000
0001
1000
,
0100
1000
0001
0000
1001
0000
0100
0000
,
1010
0000
0100
0000
1010
0000
0100
0001
,
0010
0000
0011
0000
0100
1000
0010
0100
,
0202
0000
0000
0000
,
0000
0000
0000
0000
,
0000
0000
0000
0000
,
0000
0000
0000
0303
;

//---------------dance-double - ----------------
#NOTES:
     dance-double:
     :
     Easy:
     6:
     0.274,0.333,0.123,0.070,0.000:
20000000
00000000
00000000
00000000
,
00000000
00000000
00000000
00000000
,
30020000
00000000
00000000
00000000
,
00000000
00000000
00000000
00000000
,
00230000
00000000
00000000
00000000
,
00000000
00000000
00000000
00000000
,
00302000
00000000
00000000
00000000
,
00003000
00000000
00000000
00000000
,
00011000
00000000
00001000
00000000
,
01000000
00001000
01000000
00000000
,
00011000
00000000
00010000
00000000
,
00000100
00010000
00000100
00000000
,
00011000
00000000
00001000
00000000
,
00100000
00001000
00100000
00000000
,
00001000
00010000
00001000
00000000
,
00010000
00000010
00010000
00000000
,
00000010
00000010
00000110
00000000
,
00001000
00000001
00001001
00000000
,
00000001
00000010
00000100
00010000
,
00000100
00010000
00000100
00010000
,
00001000
00100000
00001000
00100000
,
00001000
00100000
01000000
00000000
,
10000000
00010000
10000000
00010000
,
10010000
00000000
00000000
00000000
,
01100000
00100000
01000000
00000000
,
00010000
10000000
01000000
00000000
,
10000000
01000000
10000000
00000000
,
00100000
01000000
00010000
00100000
,
00001000
00010000
00001000
00000000
,
00010000
00001000
00010000
00000000
,
00000010
00010000
00000010
00000000
,
00010000
00001000
00010000
00000100
,
00000010
00000001
00000100
00000010
,
00000100
00000001
00001000
00000100
,
00001000
00000000
00000001
00001000
,
00000001
00000000
00000100
00000010
,
00000100
00000000
00000001
00000100
,
00000001
00010000
00000100
00010000
,
00011000
00000000
00011000
00000000
,
00001000
01000000
00100000
00000000
,
01000000
00100000
01000000
00100000
,
01000000
00010000
10000000
01000000
,
10000000
01000000
10000000
01000000
,
00100000
00001000
00000100
00000010
,
00002002
00000000
00000000
00000000
,
00003003
00000000
00000010
00000100
,
00000020
00000000
00000000
00000000
,
00000130
00000100
00000110
00000000
,
00000010
00000100
00000010
00000100
,
00000001
00001000
00000001
00001000
,
00000001
00000010
00000001
00000010
,
00000001
00000010
00000100
00010000
,
01000000
00100000
10000000
00010000
,
10000000
00000000
00100000
00000000
,
10010000
00000000
10000000
00000000
,
00010000
00000000
10000000
00000000
,
10010000
00000000
10000000
00000000
,
01000000
00000000
00100000
00000000
,
00010000
00000000
00100000
00000000
,
01000000
00000000
10000000
00000000
,
00100000
00000000
01000000
00000000
,
00001000
00000000
00000100
00000000
,
00000010
00000000
00000001
00000000
,
00000010
00000000
00000100
00000000
,
00010000
00001000
00010000
00000000
,
00000100
00010000
00000100
00000000
,
00010000
00001000
00010000
00000000
,
00001000
00100000
00001000
00000000
,
00010000
00001000
00011000
00000000
,
00001000
00100000
00010000
01000000
,
00100000
01000000
00100000
01000000
,
00100000
01000000
00100000
01000000
,
00200000
00000000
00000000
00000000
,
00000000
00000000
00000000
00000000
,
00000000
00000000
00000000
00000000
,
00000000
00000000
00000000
00300000
;

//---------------dance-double - ----------------
#NOTES:
     dance-double:
     :
     Medium:
     7:
     0.338,0.433,0.141,0.044,0.000:
00002000
00000000
00000000
00000000
,
00000000
00000000
00000000
00000000
,
00023000
00000000
00000000
00000000
,
00000000
00000000
00000000
00000000
,
00032000
00000000
00000000
00000000
,
00000000
00000000
00000000
00000000
,
00023000
00000000
00000000
00000000
,
00030000
00000000
00000000
00000000
,
00000100
00000000
00000100
00000000
,
00100000
00010000
00100000
00000000
,
00000100
00000000
00100000
00000000
,
00000100
00001000
00000100
00000000
,
00011000
00000000
00001000
00000000
,
00100000
00010000
00100000
00000000
,
00001000
01000000
00001000
00000000
,
00010000
00001000
00100000
00000000
,
00010000
01000000
00100000
01000000
,
00100000
10000000
00010000
00000000
,
10000000
00010000
10000000
00001000
,
00010000
00001000
00010000
00000000
,
00000010
00000100
00000010
00000100
,
00000010
00001000
00000100
00000000
,
00001000
00000100
00001000
00000100
,
00010000
00000000
00000000
00000000
,
00011000
00001000
00010000
00001000
,
01000000
00100000
10000000
01000000
,
10000000
00100000
01000000
00100000
,
10000000
01000000
00100000
00001000
,
00010000
00001000
00010000
00000010
,
00000100
00000001
00000100
00000010
,
00000100
00000001
00000010
00000100
,
00010000
00001000
00010000
00001000
,
00011000
00010000
00000100
00010000
,
00001000
00010000
00000100
00010000
,
00001000
01000000
00100000
01000000
,
00001000
00010000
00001000
00100000
,
00010000
00100000
00001000
00010000
,
00000100
00010000
00001000
00010000
,
00000001
00001000
00001001
00000000
,
00000001
00001000
00001001
00000000
,
00001000
00000100
00001000
00000000
00000001
00000010
00000001
00000000
,
00010000
00000010
00000100
00000010
,
00010000
00001000
00010000
00000000
00001000
01000000
00001000
00000000
,
10000000
01000000
00001000
01000000
,
10000000
00000000
00100000
01000000
00100000
00000000
10000000
00010000
,
10000000
01000000
00010000
00000100
,
00000001
00000100
00001000
00000001
,
00001000
00000001
00001000
00000000
00001001
00000000
00000000
00000000
,
00000010
00001000
00000100
00000000
00010000
00000000
00001000
00000000
,
00010000
00000010
00000100
00000000
00000001
00000000
00001000
00000100
,
00001000
00000000
00000010
00000100
00000010
00000000
00010000
00001000
,
00010000
00000001
00000100
00001000
,
01000000
10000000
01000000
00010000
,
10000000
00000000
00100000
01000000
00100000
00000000
10000000
00000000
,
10010000
00000000
01100000
00000000
,
10010000
00000000
00010000
10000000
00000000
00001000
00000000
00000000
,
00011000
00000000
00000000
00010000
00000000
00000000
00000010
00000000
,
00000000
00000100
00000000
00000000
00000001
00000000
00000010
00000000
,
00000100
00000000
00000000
00010000
00000000
00000000
00001000
00000000
,
00000000
01000000
00000000
00000000
00100000
00000000
10000000
00000000
,
00001000
00000000
00000000
00010000
00000000
00000000
00000100
00000000
,
00000000
00000010
00000000
00000000
00000001
00000000
00010000
00000000
,
00001000
00000000
00000000
00010000
00000000
00000000
00001000
00000000
,
00000000
10000000
00000000
00000000
01000000
00000000
00100000
00000000
,
00010000
10000000
00010000
00000000
00100000
00000000
00001000
00010000
,
00001000
00010000
00011000
00000000
,
00000010
00000100
00000010
00000000
00000100
00000000
00000001
00000000
,
00001000
00000001
00001000
00000000
00001001
00000000
00000000
00000000
,
00001000
00010000
00001000
00000000
00010000
00000000
00000100
00000000
,
00010000
00001000
00010000
00000000
00001000
00000000
01000000
00000000
,
00011000
00001000
00011000
00010000
,
00011000
00001000
00011000
00010000
,
00000200
00000000
00000000
00000000
,
00000000
00000000
00000000
00000000
,
00000000
00000000
00000000
00000000
,
00000000
00000000
00000000
00000300
;

//---------------dance-double - ----------------
#NOTES:
     dance-double:
     :
     Hard:
     11:
     0.542,0.566,0.308,0.185,0.035: // measure 1
00000001
00001000
00000001
00001000
,  // measure 2
00000001
00001000
00000001
00000100
,  // measure 3
00000010
00000100
00000010
00000100
,  // measure 4
00000010
00000100
00000010
00000100
,  // measure 5
00000010
00010000
00000010
00010000
,  // measure 6
00000010
00010000
00000010
00010000
,  // measure 7
00001000
00010000
00001000
00010000
,  // measure 8
00002000
00000000
00000000
00003000
,  // measure 9
01000000
00100000
01000000
00010000
10000000
00000000
01000000
00100000
,  // measure 10
00001000
00000000
00010000
00000100
00001000
00000000
00000001
00000010
,  // measure 11
00000100
00010000
00001000
00000000
00011000
00000000
00001000
01000000
,  // measure 12
00100000
00000000
01100000
00000000
10010000
00000000
10000000
01000000
,  // measure 13
00100000
00001000
00010000
00000000
00011000
00000000
00010000
00000001
,  // measure 14
00000010
00000100
00010000
00000000
00011000
00000000
00001000
10000000
,  // measure 15
01000000
00100000
01000000
10000000
00100000
00000000
01000000
00100000
,  // measure 16
10000000
01000000
00001000
01000000
10000000
00000000
00001000
00010000
,  // measure 17
00000001
00000100
00000010
00000000
00000110
00000000
00000000
00000010
,  // measure 18
00010000
00000100
00000010
00000100
00010000
00000000
00001000
10000000
,  // measure 19
01000000
00100000
00010000
00000000
10000000
01000000
00010000
01000000
,  // measure 20
10000000
00000000
10010000
00000000
10000000
00001000
00000000
00011000
,  // measure 21
00000000
00000000
00001000
00010000
00000010
00000100
00000010
00000000
,  // measure 22
00000100
00000001
00000010
00000100
00000000
00010000
00000001
00000010
,  // measure 23
00001000
00000010
00000001
00001000
00000100
00010000
00001000
00100000
,  // measure 24
00010000
00010000
00010000
00010000
,  // measure 25
10010000
00000000
10000000
01000000
00000000
00100000
01000000
00000000
,  // measure 26
10000000
00000000
00001000
00100000
01000000
00100000
00001000
00000000
,  // measure 27
00010000
00000000
00000010
00000100
00000000
00000001
00001000
00000000
,  // measure 28
00000100
00000000
00010000
00000000
00001000
10000000
01000000
10000000
,  // measure 29
00001000
00000000
00010000
00001000
00000000
01000000
00100000
10000000
,  // measure 30
01000000
00001000
01000000
10000000
,  // measure 31
00001000
00000000
00010000
00001000
00000000
01000000
00100000
00000000
,  // measure 32
10000000
00010000
10000000
01000000
00100000
00001000
00010000
00000000
,  // measure 33
00011000
00000000
00000010
00000100
00000000
00000001
00000010
00000000
,  // measure 34
00000001
00000000
00010000
00000100
00000010
00000100
00010000
00000000
,  // measure 35
00001000
00000000
00010000
00001000
00000000
01000000
00100000
00000000
,  // measure 36
10000000
00000000
00001000
01000000
00100000
01000000
00001000
00000000
,  // measure 37
00010000
00000000
00001000
00010000
00000000
00000100
00000010
00000001
,  // measure 38
00000010
00000001
00010000
00001000
,  // measure 39
00010000
00000000
00010000
00000000
00011000
00000000
00000000
00001000
,  // measure 40
01000000
00000000
00100000
00000000
00100000
00000000
00000000
00000000
10000000
00010000
10000000
00010000
10000000
00010000
10000000
00010000
,  // measure 41
10000000
00100000
01000000
00010000
10000000
01000000
00001000
01000000
,  // measure 42
10000000
00000000
10010000
00000000
01001000
00000000
00001000
00010000
,  // measure 43
00000010
00000100
00000010
00010000
00000001
00000010
00010000
00000010
,  // measure 44
00000001
00010001
00010100
00011000
,  // measure 45
01002000
00000000
00000000
00000000
00000000
00000000
10003000
01000000
,  // measure 46
10000000
00000000
00000000
00000000
01000000
10000000
00001000
00000000
,  // measure 47
00010000
00010000
00011000
00000000
,  // measure 48
00000110
00000000
00000000
00000000
00000110
00000000
00000000
00000000
00000010
00000100
00000010
00000100
00000010
00000100
00000010
00000100
,  // measure 49
00000010
00010000
00000100
00010000
00000001
00000100
00010000
00000100
,  // measure 50
00000001
00010001
00010000
00001000
,  // measure 51
10000000
01000000
00100000
00010000
10000000
00100000
00001000
00100000
,  // measure 52
10000000
10001000
01001000
00011000
,  // measure 53
00020100
00000000
00000000
00000000
00000000
00000000
00030001
00000100
,  // measure 54
00000010
00000000
00010000
00000010
00010000
00000000
00010010
00000000
,  // measure 55
00011000
00000000
01100000
00000000
,  // measure 56
11000000
00000000
10000000
00020000
00000000
10000000
10030000
00000000
,  // measure 57
00002000
00000000
00000000
02003000
00000000
00000000
23000000
00000000
,  // measure 58
00000000
32000000
00000000
00000000
03001000
00000000
00010000
00000000
,  // measure 59
00000002
00000000
00000000
00000203
00000000
00000000
00020300
00000000
,  // measure 60
00000000
00030200
00000000
00000000
00000301
00000000
00010000
00001000
,  // measure 61
20000000
00000000
00000000
30200000
00000000
00000000
00302000
00000000
,  // measure 62
00000000
00203000
00000000
00000000
10300000
00000000
00001000
00000000
,  // measure 63
00020000
00000000
00000000
00030020
00000000
00000000
00000032
00000000
,  // measure 64
00000000
00000023
00000000
00000000
00010030
00000000
00011000
00000000
,  // measure 65
00001000
10000000
00100000
10000000
00001000
00000000
10000000
01000000
,  // measure 66
00100000
00000000
01000000
10000000
00001000
00000000
10000000
00001000
,  // measure 67
00010000
00000010
00000100
00000000
00000110
00000000
00000010
00010000
,  // measure 68
00001000
01000000
00100000
00000000
01100000
00000000
00100000
10000000
,  // measure 69
01000000
00100000
00001000
00010000
00001000
00000000
00010000
00000001
,  // measure 70
00000100
00000010
00010000
00000000
00001000
00000000
00010000
00000000
,  // measure 71
00011000
00000000
01000000
00000000
01100000
00000000
00100000
10000000
,  // measure 72
00001000
00000000
00011000
00000000
00010000
00000001
00000010
00000100
,  // measure 73
00020000
00000000
00000000
00000000
,  // measure 74
00000000
00000000
00000000
00000000
,  // measure 75
00000000
00000000
00000000
00000000
,  // measure 76
00000000
00000000
00000000
00030000
;

//---------------dance-single - ----------------
#NOTES:
     dance-single:
     :
     Beginner:
     3:
     0.109,0.158,0.062,0.000,0.000:
1000
0000
0000
0000
,
0000
0000
0000
0000
,
1000
0000
0000
0000
,
0000
0000
0000
0000
,
1000
0000
0000
0000
,
0000
0000
0000
0000
,
1000
0000
0000
0000
,
0000
0000
0000
0000
,
1001
0000
0000
0000
,
0001
0000
0000
0000
,
1000
0000
0000
0000
,
0100
0000
0000
0000
,
1000
0000
0000
0000
,
0001
0000
0000
0000
,
0010
0000
0000
0000
,
0001
0000
0000
0000
,
1000
0000
0001
0000
,
1000
0000
0000
0000
,
0001
0000
1000
0000
,
0001
0000
0000
0000
,
0100
0000
0010
0000
,
0100
0000
0000
0000
,
0010
0000
0100
0000
,
0010
0000
0000
0000
,
0110
0000
0000
0000
,
0100
0000
0000
0000
,
1001
0000
0000
0000
,
0001
0000
0000
0000
,
0110
0000
0000
0000
,
0010
0000
0000
0000
,
1001
0000
0000
0000
,
1000
0000
0001
0000
,
1000
0000
0000
0000
,
0100
0000
0000
0000
,
0010
0000
0000
0000
,
0001
0000
0000
0000
,
1000
0000
0000
0000
,
0010
0000
0000
0000
,
0100
0000
0010
0000
,
0100
0000
0000
0000
,
0110
0000
0010
0000
,
0010
0000
0000
0000
,
0100
0000
0100
0000
,
0100
0000
0000
0000
,
0001
0000
1000
0000
,
0001
0000
0000
0000
,
1000
0000
0001
0000
,
1000
0000
0000
0000
,
1001
0000
0001
0000
,
0001
0000
0000
0000
,
1000
0000
1000
0000
,
1000
0000
0000
0000
,
0010
0000
0100
0000
,
0010
0000
0000
0000
,
0100
0000
0000
0000
,
0100
0000
0000
0000
,
0010
0000
0000
0000
,
0000
0000
0000
0000
,
1000
0000
0000
0000
,
0000
0000
0000
0000
,
0100
0000
0000
0000
,
0000
0000
0000
0000
,
0010
0000
0000
0000
,
0000
0000
0000
0000
,
0001
0000
0000
0000
,
0001
0000
0000
0000
,
1000
0000
0000
0000
,
1000
0000
0000
0000
,
0010
0000
0000
0000
,
0100
0000
0000
0000
,
0001
0000
0001
0000
,
0001
0000
0001
0000
,
1000
0000
0000
0000
;
