#TITLE:コドモライブ;
#SUBTITLE:;
#ARTIST:onoken feat.asami;
#TITLETRANSLIT:KODOMO LIVE;
#SUBTITLETRANSLIT:;
#ARTISTTRANSLIT:;
#CREDIT:DigiMindAxel;
#BANNER:KODOMO LIVE.png;
#BACKGROUND:KODOMO LIVE-bg.png;
#LYRICSPATH:KODOMO LIVE.lrc;
#CDTITLE:pop'n music.png;
#MUSIC:KODOMO LIVE.ogg;
#METERTYPE:DDR X;
#OFFSET:-6.148;
#SAMPLESTART:6.095;
#SAMPLELENGTH:12.000;
#SELECTABLE:YES;
#BPMS:0.000=146.000,166.000=73.000,173.000=146.000,208.000=83.295,209.000=140.010;
#STOPS:;
#BGCHANGES:;

//---------------dance-single - ----------------
#NOTES:
     dance-single:
     :
     Easy:
     5:
     0.207,0.251,0.178,0.213,0.000:
1001
0000
1001
0000
,
0010
0010
0010
0000
,
0110
0000
0110
0000
,
1000
1000
1000
0000
,
1001
0000
1001
0000
,
0010
0010
0010
0000
,
0110
0000
0110
0000
,
1000
1000
1000
0000
,
0002
0000
0000
0000
,
2003
0000
0000
0000
,
3001
0000
0001
0000
,
1000
0001
1000
0001
,
1000
0000
1000
0000
,
0100
0010
0100
0010
,
0100
0000
0100
0000
,
1000
0010
1000
0010
,
1000
0000
1000
0000
,
0001
0001
0001
0000
,
2000
0000
3002
0000
,
0103
0000
0000
0000
,
0002
0000
2003
0000
,
3100
0000
0000
0000
,
0000
1001
0000
1001
,
0000
1001
0000
1001
,
2000
0000
0000
0000
,
3001
0000
0001
0000
,
1001
0000
0000
0000
,
0000
0000
0000
0000
,
1000
0000
0100
0000
,
0010
0010
0010
0000
,
0001
0000
1000
0000
,
0100
0100
0100
0000
,
0010
0000
0001
0000
,
0100
0100
0200
0000
,
0320
0000
0230
0001
,
0001
0301
2000
0000
,
3002
0000
2003
0001
,
0001
3001
0000
1001
,
0000
1001
0000
1001
,
0000
1001
0002
0000
,
2003
0000
3002
0000
,
1003
0001
2000
0000
,
0000
0000
3002
0000
,
0000
0003
0000
1001
,
0000
1001
0000
0110
,
0000
0020
0000
0000
,
0130
0001
0100
0001
,
0001
0001
0001
1000
,
0000
0000
0000
0100
,
0100
0100
1000
0010
,
0100
0002
0000
0000
,
0000
0000
0000
0000
,
0000
2003
0000
0000
,
0000
3020
0000
0000
,
0000
0030
0200
0000
,
0000
0000
0302
0000
,
0000
0000
0003
0000
;

//---------------dance-single - ----------------
#NOTES:
     dance-single:
     :
     Medium:
     8:
     0.342,0.349,0.373,0.160,0.195:
1001
1000
1001
1000
,
0001
0000
0000
0100
0000
0010
0100
0000
0000
0001
0000
0000
,
1001
0001
1001
1000
,
0100
0000
0000
0010
0000
0001
1000
0000
0000
0001
0000
0000
,
1001
1000
1001
1000
,
0001
0000
0000
0100
0000
0010
0100
0000
0000
0001
0000
0000
,
1100
1000
1001
1000
,
0001
0000
0000
0010
0000
0100
0010
0000
0000
0000
0000
0000
,
0002
0000
0000
0000
,
2003
0000
0001
3001
,
2000
0000
3200
0000
,
0310
0001
0100
0010
,
0200
0000
0302
0000
,
2003
0010
3010
0110
,
0002
0000
0000
1000
0000
0000
2000
0003
0000
0001
0000
0000
,
3001
0000
0000
1000
0000
0000
0100
0000
0010
0000
0001
0000
,
1000
0000
0110
0000
,
0110
0110
1001
1001
,
0001
0101
1000
1010
,
0010
0000
0000
0010
0000
0100
0010
0000
0000
0000
0000
0000
,
0001
1001
1000
1100
,
0001
0000
0000
0001
0000
0001
0100
0000
0000
0000
0000
0000
,
0010
0000
0010
0100
0000
0000
0001
0000
0001
1000
0000
0000
,
0100
0000
0100
0010
0000
0000
0001
0000
0001
1000
0000
0000
,
0001
0000
0001
0000
0010
0000
0010
0000
0100
0000
0100
0000
,
1000
0000
0000
0000
0000
0000
0010
0000
1000
0001
0000
1000
,
0002
0000
0000
0000
,
0000
0003
0000
0000
,
1000
1001
0001
0101
,
0010
0000
0100
0010
0000
0100
0010
0000
0000
1000
0000
0000
,
1100
0010
0110
0001
,
1000
0000
0100
1000
0000
0100
1000
0000
0000
0010
0000
0000
,
0110
0100
0101
0001
,
1000
0000
0100
1000
0000
0100
1000
0000
0000
1001
0000
0000
,
0001
1001
0100
0110
,
0110
0110
1000
1100
,
0001
0101
1000
1001
,
1001
1001
0100
1100
,
0100
1100
0010
0011
,
0010
0000
0000
0011
0000
0000
0001
0000
0001
0000
1000
0000
,
1000
0000
0010
0000
0010
0000
0200
0000
0000
0000
0000
0000
,
0310
0110
2000
0000
,
0000
0000
3002
0000
,
0000
0000
0000
1003
0000
0000
0000
0000
0000
0001
0000
0001
,
0100
0000
0000
0001
0000
0001
1000
0000
0000
0100
0000
0100
,
1000
0000
0000
0010
0000
0100
0000
0001
0000
0000
0000
0000
,
1000
0000
1000
0001
0000
0000
0010
0000
0010
0100
0000
0000
,
1100
0100
1100
1001
,
0000
0000
0000
0001
0000
0010
0000
0100
0000
1000
0000
1000
,
0001
0000
0000
0100
0000
0100
0001
0000
0000
0010
0000
0010
,
0100
0000
0100
2000
0000
0000
0000
0000
0000
0000
0000
0000
,
0000
0000
0000
0000
,
3000
0002
0000
0000
,
0000
0000
0200
0000
0000
0000
0000
0000
0000
0000
0000
0000
,
0303
0000
0000
0000
0020
0000
0000
0000
0000
0000
0000
0000
,
0000
0000
0000
0000
0200
0000
0000
0000
0000
0000
0000
0000
,
0000
0330
0000
0000
;

//---------------dance-single - ----------------
#NOTES:
     dance-single:
     :
     Hard:
     12:
     0.520,0.512,0.417,0.231,0.568:
1001
0000
0000
1000
0000
0000
1001
0000
0000
1000
0000
1000
,
0010
0000
0010
0100
0000
0100
0001
0000
0000
0010
0100
0010
,
0100
1100
0100
1100
,
1000
0000
1000
0001
0000
0001
0010
0000
0000
0100
0000
0000
,
1001
0000
0000
0100
0000
0000
1001
0000
0000
0100
0000
0100
,
1000
0000
1000
0001
0000
0001
0010
0000
0000
0100
0010
0100
,
0010
0000
0000
0011
0000
0000
0010
0000
0000
0011
0000
0001
,
1000
0000
1000
0100
0000
0100
0010
0000
0001
1000
0000
0000
,
0200
1300
0200
1300
,
0200
0000
0000
1300
0000
0000
0110
0000
0010
0100
0000
0100
,
0002
0013
2000
3010
,
1001
0000
1000
0010
0000
0010
0100
0000
0100
0001
0000
0000
,
2000
3100
0002
0103
,
1001
0000
1000
0001
0000
0001
0010
0000
0010
0100
0000
0000
,
2000
3010
0002
0013
,
1001
0000
0000
0100
0000
0100
2000
0000
3020
0000
0230
0000
,
0302
0000
0000
1003
0000
0000
0001
1000
0001
1000
0000
0100
,
1000
0000
1000
0001
0000
0001
0100
0000
0100
0010
0000
0000
,
2000
3020
0032
0023
,
1030
0000
1000
0001
0000
0001
1000
0000
0000
1001
0000
0000
,
0002
0203
2300
3200
,
0301
0000
0001
1000
0000
1000
0001
0000
0000
1001
0000
0000
,
1000
0100
1000
0001
0000
0000
0010
0100
1000
0010
0000
0000
,
0100
0001
0100
0010
0000
0000
1000
0010
0100
0001
0000
0000
,
1001
0000
1000
0000
1010
0000
0010
0000
0110
0000
0100
0000
,
0101
0000
0000
1001
0000
0000
1000
0000
1000
0100
0010
0001
,
0200
0000
0000
0000
,
0000
0000
0000
0310
0100
0010
0100
0000
0000
0000
0000
0000
,
0101
0000
0000
0110
0000
0000
1100
0000
0000
1001
0000
0001
,
0100
0000
0100
1000
0000
1000
0100
0000
0100
0001
0000
0000
,
0101
0000
0000
0110
0000
0000
1100
0000
0000
1001
0000
0001
,
0010
0000
0010
1000
0000
1000
0010
0000
0010
0001
0000
0000
,
1001
0000
0000
1100
0000
0000
0101
0000
0000
0110
0000
0100
,
0001
0000
0001
0010
0000
0010
0100
1000
0100
1000
0000
0000
,
0010
0100
0010
0100
0000
0000
0001
0100
0001
1000
0000
0000
,
1001
0000
0000
1001
0000
0000
0010
0001
0010
0001
0000
0000
,
0100
0010
0100
0010
0000
0000
1000
0010
1000
0001
0000
0000
,
1001
1001
0010
0101
,
0010
0101
1000
0110
,
0001
0000
0000
0110
0000
0000
1100
0000
1000
0000
1001
0000
,
0001
0000
0011
0000
0010
0000
0110
0000
0100
1000
0000
1000
,
0001
0000
0000
0000
0001
0000
0100
0000
0000
0000
0000
0000
0010
0000
0000
0010
0000
0000
0100
0000
0000
0100
0000
0000
,
0001
0010
0100
0000
1000
1000
0001
0001
,
1000
0000
0000
0010
0000
0000
0200
0000
0000
0000
0000
0000
0000
0000
0000
0000
0000
0000
0310
0000
0000
0000
0010
0000
,
0001
0000
0000
0010
0100
1000
0010
0000
1000
0100
0000
0100
,
0010
0000
0010
0001
0000
0101
0000
0110
0000
0000
0000
0000
,
0100
0000
0100
1000
0010
0100
0010
0000
1000
0001
0000
0001
,
0100
0000
0100
1000
0000
1000
0100
0000
0100
0002
0000
0000
,
0000
0000
0000
1003
0000
1010
0000
0010
0000
0110
0000
0100
,
0001
0000
0001
1000
0000
1000
0010
0000
0010
0001
0000
0001
,
0010
0000
0010
2000
0000
0000
0000
0000
0000
0000
0000
0000
,
0000
0000
0000
0000
,
0000
0000
0000
3001
0100
0001
0100
0000
0001
1000
0000
0100
,
0010
0000
0001
0100
0000
0001
0010
0100
0010
0001
1000
0100
,
0010
0100
1000
0000
0010
0100
0010
0100
0000
0001
1000
0000
,
0100
0000
0010
0000
0000
0000
0001
0000
1000
0000
0000
0000
0100
0000
0000
0010
0000
0000
0100
0000
0000
0000
1000
0000
,
0000
0010
0000
0200
0000
0000
0000
0000
0000
0000
0000
0000
,
0000
0000
0000
0000
,
0000
0000
0000
0000
,
0000
0000
0000
0000
,
0000
0000
0000
0300
;

//---------------dance-single - ----------------
#NOTES:
     dance-single:
     :
     Challenge:
     14:
     0.628,0.674,0.488,0.071,0.981:
1100
0000
1000
0010
0000
0010
0100
0000
0100
0001
0000
0100
,
0001
0100
0001
1000
0100
0010
0100
0000
0000
1000
0010
0100
,
0001
0000
0001
1000
0000
1000
0100
0000
1000
0100
1000
0100
,
0010
0001
0100
0010
0100
0010
0100
0000
0000
1001
0000
0000
,
0101
0000
0100
0010
0000
0010
1000
0000
0010
1000
0000
0010
,
1000
0010
0100
0010
0100
0001
0010
0001
0010
0100
0000
0000
,
1100
0000
0000
1001
0000
0000
0101
0000
0000
1001
0000
1000
,
0001
0010
0001
0010
0000
0001
0010
0000
0100
0010
0000
0000
,
0001
1000
0100
0010
0001
1000
0100
0010
0001
1000
0000
0000
,
0001
1000
0010
0100
0001
1000
0010
0000
0010
0100
0001
0010
,
0100
0000
0000
1000
0000
0001
0100
0000
0000
0001
0000
0000
,
1001
0000
1000
0010
0000
0010
0001
0000
0001
0010
0000
0000
,
1000
0000
0000
0001
0000
0100
0010
0000
0000
1000
0000
0010
,
0100
0000
0001
0100
0000
0100
1000
0000
1000
0100
0000
0000
,
0001
0000
0000
1001
0000
1000
0100
0000
0000
0011
0000
0000
,
0001
0000
0001
1000
0000
1000
0010
0000
1010
0000
0110
0000
,
0102
0000
0000
1000
0000
0000
0103
0010
0100
0010
0000
1000
,
0001
0010
0100
1000
0001
0010
0100
1000
0001
0100
0000
0000
,
0001
0000
0001
0100
0000
0000
1000
0000
1000
0100
0000
0000
,
0001
0000
0001
1000
0000
1000
0001
0000
0000
0110
0000
0000
,
1000
0000
1000
0010
0000
0000
0001
0000
0001
0010
0000
0000
,
1000
0000
1000
0001
0000
0001
1000
0100
0010
0001
0010
0100
,
1000
0010
0100
0110
0000
0000
0100
0001
1000
1001
0000
0000
,
0100
0001
0010
0011
0000
0000
0100
1000
0010
0110
0000
0000
,
0011
0000
0011
0000
1010
0000
1010
0000
1001
0000
1001
0000
,
0110
0000
0000
0101
0000
0000
1010
0000
1000
0100
0001
0100
,
2000
0000
0000
0000
,
0000
0000
0000
3001
1000
0001
1001
0000
0000
0000
0000
0000
,
0100
0000
0100
0001
0000
0001
1000
0000
1000
0100
0000
1000
,
1000
0001
0010
0100
0010
0001
0100
0000
1000
0100
0000
0000
,
0001
0000
0001
1000
0000
1000
0010
0000
0010
0100
0000
0001
,
0001
1000
0100
0010
0100
1000
0100
0001
0100
1000
0000
0000
,
1001
0000
0001
0010
0000
0010
0100
0000
0100
1000
0000
0001
,
0001
0100
0010
0100
0001
1000
0100
1000
0010
1010
0000
0000
,
0100
0001
0010
0011
0000
0000
0100
1000
0100
0110
0000
0000
,
1001
0000
0000
0110
0000
0000
0100
0001
1000
1100
0000
0000
,
0010
0001
1000
1001
0000
0000
0010
1000
0001
0011
0000
0000
,
1001
0011
2010
3100
,
0012
1003
0201
0310
,
1200
0000
0000
0310
0000
0000
0011
0000
0011
0000
1001
0000
,
1001
0000
1010
0000
0010
1000
0010
0100
0001
0010
0100
1000
,
0001
0000
0100
0000
1000
0000
0100
0000
0001
0000
1000
0000
0001
0000
0001
0010
0000
0000
1000
0000
1000
0010
0000
0000
,
0001
0000
0001
1000
0000
0001
1000
0000
0000
0000
0000
0000
0001
0000
0001
0100
0000
0000
1000
0000
1000
0100
0000
0000
,
0001
0000
0001
1000
0000
0001
1000
0000
0100
0000
1000
0000
0100
0000
1000
0000
0100
0000
0010
0000
0000
0000
0001
0000
,
0100
0000
1000
0100
0001
0010
0100
1000
0001
0100
0000
0100
,
0010
0000
0010
1010
0000
1001
0000
0101
0000
0000
0000
0000
,
1001
0000
1000
0100
0001
0100
1000
0000
1000
0001
0000
0001
,
0010
0000
0010
0100
0000
0100
1000
0000
1000
0010
0100
0010
,
0100
0010
0100
0001
0000
0101
0000
0110
0000
1100
0000
1000
,
0001
0000
0001
0100
0000
0100
0010
0000
0010
0100
0001
1000
,
0100
0010
0001
0020
0000
0000
0000
0000
0000
0000
0000
0000
,
0000
0000
0000
0000
,
0000
0000
0000
0031
1000
0001
1000
0100
0010
0001
1000
0001
,
1000
0010
0100
0001
0000
0001
1000
0100
0010
0001
1000
0100
,
0010
0001
0000
0000
0100
0001
0100
0010
1000
0100
1000
0100
,
0010
0000
0001
0000
1000
0000
0001
0000
0010
0000
0001
0000
0100
0000
0000
0010
0000
0000
1000
0000
0000
0000
0100
0000
,
0000
0010
0000
0002
0000
0000
0000
0000
0000
0000
0000
0000
,
0000
0000
0000
0000
,
0000
0000
0000
0000
,
0000
0000
0000
0000
,
0000
0000
0000
0003
;

//---------------dance-double - ----------------
#NOTES:
     dance-double:
     :
     Easy:
     5:
     0.212,0.231,0.115,0.204,0.000:
10000000
10000000
00010000
00010000
,
10000000
01000000
00100000
00000000
,
00001000
00001000
00010000
00010000
,
00000010
00000100
00000001
00000000
,
00000010
00000010
00000100
00000100
,
00010000
00001000
00100000
00000000
,
00010000
00010000
10000000
10000000
,
01000000
00100000
00001000
00000000
,
00020000
00000000
00000000
00000000
,
00032000
00000000
00000000
00000000
,
00023000
00000000
00030020
00000000
,
00000130
00000010
00000100
00000010
,
00000200
00000000
00000302
00000000
,
00000013
00000100
00000010
00000100
,
00002000
00000000
00023000
00000000
,
00031000
01000000
00001000
01000000
,
00200000
00000000
02300000
00000000
,
03100000
00100000
01100000
00000000
,
10000000
00000000
01000000
00000000
,
00100000
00000000
00000000
00000000
,
00010000
00000000
00001000
00000000
,
00000010
00000000
00000000
00000000
,
00000000
00001001
00000000
00001001
,
00000000
00001001
00000000
00001001
,
00000001
00000000
00000010
00000000
,
00000100
00000000
00010000
00001000
,
00011000
00000000
00000000
00000000
,
00000000
00000000
00000000
00000000
,
01000000
00100000
01000000
00000000
,
00010000
00010000
00010000
00000000
,
00100000
00001000
00100000
00000000
,
00010000
00010000
00010000
00000000
,
00001000
00000100
00001000
00000000
,
00000001
00000001
00000002
00000000
,
00002003
00000000
00003200
00010000
,
00010000
00010300
00002000
00000000
,
00203000
00000000
02300000
10000000
,
10000000
13000000
00000000
10010000
,
00000000
10010000
00000000
10010000
,
00000000
10010000
10000000
00000000
,
01000000
00000000
00100000
00000000
,
00010000
00001000
00021000
00000000
,
00000000
00000000
00032000
00000000
,
00000000
00003000
00000000
00010000
,
00001000
00010000
00000100
00000010
,
00000001
00002000
00000000
00000000
,
00013000
00001000
00100000
01000000
,
01000000
01000000
01000000
20020000
,
00000000
30030000
00000000
01000000
,
01000000
01000000
01000000
10000000
,
00001000
00022000
00000000
00000000
,
00000000
00000000
00000000
00000000
,
00033000
00000000
00000000
00000000
;

//---------------dance-double - ----------------
#NOTES:
     dance-double:
     :
     Medium:
     8:
     0.346,0.424,0.311,0.240,0.200:
20010000
31000000
20010000
31000000
,
00100000
00000000
00000000
00001000
00000000
00010000
00001000
00000000
00000000
00010000
00000000
00000000
,
00010020
00000130
00010020
00000130
,
00000001
00000000
00000000
00000010
00000000
00000001
00000010
00000000
00000000
00000100
00000000
00000000
,
00012000
01003000
00012000
01003000
,
00100000
00000000
00000000
10000000
00000000
00010000
00100000
00000000
00000000
00001000
00000000
00000000
,
02001000
03100000
02001000
03100000
,
10000000
00000000
00000000
01000000
00000000
00100000
01000000
00000000
00000000
00000000
00000000
00000000
,
20000000
00000000
00000000
00000000
,
30002000
00000000
00010000
00013000
,
00000200
00000000
00000320
00000000
,
00000031
00000100
00001000
00000100
,
00000002
00000000
00020003
00000000
,
00032000
01000000
01003000
01100000
,
00200000
00000000
00000000
01000000
00000000
00000000
02000000
00300000
00000000
00100000
00000000
00000000
,
03100000
00000000
00000000
10000000
00000000
00000000
01000000
00000000
00100000
00000000
00010000
00000000
,
00002000
00000000
00013000
00000000
,
00010100
00010100
00000110
00000110
,
00000001
00000010
00001000
00000010
,
00000001
00000000
00000000
00010000
00000000
00010000
00001000
00000000
00000000
00000000
00000000
00000000
,
10000000
01000000
00010000
01000000
,
10000000
00000000
00000000
00001000
00000000
00001000
00010000
00000000
00000000
00000000
00000000
00000000
,
00000010
00000000
00000010
00000100
00000000
00000000
00000001
00000000
00000001
00000010
00000000
00000000
,
00000100
00000000
00000100
00001000
00000000
00000000
00010000
00000000
00010000
00001000
00000000
00000000
,
00100000
00000000
01000000
00000000
10000000
00000000
00001000
00000000
01000000
00000000
00100000
00000000
,
01000000
00000000
00000000
00000000
00000000
00000000
00010000
00000000
00010000
00001000
00000000
00000000
,
00010020
00000000
00000000
00000000
,
00000000
00000030
00000000
00000000
,
00001000
00000010
00000001
00000010
,
00001000
00000000
00000100
00000010
00000000
00000100
00000010
00000000
00000000
00000001
00000000
00000000
,
00000010
00001000
00000010
00000001
,
00010000
00000000
00001000
00010000
00000000
00001000
00010000
00000000
00000000
01000000
00000000
00000000
,
10000000
01000000
00010000
10000000
,
00001000
00000000
00010000
00001000
00000000
00010000
00001000
00000000
00000000
00011000
00000000
00000000
,
00011000
00010010
00010010
00001001
,
00001001
00001001
00000010
00000011
,
00000011
00010010
00010010
00011000
,
00011000
00011000
01000000
10010000
,
01000000
10010000
00100000
00101000
,
00100000
00000000
00000000
00101000
00000000
00000000
00001000
00000000
00001000
00000000
00010000
00000000
,
00010000
00000000
00000010
00000000
00000100
00000000
00000020
00000000
00000000
00000000
00000000
00000000
,
00000130
00000000
00000001
00001000
00000000
00000001
00002000
00000000
00000000
00000000
00000000
00000000
,
00000000
00000000
00003200
00000000
,
00000000
00000000
00000000
00010300
00000000
00000000
00000000
00000000
00000000
00001000
00000000
00001000
,
00100000
00000000
00000000
01000000
00000000
01000000
10000000
00000000
00000000
00100000
00000000
00100000
,
01000000
00000000
00000000
00001000
00000000
00010000
00000000
00000100
00000000
00000000
00000000
00000000
,
00000010
00000000
00000010
00000001
00000000
00000000
00000100
00000000
00000100
00000010
00000000
00000000
,
00000110
00010000
00011000
01001000
,
00000000
00000000
00000000
01000000
00000000
00010000
00000000
10000000
00000000
01000000
00000000
01000000
,
00100000
00000000
00000000
00010000
00000000
00010000
00100000
00000000
00000000
00001000
00000000
00001000
,
00010000
00000000
00010000
00000020
00000000
00000000
00000000
00000000
00000000
00000000
00000000
00000000
,
00000000
00000000
00000000
00000000
,
00000030
00200000
00000000
00000000
,
00000000
00000000
00020000
00000000
00000000
00000000
00000000
00000000
00000000
00000000
00000000
00000000
,
00330000
00000000
00000000
00000000
20000000
00000000
00000000
00000000
00000000
00000000
00000000
00000000
,
00000000
00000000
00000000
00000000
00020000
00000000
00000000
00000000
00000000
00000000
00000000
00000000
,
00000000
30030000
00000000
00000000
;

//---------------dance-double - ----------------
#NOTES:
     dance-double:
     :
     Hard:
     12:
     0.508,0.512,0.311,0.204,0.604:
20000000
00000000
00000000
31000000
00000000
00000000
00200000
00000000
00000000
01300000
00000000
01000000
,
10000000
00000000
10000000
00001000
00000000
00001000
00010000
00000000
00000000
00000100
00000010
00000100
,
00000020
00000000
00000000
00000031
00000000
00000000
00000200
00000000
00000000
00000310
00000000
00000010
,
00001000
00000000
00001000
00010000
00000000
00010000
00100000
00000000
00000000
01000000
00000000
00000000
,
20000000
00000000
00000000
30100000
00000000
00000000
20000000
00000000
00000000
30010000
00000000
00010000
,
10000000
00000000
10000000
01000000
00000000
01000000
00100000
00000000
00000000
00010000
00001000
00010000
,
00002000
00000000
00000000
00003100
00000000
00000000
00000020
00000000
00000000
00000130
00000000
00000100
,
00001000
00000000
00001000
00000001
00000000
00000001
00010000
00000000
00010000
00001000
00000000
00000000
,
00100000
00000000
00100000
01000000
00000000
01000000
10000000
00000000
10000000
00010000
00000000
00000000
,
01000000
00000000
01000000
00001000
00000000
00001000
00010000
00000000
00010000
00000010
00010000
00000010
,
00020000
00030001
00000200
00000301
,
00001001
00000000
00000001
00000010
00000000
00000010
00000100
00000000
00000100
00010000
00000000
00000000
,
00200000
01300000
20000000
31000000
,
10010000
00000000
10000000
00100000
00000000
00100000
01000000
00000000
01000000
00010000
00000000
00000000
,
00002000
00003100
00000020
00000130
,
00001001
00000000
00000000
00001000
00000000
00001000
00000020
00000000
00000230
00000000
00000302
00000000
,
00020003
00000000
00000000
00031000
00000000
00000000
00100000
01000000
00100000
01000000
00000000
10000000
,
01000000
00000000
10000000
00010000
00000000
01000000
00001000
00000000
00010000
00001000
00000000
00000000
,
00010000
00000010
00000001
00000010
,
00010000
00001000
00100000
01100000
,
00010000
01000000
10000000
01000000
,
00001000
00010000
00000100
00000110
,
00000010
00000001
00000010
00000100
00000000
00000000
00010000
00001000
00010000
00100000
00000000
00000000
,
01000000
10000000
00100000
01000000
00000000
00000000
00100000
01000000
00001000
00010000
00000000
00000000
,
00011000
00000000
00010000
00000000
00010010
00000000
00000010
00000000
00000110
00000000
00000100
00000000
,
00000101
00000000
00000000
00001001
00000000
00000000
00001000
00000000
00001000
00000100
00000010
00000100
,
00020000
00000000
00000000
00000000
,
00000000
00000000
00000000
00031000
00010000
00001000
00010000
00000000
00000000
00000000
00000000
00000000
,
01001000
00000000
00000000
01100000
00000000
00000000
11000000
00000000
00000000
10010000
00000000
00010000
,
01000000
00000000
01000000
00010000
00000000
00010000
00001000
00000000
00001000
00000010
00000000
00000000
,
00001010
00000000
00000000
00000110
00000000
00000000
00000011
00000000
00000000
00001001
00000000
00001000
,
00000010
00000000
00000010
00010000
00000000
00010000
00001000
00000000
00001000
00100000
00000000
00000000
,
10010000
00000000
00000000
11000000
00000000
00000000
01010000
00000000
00000000
01100000
00000000
01000000
,
00001000
00000000
00001000
00010000
00000000
00010000
00000100
00000010
00000100
00000010
00000000
00000000
,
00000001
00000100
00000001
00000100
00000000
00000000
00000001
00000010
00000100
00010000
00000000
00000000
,
00011000
00000000
00000000
00011000
00000000
00000000
00001000
00100000
00001000
00100000
00000000
00000000
,
01000000
00100000
01000000
00100000
00000000
00000000
00010000
01000000
00001000
00010000
00000000
00000000
,
00011000
00011000
00010000
00000110
,
00000001
00000110
00010000
01100000
,
10000000
00000000
00000000
01100000
00000000
00000000
00001000
00000000
00001000
00000000
00011000
00000000
,
00010000
00000000
00010100
00000000
00000100
00000000
00000110
00000000
00000010
00000001
00000000
00000001
,
00010000
00000000
00000000
00000000
00010000
00000000
00001000
00000000
00010000
00000000
00001000
00000000
00100000
00000000
00000000
00100000
00000000
00000000
01000000
00000000
00000000
01000000
00000000
00000000
,
10000000
00100000
01000000
00000000
00010000
00010000
00001000
00001000
,
00000010
00000000
00000000
00000100
00000000
00000000
00000002
00000000
00000000
00000000
00000000
00000000
00000000
00000000
00000000
00000000
00000000
00000000
00001003
00000000
00000000
00000000
00001000
00000000
,
00000001
00000000
00000000
00000010
00000100
00001000
00010000
00000000
00010000
01000000
00000000
01000000
,
00100000
00000000
00100000
10000000
00000000
10001000
00000000
00101000
00000000
00000000
00000000
00000000
,
00001000
00000000
00001000
00010000
00000100
00000010
00000001
00000000
00000001
00010000
00000000
00010000
,
00001000
00000000
00001000
00100000
00000000
00100000
01000000
00000000
01000000
20000000
00000000
00000000
,
00000000
00000000
00000000
30010000
00000000
00100000
00000000
01000000
00000000
10000000
00000000
10000000
,
00100000
00000000
00100000
01000000
00000000
01000000
00001000
00000000
00001000
00010000
00000000
00010000
,
00000100
00000010
00000001
00000020
00000000
00000000
00000000
00000000
00000000
00000000
00000000
00000000
,
00000000
00000000
00000000
00000000
,
00000000
00000000
00000000
00000031
00000010
00000001
00000010
00000000
00000000
00000100
00000010
00000000
,
00000100
00010000
00000000
00001000
00100000
00000000
01000000
10000000
01000000
00100000
00010000
10000000
,
01000000
00100000
01000000
10000000
00000000
00100000
10000000
00100000
10000000
00000000
00100000
01000000
,
00000000
00000000
00001000
00000000
00010000
00000000
00000000
00000000
00000100
00000000
00000010
00000000
00000001
00000000
00000000
00000010
00000000
00000000
00000100
00000000
00000000
00000000
00010000
00000000
,
00000000
00001000
00000000
02000000
00000000
00000000
00000000
00000000
00000000
00000000
00000000
00000000
,
00000000
00000000
00000000
00000000
,
00000000
00000000
00000000
00000000
,
00000000
00000000
00000000
00000000
,
00000000
00000000
00000000
03000000
;

//---------------dance-double - ----------------
#NOTES:
     dance-double:
     :
     Challenge:
     14:
     0.625,0.674,0.479,0.062,0.985:
01100000
00000000
01000000
10000000
00000000
10000000
00001000
00000000
00001000
00100000
00000000
00001000
,
00010000
00000100
00000010
00000001
00001000
00000001
00001000
00000000
00000000
00000010
00000100
00000010
,
00000100
00000000
00000100
00000001
00000000
00000001
00010000
00000000
00001000
01000000
00001000
10000000
,
01000000
00100000
00010000
10000000
00010000
10000000
00010000
00000000
00000000
10010000
00000000
00000000
,
11000000
00000000
10000000
00001000
00000000
00001000
01000000
00000000
01000000
00010000
00000000
00001000
,
00000100
00001000
00000010
00000100
00000001
00000010
00000100
00001000
00000001
00001000
00000000
00000000
,
00001001
00000000
00000000
00001100
00000000
00000000
00000011
00000000
00000000
00000110
00000000
00000100
,
00000010
00010000
00000010
00010000
00000000
00010000
00001000
00000000
00001000
00100000
00000000
00000000
,
00010000
00100000
01000000
10000000
00010000
00100000
01000000
10000000
00010000
00001000
00000000
00000000
,
00000100
00000010
00000001
00001000
00000100
00000010
00000001
00000000
00010000
00001000
01000000
00100000
,
02000000
00000000
00000000
03100000
00000000
10000000
01000000
00000000
00000000
00100000
00000000
00000000
,
01100000
00000000
01000000
00001000
00000000
00001000
00010000
00000000
00010000
00000100
00000000
00000000
,
00000020
00000000
00000000
00000031
00000000
00000100
00000010
00000000
00000000
00001000
00000000
00001000
,
00010000
00000000
00010000
01000000
00000000
01000000
00100000
00000000
00100000
10000000
00000000
00000000
,
00100000
00000000
00000000
01100000
00000000
01000000
00001000
00000000
00000000
00011000
00000000
00000000
,
00010000
00000000
00010000
00000100
00000000
00000100
00000010
00000000
00000110
00000000
00000101
00000000
,
00020010
00000000
00000000
00000000
00000000
00000000
00031000
10000000
00001000
10000000
00000000
01000000
,
10000000
01000000
10000000
00100000
01000000
00001000
00010000
00000100
00000010
00000001
00000000
00000000
,
00000100
00000000
00000100
00000010
00000000
00000000
00001000
00000000
00001000
00010000
00000000
00000000
,
00100000
00000000
00100000
01000000
00000000
01000000
00100000
00000000
00000000
10010000
00000000
00000000
,
01000000
00000000
01000000
10000000
00000000
00000000
00100000
00000000
00100000
01000000
00000000
00000000
,
00001000
00000000
00001000
00010000
00000000
00010000
00000010
00000000
00000000
00000110
00000000
00000000
,
00000100
00000001
00001000
00001100
00000000
00000000
00001000
00010000
01000000
01100000
00000000
00000000
,
00100000
10000000
00001000
00101000
00000000
00000000
00010000
00000100
00000010
00000011
00000000
00000000
,
00000110
00000000
00000110
00000000
00010010
00000000
00010010
00000000
00011000
00000000
00011000
00000000
,
01001000
00000000
00000000
01100000
00000000
00000000
10001000
00000000
10000000
01000000
00100000
00001000
,
00020000
00000000
00000000
00000000
,
00000000
00000000
00000000
00031000
00010000
00001000
00020000
00000000
00000000
00000000
00000000
00000000
,
00030001
00000000
00000001
00000010
00000000
00000010
00000100
00000000
00000100
00010000
00000000
00001000
,
10000000
01000000
00010000
01000000
10000000
00100000
01000000
00000000
00010000
00001000
00000000
00000000
,
00000010
00000000
00000010
00000100
00000000
00000100
00000001
00000000
00000001
00010000
00000000
00001000
,
10000000
00100000
00010000
00100000
10000000
01000000
00100000
00001000
00010000
00000010
00000000
00000000
,
00000110
00000000
00000010
00000001
00000000
00000001
00010000
00000000
00010000
00001000
00000000
00010000
,
00000001
00000010
00001000
00000010
00000001
00000100
00000010
00010000
00001000
01001000
00000000
00000000
,
00100000
10000000
00010000
00110000
00000000
00000000
00010000
00001000
00000010
00000110
00000000
00000000
,
00001001
00000000
00000000
00000110
00000000
00000000
00000010
00000001
00000100
00000110
00000000
00000000
,
00001000
00100000
01000000
01100000
00000000
00000000
10000000
00100000
01000000
01001000
00000000
00000000
,
00011000
00000000
00000000
01001000
00000000
00000000
00011000
00000000
00010000
00000010
00000000
00000000
,
00000110
00000000
00000010
00001000
00000000
00000000
00000011
00000000
00000001
00001000
00000000
00001000
,
00000001
00000000
00010000
00001000
00000000
00000000
00011000
00000000
00011000
00000000
01010000
00000000
,
01010000
00000000
11000000
00000000
10000000
01000000
10000000
00010000
00100000
10000000
00100000
00001000
,
00010000
00000000
00000100
00000000
00000010
00000000
00000100
00000000
00001000
00000000
00000001
00000000
00010000
00000000
00010000
00001000
00000000
00000000
00100000
00000000
00100000
01000000
00000000
00000000
,
10000000
00000000
10000000
00010000
00000000
10000000
00010000
00000000
00000000
00000000
00000000
00000000
00001000
00000000
00001000
00000010
00000000
00000000
00000100
00000000
00000100
00000010
00000000
00000000
,
00001000
00000000
00001000
00000001
00000000
00001000
00000001
00000000
00000010
00000000
00000001
00000000
00000010
00000000
00000100
00000000
00010000
00000000
00000100
00000000
00000000
00000000
00010000
00000000
,
00001000
00000000
00100000
01000000
10000000
00100000
00010000
00100000
10000000
00001000
00000000
00001000
,
00010000
00000000
00000010
00000110
00000000
00000101
00000000
00010010
00000000
00000000
00000000
00000000
,
00011000
00000000
00010000
00000010
00000100
00000010
00001000
00000000
00001000
00010000
00000000
00010000
,
01000000
00000000
01000000
00100000
00000000
00100000
10000000
00000000
10000000
00001000
00100000
00001000
,
00010000
00000100
00000010
00000100
00000000
00000110
00000000
00000101
00000000
00001001
00000000
00001000
,
00000100
00000000
00000100
00010000
00000000
00010000
00001000
00000000
00001000
00100000
01000000
10000000
,
00010000
01000000
00001000
00020000
00000000
00000000
00000000
00000000
00000000
00000000
00000000
00000000
,
00000000
00000000
00000000
00000000
,
00030000
00000000
00000000
00001000
00010000
00001000
00010000
00000010
00000100
00000010
00000100
00000001
,
00000010
00000100
00010000
00001000
00000000
00100000
01000000
10000000
00010000
00100000
01000000
10000000
,
00010000
00100000
00000000
00000000
00001000
00010000
00001000
00010000
00000010
00000100
00000010
00000100
,
00000001
00000000
00001000
00000000
00000010
00000000
00000100
00000000
00000010
00000000
00010000
00000000
00001000
00000000
00000000
10000000
00000000
00000000
01000000
00000000
00000000
00000000
00100000
00000000
,
00000000
00010000
00000000
00200000
00000000
00000000
00000000
00000000
00000000
00000000
00000000
00000000
,
00000000
00000000
00000000
00000000
,
00000000
00000000
00000000
00000000
,
00000000
00000000
00000000
00000000
,
00000000
00000000
00000000
00300000
;

//---------------dance-single - ----------------
#NOTES:
     dance-single:
     :
     Beginner:
     3:
     0.096,0.178,0.151,0.000,0.000: // measure 1
1000
0000
0000
0000
,  // measure 2
0100
0000
0000
0000
,  // measure 3
1000
0000
0000
0000
,  // measure 4
0010
0000
0000
0000
,  // measure 5
0100
0000
0000
0000
,  // measure 6
0001
0000
0000
0000
,  // measure 7
0010
0000
0000
0000
,  // measure 8
0001
0000
0000
0000
,  // measure 9
1000
0000
0000
0000
,  // measure 10
0000
0000
0000
0000
,  // measure 11
1001
0000
0000
0000
,  // measure 12
0000
0000
0000
0000
,  // measure 13
0010
0000
0000
0000
,  // measure 14
0000
0000
0000
0000
,  // measure 15
0100
0000
0000
0000
,  // measure 16
0000
0000
1000
0000
,  // measure 17
0001
0000
0000
0000
,  // measure 18
1001
0000
0000
0000
,  // measure 19
0001
0000
0001
0000
,  // measure 20
0001
0000
0000
0000
,  // measure 21
1000
0000
1000
0000
,  // measure 22
1000
0000
0000
0000
,  // measure 23
1001
0000
1001
0000
,  // measure 24
1001
0000
0000
0000
,  // measure 25
0110
0000
0000
0000
,  // measure 26
0010
0000
0000
0000
,  // measure 27
0010
0000
0000
0000
,  // measure 28
0000
0000
0000
0000
,  // measure 29
1001
0000
0001
0000
,  // measure 30
0001
0000
0000
0000
,  // measure 31
1001
0000
1000
0000
,  // measure 32
1000
0000
0000
0000
,  // measure 33
1001
0000
0001
0000
,  // measure 34
0001
0000
0000
1001
,  // measure 35
0000
1001
0000
1001
,  // measure 36
0000
0000
0000
0110
,  // measure 37
0000
0110
0000
0110
,  // measure 38
0000
0000
0000
0010
,  // measure 39
0000
0010
0000
0100
,  // measure 40
0000
0100
0000
0000
,  // measure 41
0000
0000
0001
0000
,  // measure 42
0000
0000
1001
0000
,  // measure 43
0000
0000
0000
0000
,  // measure 44
0000
0000
0000
1000
,  // measure 45
0000
0100
0000
1000
,  // measure 46
0000
0000
0000
0000
,  // measure 47
0001
0000
0000
0100
,  // measure 48
0000
0100
0000
0100
,  // measure 49
0000
0000
0000
0010
,  // measure 50
0000
0010
0000
0010
,  // measure 51
0000
0110
0000
0000
;
