#TITLE:虧兎に告ぐ;
#SUBTITLE:;
#ARTIST:あさき;
#TITLETRANSLIT:KITO NI TSUGU;
#SUBTITLETRANSLIT:;
#ARTISTTRANSLIT:Asaki;
#CREDIT:DigiMindAxel;
#BANNER:KITO NI TSUGU.png;
#BACKGROUND:KITO NI TSUGU-bg.png;
#LYRICSPATH:;
#CDTITLE:GUITARFREAKS & drummania.png;
#MUSIC:KITO NI TSUGU.ogg;
#METERTYPE:DDR X;
#OFFSET:-1.440;
#SAMPLESTART:69.440;
#SAMPLELENGTH:12.000;
#SELECTABLE:YES;
#DISPLAYBPM:208.000:215.000;
#BPMS:0.000=215.000,52.000=208.000,54.000=215.000,77.000=212.000,142.000=180.000,144.000=212.000,316.000=215.000,329.000=212.000;
#STOPS:80.500=0.992
,237.000=0.560
;
#BGCHANGES:-4.000=KITO NI TSUGU.avi=1.000=1=1=0,
99999=-nosongbg-=1.000=0=0=0 // don't automatically add -songbackground-
;

//---------------dance-single - ----------------
#NOTES:
     dance-single:
     :
     Easy:
     7:
     0.329,0.349,0.059,0.042,0.000: // measure 1
0000
0000
0000
0000
,  // measure 2
0000
0000
0000
0000
,  // measure 3
0000
0000
0000
0000
,  // measure 4
0000
0000
0000
0000
,  // measure 5
0000
0000
0000
0000
,  // measure 6
0000
0000
0000
0000
,  // measure 7
1000
0000
0001
0000
,  // measure 8
1000
0100
1000
0000
,  // measure 9
0010
0000
0100
0000
,  // measure 10
0001
1000
0001
0000
,  // measure 11
0010
0000
0100
1000
,  // measure 12
0100
0000
1000
0000
,  // measure 13
0010
0000
0100
0010
,  // measure 14
0100
0000
0000
0001
,  // measure 15
1000
0001
1000
0100
,  // measure 16
0000
0000
1000
0001
,  // measure 17
1000
0001
0010
0000
,  // measure 18
0000
0000
0100
1000
,  // measure 19
0100
1000
0010
0000
,  // measure 20
0000
0100
0001
0100
,  // measure 21
0001
0000
1001
0000
,  // measure 22
0100
0000
0010
0000
,  // measure 23
0001
0000
0010
0000
,  // measure 24
0100
0000
1000
0001
,  // measure 25
0100
0001
1000
0000
,  // measure 26
0100
0000
0010
0001
,  // measure 27
1000
0100
1000
0000
,  // measure 28
0001
0000
0010
0100
,  // measure 29
1000
0100
0010
0000
,  // measure 30
0001
0000
0100
0010
,  // measure 31
0100
0010
0100
0001
,  // measure 32
1000
0000
0100
0000
,  // measure 33
0010
0000
0001
1000
,  // measure 34
0100
0000
0000
1001
0000
0000
0000
1000
,  // measure 35
0000
1000
0000
1000
0000
0000
0000
0000
,  // measure 36
1001
0000
0002
0000
,  // measure 37
1003
0000
0001
0100
,  // measure 38
0010
0000
1000
0100
,  // measure 39
0010
0001
1000
0000
,  // measure 40
0001
1000
0001
0000
,  // measure 41
1000
0000
0010
0100
,  // measure 42
0010
0100
0001
0000
,  // measure 43
0010
0001
1000
0000
,  // measure 44
0100
0010
0001
0100
,  // measure 45
0220
0000
0000
0330
,  // measure 46
0100
0000
0010
0000
,  // measure 47
0010
0000
0100
0000
,  // measure 48
0100
0000
0001
0000
,  // measure 49
0001
0000
1000
0001
,  // measure 50
0100
0001
1000
0100
,  // measure 51
0010
0000
0001
1000
,  // measure 52
0100
0010
0001
1000
,  // measure 53
0001
1000
0100
1000
,  // measure 54
0100
0000
0010
0100
,  // measure 55
0010
0100
1000
0001
,  // measure 56
1000
0000
0200
0000
,  // measure 57
1300
1000
0001
0001
,  // measure 58
0010
0100
1000
0001
,  // measure 59
0001
1000
0100
0010
,  // measure 60
0001
0000
1001
0000
,  // measure 61
0010
0000
0100
1000
,  // measure 62
0001
0010
0100
0000
,  // measure 63
0010
0000
0001
0100
,  // measure 64
0010
0100
0001
0000
,  // measure 65
0010
0100
1000
0000
,  // measure 66
0010
0100
0001
1000
,  // measure 67
0001
0010
0100
0000
,  // measure 68
0002
0000
0003
1001
,  // measure 69
0000
0000
0000
1001
0000
0000
0000
0000
,  // measure 70
0010
0100
0001
0010
,  // measure 71
0100
0010
0001
0000
,  // measure 72
1000
0001
1000
0010
,  // measure 73
0100
0010
1000
0000
,  // measure 74
0010
0100
0001
1000
,  // measure 75
0100
1000
0100
0010
,  // measure 76
0001
0010
0001
1000
,  // measure 77
0100
0000
1000
0001
,  // measure 78
0100
0001
1000
0100
,  // measure 79
0010
0000
0001
1000
,  // measure 80
0010
0100
0010
0000
,  // measure 81
1000
0001
0100
0000
,  // measure 82
0001
0010
0100
0000
,  // measure 83
1000
0010
0100
0010
,  // measure 84
0100
0000
0001
1000
,  // measure 85
0001
0000
1000
0100
,  // measure 86
1000
0000
0010
0100
,  // measure 87
0010
1000
0100
1000
,  // measure 88
0001
1000
0001
0010
,  // measure 89
0001
0100
0010
0100
,  // measure 90
0010
1000
0100
0010
,  // measure 91
0001
0010
0100
1000
,  // measure 92
0001
0010
0100
1000
,  // measure 93
0010
0100
0000
0000
;

//---------------dance-single - ----------------
#NOTES:
     dance-single:
     :
     Medium:
     11:
     0.571,0.621,0.286,0.042,0.000:
0000
0000
0000
0000
,
0000
0000
0000
0000
,
0000
0000
0000
0000
,
0000
0000
0000
0000
,
0000
0000
0000
0000
,
0000
0000
0000
0000
,
1000
0000
0100
0000
0010
0001
0000
0100
,
0010
0000
1000
0001
1000
0000
0000
0010
,
0100
0000
0001
0000
0010
0100
0000
1000
,
0010
0100
0110
0010
,
1000
0100
0000
0010
0100
0000
1000
0001
,
1000
0000
0010
0100
0000
0001
0100
0000
,
0001
0000
0010
0000
0100
1000
0100
1000
,
0000
1000
0000
1001
0000
0000
0110
0000
,
0100
0000
0001
0010
0100
0000
1000
0001
,
0000
0010
0000
0110
0000
0000
0100
0000
,
1000
0000
0010
0000
0110
0000
0000
0100
,
0000
0100
0000
1001
0000
0000
0001
0100
,
0001
0000
1000
0100
1000
0000
0010
0100
,
0000
0001
1000
0000
0100
0000
0010
0000
,
0001
1000
0000
0000
1001
0000
0001
0000
,
1000
0100
1000
0000
0100
0000
0010
0000
,
0001
1000
0001
0000
1000
0000
0010
0000
,
0100
0010
0100
0000
0001
0010
0100
0000
,
0100
0000
1000
0100
0010
0000
0010
0000
,
0001
0000
0100
0000
0110
0000
0010
0100
,
0010
0100
1000
0000
1000
0000
0001
0100
,
0001
0100
0010
0000
1000
0000
0010
0000
,
0001
0010
2000
0000
,
3001
0000
1000
0000
0001
0010
0100
0000
,
0010
0001
0100
0000
0001
0010
0100
1000
,
0001
0000
0000
1001
0000
0000
1000
0000
,
0010
0001
0010
1000
,
0100
0010
0000
0110
0000
0000
0000
0101
,
0000
0101
0000
1001
0000
0000
0000
0000
,
1000
0001
1000
0001
2000
0000
0000
0000
,
3001
0000
1000
0000
0100
0000
0010
0100
,
1000
0000
0001
0000
0100
0000
0001
0010
,
0100
0000
0010
0001
0100
0000
0010
1000
,
0100
0000
1000
0001
0010
0000
0100
0000
,
1000
0000
1001
0000
0001
0100
0001
0100
,
0001
0000
0010
0100
1000
0000
0001
0010
,
0100
0000
0010
0001
0100
0000
0010
1000
,
0001
0000
1000
0000
0100
0000
0010
0200
,
0000
1000
1000
1300
,
0001
0000
1000
0001
,
0010
0000
0010
0100
,
1000
0000
0010
0100
0000
0100
0000
0100
,
0000
0000
0000
0000
0001
1000
0001
0000
,
1000
0100
0000
1000
0000
1000
0000
0000
,
0100
0010
1001
1000
,
0010
0001
0010
1000
,
0100
0010
0100
0010
0100
0000
1000
0010
,
1000
0000
0001
0000
0010
0100
0010
0100
,
1000
0100
1000
0000
1001
0000
0001
0010
,
0001
0000
0100
0010
2000
0000
0000
0000
,
3001
0010
0001
0010
0001
0010
0001
0010
,
0100
0000
1000
0010
1000
0010
1000
0010
,
1000
0100
0010
0000
0001
0000
1000
0000
,
0010
0100
0000
0000
0110
0000
0010
0000
,
1000
0100
0010
0000
0001
0000
1000
0000
,
0100
1000
0001
0000
0010
0000
0100
0000
,
1000
0001
0100
0000
0001
0000
1000
0000
,
0100
0010
0001
0010
0100
0000
1100
0000
,
1000
0010
0100
0010
0000
0000
0100
0001
,
1000
0100
1000
0000
1001
0000
0001
0010
,
0100
0010
0001
0100
0000
0000
0010
0000
,
0010
0100
0010
0100
0000
0000
1001
0000
,
0000
0000
0000
1200
0000
0000
1000
0000
,
1000
0000
1300
0000
1001
0000
0001
0100
,
0001
0100
0010
0000
1000
0100
1000
0100
,
1000
0100
0010
0000
0001
0100
0001
0100
,
0010
1000
0100
0000
0010
0001
0010
0001
,
0100
0010
1000
0000
1001
0000
0001
0000
,
1001
1000
1001
0001
,
0100
0010
0100
0010
1000
0000
1010
0000
,
0010
1010
0100
0110
,
0010
0110
0001
1001
,
1000
0000
1001
0000
0010
0100
0010
0100
,
0001
1000
0001
0000
1000
0100
0000
0010
,
0100
0000
1000
0001
0000
0001
0000
1001
,
0000
0000
0110
0000
0100
0000
0001
0010
,
0001
0010
0100
1000
0001
0100
0001
0000
,
1000
0000
0100
0010
0001
0000
0100
0000
,
0010
1000
0100
0000
0010
0000
0001
1000
,
0100
0000
0001
0000
0100
0000
1000
0001
,
1000
0000
0100
0010
0000
0100
0010
0000
,
0001
1000
0001
1000
0001
0000
0100
0000
,
0010
1000
0000
0010
1000
0000
0100
0010
,
0001
0010
0100
0000
1000
0000
0001
0100
,
0000
0001
0100
0000
0001
1000
0100
0000
,
1100
0000
1000
0001
0100
0000
0001
0010
,
0100
1000
0001
0100
0000
0000
0000
0000
;

//---------------dance-single - ----------------
#NOTES:
     dance-single:
     :
     Hard:
     14:
     0.691,0.699,0.404,0.059,0.017:
0000
0000
0000
0000
,
0000
0000
0000
0000
,
0000
0000
0000
0000
,
0000
0000
0000
0000
,
0000
0000
0000
0000
,
0000
0000
0000
0000
,
1000
0001
0100
0000
0001
1000
0000
1000
,
0100
0000
1000
0001
0010
0001
0010
0100
,
0000
0010
0100
0000
1000
0010
0000
0010
,
0100
0000
0001
0000
1000
0100
1000
0000
,
0010
0100
0000
0100
0001
0000
1000
0100
,
1000
0100
0010
0001
0000
0100
0010
0000
,
1000
0001
1000
0100
0010
0001
0010
0100
,
0000
1100
0000
1001
0000
0000
0101
0000
,
0100
0010
0100
0010
1000
0000
0100
1000
,
0000
0001
0000
0101
0000
0100
0010
1000
,
0010
1000
0001
0010
0100
0000
1000
0001
,
0000
1001
0000
1010
0000
0010
0100
0001
,
0010
0100
0010
0100
1000
0001
0100
0001
,
0000
0001
1000
0010
0100
0001
1000
0010
,
0100
0001
0000
0000
1001
0000
1000
0000
,
0100
1000
0010
0000
0100
0000
0100
0000
,
0001
0010
0100
0000
0010
0000
0010
0000
,
0001
1000
0100
0000
1000
0100
0001
0100
,
1000
0000
0010
0100
0001
0000
0001
0000
,
0010
0000
0100
0000
1001
0000
0001
0010
,
0001
1000
0000
1000
0000
0010
0100
0010
,
0100
0010
1000
0000
0002
0000
0013
0100
,
1000
0100
0001
0100
0000
1100
0000
0000
,
1000
0001
1000
0001
1000
0010
0001
0010
,
1000
0100
0001
0100
1000
0001
0010
0100
,
1000
0010
0000
1001
0000
0000
0200
0000
,
0302
2003
3200
0310
,
0001
1000
0000
1001
0000
0010
0100
1000
,
0000
1000
0000
1001
0000
0010
0100
0001
,
1000
0000
0000
0001
0000
0000
1000
0000
0000
0001
0000
0000
1000
0000
0100
0000
1000
0000
0100
0000
1000
0000
0010
0000
,
0100
0000
1001
0000
0001
1000
0100
0010
,
0001
0100
0001
0000
1000
0100
0010
0001
,
1000
0010
1000
0000
0100
0000
0010
0000
,
1001
0000
0010
0001
0100
0010
0100
0000
,
0001
0000
1001
0000
1000
0001
1000
0001
,
1000
0000
1001
0000
0100
1000
0100
0000
,
0010
0000
0011
0000
0100
0010
0100
0000
,
0001
0000
1001
0000
1000
0000
0010
0200
,
0000
0301
1000
0100
0010
0001
1000
0100
,
0010
0000
0100
1000
0100
1000
0010
0000
,
0100
0000
0100
0000
0010
0001
0010
0100
,
0000
0100
0000
1001
0000
0001
1000
0100
,
0010
0000
0110
0000
0100
0001
0100
0001
,
1000
0100
0000
0010
0000
0010
0100
1000
,
0010
0100
0010
0100
0010
0000
1000
0001
,
0000
0001
0100
0010
0000
0010
1000
0010
,
1000
0001
0010
0001
0010
0000
0001
1000
,
0000
1000
0010
0100
1000
0001
0010
0100
,
0001
0000
1001
0000
0110
0000
0100
0001
,
0000
0001
0100
0010
0001
1000
0100
0010
,
1000
0100
1000
0100
1000
0100
0001
0100
,
0001
0100
0001
0100
1000
0010
0100
0001
,
0010
0000
1001
0000
0001
0010
0100
1000
,
0001
0001
0000
0000
1001
0000
1000
0000
,
0100
1000
0010
0000
0100
0000
0110
0000
,
0100
0010
0001
0000
0100
0000
0101
0000
,
0001
1000
0100
0000
0010
0000
0011
0000
,
0001
0100
0010
0100
0001
0000
1000
0100
,
1000
0010
0100
0001
0000
0010
0200
0000
,
0000
0000
1300
0001
0100
0000
0001
0010
,
0100
0010
0001
0100
0000
0001
1000
0000
,
0100
1000
0100
1000
0001
0000
1000
0001
,
0000
0010
0000
0110
0000
0000
1100
0000
,
1000
0100
1000
0010
0100
0000
0001
0010
,
0100
0010
0001
1000
0000
1000
0010
0100
,
0000
0100
0001
0010
0100
0000
1000
0100
,
0010
0100
1000
0010
0001
0010
1000
0100
,
0010
0001
1000
0000
1001
0000
0001
0100
,
0010
0100
0001
0010
1000
0010
0001
1000
,
0010
0100
0001
0000
1001
0000
1100
0000
,
1001
1100
0101
0011
,
1100
1010
1001
0101
,
1001
0000
0101
0000
0100
0001
0010
0100
,
1000
0010
0100
0000
0001
1000
0000
1000
,
0010
0000
0100
0101
0000
1001
0000
1100
,
0000
1000
0001
0000
0010
0001
0100
0001
,
0010
0001
1000
0100
0010
0001
0100
0000
,
0001
0010
1000
0010
0001
0000
0010
0001
,
0100
1000
0100
0000
0001
1000
0010
0000
,
1000
0001
0010
0100
1000
0000
0010
1000
,
0010
1000
0001
0100
0000
0100
1000
0000
,
0100
0010
0100
0010
0001
0100
0010
0000
,
1000
0100
0000
0100
0001
1000
0100
0001
,
1000
0010
0001
0000
1001
0000
0001
0100
,
0010
0000
1000
0100
0001
1000
0010
0001
,
1000
0000
1001
0000
1001
0000
1000
0001
,
0100
0010
1000
0100
0000
0000
0000
0000
;

//---------------dance-double - ----------------
#NOTES:
     dance-double:
     :
     Easy:
     7:
     0.348,0.349,0.076,0.050,0.000:
00000000
00000000
00000000
00000000
,
00000000
00000000
00000000
00000000
,
00000000
00000000
00000000
00000000
,
00000000
00000000
00000000
00000000
,
00000000
00000000
00000000
00000000
,
00000000
00000000
00000000
00000000
,
10000000
00010000
10000000
00000000
,
01000000
00100000
01000000
00000000
,
10000000
00010000
10000000
00000000
,
00001000
01000000
00001000
00010000
,
00001000
00000000
00010000
00000010
,
00010000
00000000
00000100
00000010
,
00000100
00000000
00001000
00000001
,
00001000
00000000
00000000
00000110
,
00000010
00000100
00000010
00000100
,
00000001
00000010
00000000
00000100
,
00010000
00000100
00010000
00000000
,
00011000
00000000
00100000
01000000
,
00100000
01000000
10000000
00010000
,
00000000
00100000
01000000
10000000
,
00100000
00000000
01100000
00000000
,
01000000
00000000
00010000
00000000
,
00010000
00000000
10000000
00000000
,
10000000
00000000
01000000
00100000
,
00001000
00010000
00000100
00000010
,
00000001
00000000
00000100
00000010
,
00000100
00000001
00000010
00000000
,
00000100
00000000
00010000
00001000
,
01000000
00001000
00020000
00000000
,
00001000
00000000
00031000
00100000
,
01000000
10000000
00010000
00100000
,
01000000
00000000
10000000
00000000
,
01000000
00000000
10000000
00100000
,
01000000
00000000
00000000
01100000
00000000
00000000
00000000
00100000
,
00000000
00100000
00000000
00100000
00000000
00000000
00000000
00000000
,
10010000
00000000
00020000
00000000
,
10030000
01000000
10000000
00001000
,
01000000
00000000
00100000
01000000
,
00100000
10000000
01000000
00000000
,
00100000
00001000
00100000
00000000
,
00001000
00010000
00000010
00000100
,
00000010
00000100
00000001
00000000
,
00000100
00000010
00001000
00000000
,
00000001
00000010
00000100
00010000
,
00022000
00000000
00000000
00033000
,
00001000
00000000
00001000
00000000
,
00100000
00000000
00100000
00000000
,
00010000
00000000
00010000
00000000
,
10000000
00000000
10000000
01000000
,
00100000
01000000
10000000
00010000
,
10000000
00000000
00100000
01000000
,
00001000
00010000
00001000
00010000
,
00000010
00000100
00000010
00000100
,
00000010
00000000
00001000
00000100
,
00000010
00000100
00010000
00001000
,
00010000
00000000
00200000
00000000
,
01300000
01000000
10000000
10000000
,
00010000
10000000
01000000
00100000
,
00100000
00001000
00010000
00000100
,
00000010
00000000
00000110
00000100
,
00000010
00000000
00001000
00000100
,
00000010
00000001
00010000
00001000
,
00010000
00000000
00001000
00100000
,
01000000
10000000
01000000
00000000
,
10000000
00010000
01000000
00000000
,
00010000
10000000
01000000
00100000
,
00001000
00010000
00001000
00000000
,
00020000
00000000
00030000
00011000
,
00000000
00000000
00000000
00010001
00000000
00000000
00000000
00000000
,
00000001
00001000
00000100
00000010
,
00000100
00001000
00000001
00000000
,
00000010
00000001
00000100
00000010
,
00010000
00001000
00100000
00000000
,
01000000
10000000
01000000
00100000
,
00001000
00010000
00001000
00010000
,
00000010
00000100
00000010
00001000
,
00000100
00000000
00000010
00000001
,
00000100
00000010
00000100
00000001
,
00000010
00000000
00000100
00001000
,
00010000
00100000
01000000
00000000
,
00100000
01000000
10000000
00010000
,
10000000
00100000
01000000
00000000
,
00100000
01000000
00001000
00010000
,
00001000
00000000
00010000
00000010
,
00010000
00000000
00000010
00000100
,
00000010
00000000
00001000
00000001
,
00001000
00000001
00000010
00000100
,
00000010
00000001
00010000
00000100
,
00010000
00001000
01000000
00100000
,
10000000
01000000
00100000
00010000
,
00100000
01000000
10000000
00001000
,
00100000
00001000
00010000
00000010
,
00000100
00000001
00000000
00000000
;

//---------------dance-double - ----------------
#NOTES:
     dance-double:
     :
     Medium:
     11:
     0.577,0.621,0.261,0.034,0.000:
00000000
00000000
00000000
00000000
,
00000000
00000000
00000000
00000000
,
00000000
00000000
00000000
00000000
,
00000000
00000000
00000000
00000000
,
00000000
00000000
00000000
00000000
,
00000000
00000000
00000000
00000000
,
10000000
00000000
00010000
00000000
10000000
01000000
00000000
10000000
,
00001000
00000000
00100000
00001000
00100000
00000000
00000000
00001000
,
00000100
00000000
00000010
00000000
00000001
00001000
00000000
00000010
,
00010000
00001000
00011000
00010000
,
00001000
00100000
00000000
01000000
00100000
00000000
00010000
01000000
,
00010000
00000000
10000000
00001000
00000000
01000000
00010000
00000000
,
00001000
00000000
00000010
00000000
00000100
00000001
00000100
00000001
,
00000000
00000001
00000000
00001001
00000000
00000000
00000110
00000000
,
00000010
00000000
00000100
00000001
00000010
00000000
00000100
00010000
,
00000000
00001000
00000000
00011000
00000000
00000000
00100000
00000000
,
01000000
00000000
10000000
00000000
10010000
00000000
00000000
00100000
,
00000000
00100000
00000000
10010000
00000000
00000000
01000000
10000000
,
01000000
00000000
00100000
01000000
00100000
00000000
00001000
00100000
,
00000000
00001000
00010000
00000000
00000100
00000000
00000010
00000000
,
00000001
00001000
00000000
00000000
00001001
00000000
00000001
00000000
,
00000100
00000010
00000100
00000000
00000001
00000000
00000010
00000000
,
00000100
00010000
00000100
00000000
00010000
00000000
00001000
00000000
,
00100000
01000000
00100000
00000000
00010000
00100000
01000000
00000000
,
01000000
00000000
10000000
00100000
01000000
00000000
01000000
00000000
,
00010000
10000000
00010000
00000000
10010000
00000000
10000000
01000000
,
10000000
01000000
00100000
00000000
00001000
00000000
00010000
00000010
,
00010000
00000010
00000100
00000000
00000001
00000000
00000010
00000100
,
00001000
00000000
00010000
00001000
01000000
00100000
00000000
00000000
,
01000000
00000000
01000000
00000000
01000000
00010000
10000000
00000000
,
01000000
00100000
00010000
00000000
00001000
00000010
00000100
00000001
,
00001000
00000000
00000000
00001001
00000000
00000000
00000100
00000000
,
00000010
00000001
00000010
00000100
,
00010000
00001000
00000000
00011000
00000000
00000000
00000000
01000000
,
00000000
01000000
00000000
01100000
00000000
00000000
00000000
00000000
,
10000000
01000000
10000000
01000000
20000000
00000000
00000000
00000000
,
30010000
00000000
00100000
00000000
01000000
00000000
00100000
00001000
,
00010000
00000000
00000010
00000000
00000100
00000000
00000010
00010000
,
00001000
00000000
00010000
00000100
00000010
00000000
00000001
00000010
,
00000100
00000000
00010000
00001000
00100000
00000000
01000000
00000000
,
10000000
00000000
11000000
00000000
01000000
10000000
01000000
10000000
,
00010000
00000000
01000000
00001000
00010000
00000000
00000100
00000010
,
00000001
00000000
00001000
00000010
00000100
00000000
00000001
00000010
,
00000100
00000000
00010000
00000000
00001000
00000000
00100000
02000000
,
00000000
00100000
00100000
03100000
,
00010000
00000000
00010000
10000000
,
00001000
00000000
00001000
00010000
,
00000100
00000000
00000010
00000001
00000000
00000001
00000000
00000001
,
00000000
00000000
00000000
00000000
00000100
00000010
00000100
00000000
,
00000001
00001000
00000000
00000100
00000000
00000100
00000000
00000000
,
00001000
00010000
01100000
10000000
,
00100000
01000000
00010000
00100000
,
00001000
00010000
00001000
00010000
00001000
00000000
00010000
00000100
,
00000010
00000000
00000001
00000000
00000100
00000001
00000100
00000001
,
00010000
00001000
00010000
00000000
00011000
00000000
00001000
01000000
,
00100000
00000000
10000000
01000000
00200000
00000000
00000000
00000000
,
00301000
01000000
00001000
01000000
00001000
00010000
00001000
00010000
,
00001000
00000000
00010000
00001000
00010000
00000100
00010000
00000100
,
00010000
00000010
00000100
00000000
00000001
00000010
00000100
00000000
,
00001000
00000001
00000000
00000000
00001001
00000000
00001000
00000000
,
00000100
00000010
00000001
00000000
00010000
00000000
00001000
00000000
,
00100000
01000000
10000000
00000000
01000000
00000000
00100000
00000000
,
00010000
10000000
00100000
00000000
01000000
00000000
00001000
00000000
,
00010000
00001000
00010000
00001000
00000100
00000000
00000110
00000000
,
00000100
00001000
00000001
00001000
00000000
00000000
00000001
00000010
,
00000100
00000010
00000001
00000000
00001001
00000000
00000100
00000001
,
00000010
00000100
00010000
00001000
00000000
00000000
00010000
00000000
,
00010000
00001000
00100000
01000000
00000000
00000000
01100000
00000000
,
01000000
00000000
00010000
20000000
00000000
00000000
00010000
00000000
,
00010000
00000000
30010000
00000000
10010000
00000000
01000000
10000000
,
01000000
10000000
00010000
00000000
00100000
00001000
00100000
00001000
,
00100000
00001000
00010000
00000000
00000100
00000010
00000100
00000010
,
00000001
00001000
00000010
00000000
00000100
00000001
00000100
00000001
,
00010000
00001000
00100000
00000000
01100000
00000000
01000000
00000000
,
11000000
10000000
10010000
00010000
,
10000000
01000000
00100000
00001000
00010000
00000000
00011000
00000000
,
00001000
00001010
00000010
00000110
,
00000100
00000101
00000001
00001001
,
00001000
00000000
00001100
00000000
00001000
00000001
00001000
00000001
,
00000010
00000100
00000010
00000000
00000001
00001000
00000000
00000100
,
00010000
00000000
00001000
00010000
00000000
00010000
00000000
00011000
,
00000000
00000000
01001000
00000000
01000000
00000000
00010000
10000000
,
00010000
10000000
01000000
00100000
01000000
10000000
00100000
00000000
,
01000000
00000000
00010000
00100000
01000000
00000000
00100000
00000000
,
00001000
00010000
00000010
00000000
00000100
00000000
00000001
00000010
,
00000100
00000000
00000010
00000001
00000100
00000000
00000010
00000100
,
00000010
00000100
00000001
00010000
00000000
00000100
00010000
00000000
,
00001000
00010000
00001000
00010000
00001000
00000000
00100000
00000000
,
01000000
10000000
00000000
01000000
10000000
00000000
00100000
01000000
,
00010000
01000000
00100000
00000000
10000000
00000000
00001000
00100000
,
00000000
00001000
00100000
00000000
00001000
00000100
00000010
00000000
,
00000101
00000000
00000100
00000010
00000001
00000000
00000010
00000100
,
00010000
00001000
00100000
01000000
00000000
00000000
00000000
00000000
;

//---------------dance-double - ----------------
#NOTES:
     dance-double:
     :
     Hard:
     14:
     0.694,0.699,0.462,0.025,0.017:
00000000
00000000
00000000
00000000
,
00000000
00000000
00000000
00000000
,
00000000
00000000
00000000
00000000
,
00000000
00000000
00000000
00000000
,
00000000
00000000
00000000
00000000
,
00000000
00000000
00000000
00000000
,
10000000
01000000
00100000
00000000
00010000
01000000
00000000
01000000
,
00001000
00000000
00010000
00001000
00010000
00000100
00000010
00000001
,
00000000
00000001
00000010
00000000
00000001
00000100
00000000
00000100
,
00000010
00000000
00001000
00000000
00000001
00000010
00000100
00000000
,
00010000
00001000
00000000
00001000
00100000
00000000
01000000
10000000
,
01000000
10000000
00100000
01000000
00000000
01000000
00001000
00000000
,
00010000
00001000
00010000
00000100
00000010
00000100
00001000
00000001
,
00000000
00001001
00000000
00001001
00000000
00000000
00001100
00000000
,
00001000
00000010
00001000
00000010
00010000
00000000
00001000
00100000
,
00000000
01000000
00000000
01100000
00000000
00100000
10000000
01000000
,
10000000
01000000
00100000
00001000
00010000
00000000
00000010
00000100
,
00000000
00000110
00000000
00000101
00000000
00000001
00000010
00000100
,
00001000
00000010
00001000
00000010
00010000
00001000
01000000
00100000
,
00000000
00100000
10000000
01000000
00100000
00010000
10000000
01000000
,
00100000
00100000
00000000
00000000
01100000
00000000
01000000
00000000
,
00010000
01000000
10000000
00000000
01000000
00000000
00001000
00000000
,
00010000
00000100
00000010
00000000
00000001
00000000
00000100
00000000
,
00000001
00000010
00000100
00000000
00000010
00000001
00000100
00000001
,
00000010
00000000
00000001
00001000
00000100
00000000
00000100
00000000
,
00010000
00000000
00001000
00000000
00011000
00000000
00100000
01000000
,
00100000
00010000
00000000
00010000
00000000
00010000
10000000
01000000
,
00100000
01000000
10000000
00000000
00020000
00000000
10030000
00100000
,
10000000
01000000
10000000
00100000
00000000
10100000
00000000
00000000
,
01000000
00100000
01000000
00100000
01000000
00010000
01000000
10000000
,
01000000
00010000
10000000
01000000
00100000
00010000
00001000
00000010
,
00000100
00000001
00000000
00001001
00000000
00000000
00000101
00000000
,
00001001
00010100
00011000
01001000
,
01000000
00100000
00000000
01100000
00000000
10000000
01000000
00100000
,
00000000
00100000
00000000
00110000
00000000
00010000
10000000
01000000
,
10000000
00000000
00000000
01000000
00000000
00000000
00100000
00000000
00000000
00001000
00000000
00000000
00100000
00000000
00001000
00000000
00010000
00000000
00001000
00000000
00010000
00000000
00000010
00000000
,
00000100
00000000
00000110
00000000
00000100
00000010
00000100
00000001
,
00000100
00001000
00000100
00000000
00000001
00001000
00000001
00000010
,
00001000
00000010
00000001
00000000
00001000
00000000
00000010
00000000
,
00010010
00000000
00010000
00001000
00100000
10000000
00100000
00000000
,
00001000
00000000
00011000
00000000
01000000
00100000
01000000
00100000
,
01000000
00000000
01100000
00000000
00010000
01000000
00010000
00000000
,
10000000
00000000
10100000
00000000
10000000
00010000
10000000
00000000
,
00001000
00000000
00101000
00000000
00010000
00000000
00000010
00000200
,
00000000
00000301
00000010
00000100
00001000
00000001
00000010
00000100
,
00001000
00000000
00000001
00000100
00000001
00000100
00000010
00000000
,
00010000
00000000
00010100
00000000
01000000
00100000
01000000
00010000
,
00000000
00010000
00000000
10010000
00000000
10000000
00100000
01000000
,
00010000
00000000
10010000
00000000
10000000
01000000
00010000
01000000
,
10000000
00010000
00000000
00010000
00000000
00010000
01000000
00001000
,
00010000
00000100
00000001
00000100
00010000
00000000
00000010
00000100
,
00000000
00000100
00000001
00001000
00000000
00000001
00000010
00000001
,
00000010
00000100
00010000
00000100
00010000
00000000
00001000
01000000
,
00000000
01000000
00100000
10000000
01000000
00100000
01000000
10000000
,
00010000
00000000
10010000
00000000
11000000
00000000
10000000
00010000
,
00000000
00010000
10000000
01000000
00010000
01000000
10000000
00001000
,
00010010
00000100
00000010
00000100
00000010
00000100
00000001
00000010
,
00000001
00000010
00000001
00000010
00000100
00010000
00000100
00010000
,
00000010
00000000
00000110
00000000
00000100
00000001
00000010
00000100
,
00010000
00010000
00000000
00000000
00011000
00000000
00001000
00000000
,
01000000
00100000
10000000
00000000
01000000
00000000
01010000
00000000
,
00010000
00100000
00001000
00000000
00010000
00000000
00011000
00000000
,
00010000
00000100
00000010
00000000
00000001
00000000
00000101
00000000
,
00000100
00000010
00001000
00000100
00000010
00000000
00000001
00001000
,
00000100
00000001
00000100
00001000
00000000
00000001
00002000
00000000
,
00000000
00000000
00003010
00000100
00000001
00000000
00001000
00000010
,
00000001
00000010
00010000
00001000
00000000
00001000
00100000
00000000
,
01000000
10000000
01000000
10000000
00100000
00000000
01000000
00100000
,
00000000
10000000
00000000
10010000
00000000
00000000
01100000
00000000
,
01000000
00100000
10000000
01000000
00100000
00000000
00001000
00010000
,
00000010
00010000
00001000
00010000
00000000
00000010
00000100
00000001
,
00000000
00000001
00000100
00000010
00001000
00000000
00000001
00000010
,
00000001
00001000
00000001
00000010
00000001
00000100
00000010
00010000
,
00001000
00010000
00000010
00000000
00000110
00000000
00000100
00000001
,
00000100
00000010
00000100
00000001
00000010
00000100
00010000
00001000
,
00100000
01000000
00100000
00000000
01100000
00000000
01010000
00000000
,
01100000
10010000
11000000
01001000
,
00011000
00010010
00000110
00000101
,
00000110
00000000
00001100
00000000
00001000
00000001
00001000
00000001
,
00001000
00000010
00000100
00000000
00000100
00000001
00000000
00000001
,
00001000
00000000
00000100
00001100
00000000
00000101
00000000
00001001
,
00000000
00001000
00000001
00000000
00000010
00000100
00000010
00000100
,
00010000
00001000
00010000
00001000
01000000
00100000
10000000
00000000
,
10000000
00010000
00100000
01000000
00100000
00000000
00010000
10000000
,
01000000
00010000
01000000
00000000
10000000
01000000
00100000
00000000
,
00001000
00010000
00000100
00001000
00000010
00000000
00000100
00000001
,
00000100
00000001
00010000
00001000
00000000
00001000
00100000
00000000
,
01000000
10000000
01000000
10000000
00100000
01000000
00001000
00000000
,
00001000
00010000
00000000
00010000
00000100
00000001
00010000
00000010
,
00000001
00010000
00001000
00000000
00011000
00000000
00010000
00001000
,
10000000
00000000
10000000
00001000
01000000
10000000
00001000
00100000
,
10000000
00000000
10001000
00000000
10001000
00000000
00001000
00010000
,
00000100
00000010
00000001
00001000
00000000
00000000
00000000
00000000
;

//---------------dance-single - ----------------
#NOTES:
     dance-single:
     :
     Beginner:
     4:
     0.169,0.233,0.067,0.000,0.000: // measure 1
0000
0000
0000
0000
,  // measure 2
0000
0000
0000
0000
,  // measure 3
0000
0000
0000
0000
,  // measure 4
0000
0000
0000
0000
,  // measure 5
0000
0000
0000
0000
,  // measure 6
0000
0000
0000
0000
,  // measure 7
1000
0000
0000
0000
,  // measure 8
0100
0000
0000
0000
,  // measure 9
1000
0000
0000
0000
,  // measure 10
0100
0000
0010
0000
,  // measure 11
0000
0000
0001
0000
,  // measure 12
0000
0000
1000
0000
,  // measure 13
0000
0000
0001
0000
,  // measure 14
0000
0000
0000
1000
,  // measure 15
0000
0000
0100
0000
,  // measure 16
0000
0010
0000
0000
,  // measure 17
0100
0000
1000
0000
,  // measure 18
0000
0000
0000
0010
,  // measure 19
0000
0000
0100
0000
,  // measure 20
0000
0010
0000
0000
,  // measure 21
1001
0000
1000
0000
,  // measure 22
0001
0000
1000
0000
,  // measure 23
0000
0000
0001
0000
,  // measure 24
1000
0000
0001
0000
,  // measure 25
0000
0010
0000
0000
,  // measure 26
0100
0000
1000
0000
,  // measure 27
0001
0000
1000
0000
,  // measure 28
0000
0000
0100
0000
,  // measure 29
1000
0000
0100
0000
,  // measure 30
0000
0000
0010
0000
,  // measure 31
0001
0000
0010
0000
,  // measure 32
0001
0000
0000
1000
,  // measure 33
0000
1000
0000
1000
,  // measure 34
0000
0000
0000
0000
,  // measure 35
0000
0000
1001
0000
,  // measure 36
0000
0000
0001
0000
,  // measure 37
1000
0000
0100
0000
,  // measure 38
1000
0000
0000
0000
,  // measure 39
0010
0000
0100
0000
,  // measure 40
0010
0000
0000
0000
,  // measure 41
1000
0000
0001
0000
,  // measure 42
1000
0000
0100
0000
,  // measure 43
1000
0000
0000
0000
,  // measure 44
0001
0000
0100
0000
,  // measure 45
0001
0000
0000
0000
,  // measure 46
0010
0000
0000
0000
,  // measure 47
0100
0000
0000
0000
,  // measure 48
1000
0000
0000
0000
,  // measure 49
0001
0000
1000
0000
,  // measure 50
0100
0000
1000
0000
,  // measure 51
0010
0000
0100
0000
,  // measure 52
0010
0000
0100
0000
,  // measure 53
0001
0000
0001
0000
,  // measure 54
1000
0000
1000
0000
,  // measure 55
0001
0000
0010
0000
,  // measure 56
0100
0000
1000
0000
,  // measure 57
0001
0000
0001
0000
,  // measure 58
0001
0000
0001
0000
,  // measure 59
0001
0000
1000
0000
,  // measure 60
0001
0000
1001
0000
,  // measure 61
0100
0000
0010
0000
,  // measure 62
0100
0000
1000
0000
,  // measure 63
0010
0000
1000
0000
,  // measure 64
0010
0000
1001
0000
,  // measure 65
0000
0110
0000
0000
,  // measure 66
0000
0000
1001
0000
,  // measure 67
0000
0000
0110
0000
,  // measure 68
0000
0000
0000
1001
,  // measure 69
0000
0000
0000
0000
,  // measure 70
0000
0000
1000
0000
,  // measure 71
0001
0000
1000
0000
,  // measure 72
0001
0000
0100
0000
,  // measure 73
0010
0000
0100
0000
,  // measure 74
0010
0000
1000
0000
,  // measure 75
1000
0000
0001
0000
,  // measure 76
0001
0000
1000
0000
,  // measure 77
0000
0000
0100
0000
,  // measure 78
0000
0000
0010
0000
,  // measure 79
0000
0000
0001
0000
,  // measure 80
1000
0000
0001
0000
,  // measure 81
1000
0000
0001
0000
,  // measure 82
0010
0000
0100
0000
,  // measure 83
0010
0000
0100
0000
,  // measure 84
0000
1000
0000
0000
,  // measure 85
0001
0000
0000
1000
,  // measure 86
0000
0000
0100
0000
,  // measure 87
0010
0000
0000
0000
,  // measure 88
0010
0000
0010
0000
,  // measure 89
0010
0000
0001
0000
,  // measure 90
0001
0000
0100
0000
,  // measure 91
0100
0000
0000
0010
,  // measure 92
0000
0010
0000
1000
,  // measure 93
0000
1000
0000
0000
;
