#TITLE:JAZZY CAT;
#SUBTITLE:;
#ARTIST:Jimmy Weckl;
#TITLETRANSLIT:;
#SUBTITLETRANSLIT:;
#ARTISTTRANSLIT:;
#CREDIT:DigiMindAxel;
#BANNER:JAZZY CAT.png;
#BACKGROUND:JAZZY CAT-bg.png;
#LYRICSPATH:;
#CDTITLE:GUITARFREAKS & drummania.png;
#MUSIC:JAZZY CAT.ogg;
#METERTYPE:DDR X;
#OFFSET:-4.213;
#SAMPLESTART:12.714;
#SAMPLELENGTH:12.000;
#SELECTABLE:YES;
#BPMS:0.000=188.100;
#STOPS:;
#BGCHANGES:-12.000=JAZZY CAT.avi=1.000=1=1=0,
99999=-nosongbg-=1.000=0=0=0 // don't automatically add -songbackground-
;

//---------------dance-single - ----------------
#NOTES:
     dance-single:
     :
     Easy:
     4:
     0.183,0.212,0.079,0.101,0.000:
0000
0000
0000
0000
,
0000
0000
0000
0000
,
0000
0000
0000
0000
,
0000
0000
0000
0000
,
0000
0000
0000
0000
,
0000
0000
0000
0000
,
0000
0000
0000
0000
,
0001
0000
0001
0000
,
0001
0000
0001
0000
,
0000
0000
2000
0000
,
0000
0000
3000
0000
,
0100
0000
0100
0000
,
0100
0000
0000
0110
,
0000
0000
0000
0000
,
0000
0000
0000
0000
,
0001
0000
0100
0000
,
0001
0000
0100
0000
,
0010
0000
1000
0000
,
0010
0000
1000
0000
,
0100
0000
0010
0000
,
0100
0000
0010
0000
,
0001
0000
0010
0000
,
0001
0000
0010
0000
,
0200
0000
1300
0000
,
0200
0000
1300
0000
,
0002
0000
1000
0000
,
1000
0000
1003
0000
,
0100
0000
0010
0000
,
0100
0000
0010
0000
,
0001
0000
0100
0000
,
0010
0000
1000
0000
,
0002
0000
1000
0000
,
1000
0000
1003
0000
,
0020
0000
0100
0000
,
0100
0000
0130
0000
,
1001
0000
1000
0000
,
1000
0000
0000
0000
,
0001
0000
0001
0000
,
1001
0000
0000
0000
,
0010
0000
0001
0000
,
0010
0000
0100
0000
,
1000
0000
0100
0000
,
1000
0000
0010
0000
,
0100
0000
0001
0000
,
0100
0000
0001
0000
,
0010
0000
0100
0000
,
1000
0000
0001
0000
,
2000
0000
0000
0000
,
3001
0000
0001
0000
,
1000
0000
1000
0000
,
0001
0000
0001
0000
,
1001
0000
1000
0000
,
0010
0000
0100
0000
,
0001
0000
0001
0000
,
1000
0000
1000
0000
,
0002
0000
0000
0000
,
1003
0000
0001
0000
,
2000
0000
0000
0000
,
3001
0000
1000
0000
,
0010
0000
0010
0000
,
0010
0000
0000
0110
,
0000
0000
0000
0000
,
0110
0000
0000
1001
;

//---------------dance-single - ----------------
#NOTES:
     dance-single:
     :
     Medium:
     7:
     0.294,0.353,0.045,0.124,0.231: // measure 1
0000
0000
0000
0000
,  // measure 2
0000
0000
0000
0000
,  // measure 3
0000
0000
0000
0000
,  // measure 4
0000
0000
0000
0000
,  // measure 5
0000
0000
0000
0000
,  // measure 6
0000
0000
0000
0000
,  // measure 7
0000
0000
0000
0000
,  // measure 8
1000
0000
1000
0000
,  // measure 9
1000
0000
0000
0000
0000
0000
1000
0000
0000
0000
0000
1000
,  // measure 10
0000
0000
1000
0000
0000
0000
0001
0000
0000
0000
0000
0000
,  // measure 11
0002
0000
0003
0000
,  // measure 12
0100
0000
0100
0000
,  // measure 13
0100
0000
0000
0000
0000
0100
0000
0000
0000
0100
0000
0000
,  // measure 14
0000
0000
0000
0000
,  // measure 15
0010
0100
0010
0100
,  // measure 16
0001
0000
0010
0000
,  // measure 17
0100
0000
0010
0001
,  // measure 18
0010
0000
0001
0001
,  // measure 19
0000
0000
2000
0000
0000
0000
3001
0000
0000
0001
0000
0000
,  // measure 20
1000
0000
0000
0000
0000
0010
0000
0000
0100
0000
0000
0010
,  // measure 21
0000
1000
1000
0001
,  // measure 22
0010
0000
0010
0000
,  // measure 23
0001
0000
1000
0000
0001
0000
1000
0000
0000
0000
0000
0000
,  // measure 24
0000
0020
0000
0000
0000
0000
0130
0000
0000
0100
0000
0000
,  // measure 25
0000
0002
0000
0000
0000
0000
1003
0000
0000
1000
0000
0000
,  // measure 26
0100
0000
0000
0000
0000
1000
0000
0000
0001
0000
0000
1000
,  // measure 27
0000
0010
0010
0100
,  // measure 28
0002
0000
0000
0000
0000
1003
0000
0000
0000
0000
0000
0000
,  // measure 29
0001
0010
0001
0000
,  // measure 30
1000
0100
1000
0000
,  // measure 31
0010
0010
0100
0000
,  // measure 32
0002
0000
0000
0000
0000
1003
0000
0000
0001
0000
0000
1000
,  // measure 33
0000
0000
0001
0000
0000
0100
0000
0000
0100
0000
0000
0010
,  // measure 34
0000
0000
1000
0100
,  // measure 35
1000
0100
0010
0000
,  // measure 36
1001
0000
0001
0000
,  // measure 37
0001
0000
0000
0000
0000
0001
0000
0000
0000
0001
0000
0000
,  // measure 38
0000
0000
1000
0000
0000
0000
1000
0000
0000
0000
0000
0000
,  // measure 39
1000
1001
0000
0000
,  // measure 40
0001
0010
0100
0010
,  // measure 41
0001
0000
0000
0010
0000
0000
0100
0000
0000
1000
0000
0010
,  // measure 42
0000
0000
0100
0000
0010
0000
0200
0000
0000
0000
0000
0310
,  // measure 43
0000
0000
0000
1000
,  // measure 44
0001
0000
0100
0000
0001
0000
0200
0000
0000
0000
0000
0310
,  // measure 45
0000
0000
0010
0000
0000
0000
0000
0000
0000
1000
0000
0000
,  // measure 46
0001
0001
1000
1000
,  // measure 47
0010
0000
0100
0000
0000
0001
0000
0000
0000
0000
0000
0000
,  // measure 48
2000
0000
0000
0000
0000
3100
0000
0000
0000
0000
0000
0000
,  // measure 49
1000
0001
0001
0001
,  // measure 50
0010
0100
0100
0100
,  // measure 51
1000
0010
0100
0010
,  // measure 52
1000
1000
0100
0100
,  // measure 53
0010
0010
0001
0001
,  // measure 54
0010
0000
0001
0001
,  // measure 55
2000
0100
3100
0000
,  // measure 56
1000
0000
0000
0001
0000
0000
0010
0000
0001
0000
0010
0000
,  // measure 57
0002
1000
1003
0000
,  // measure 58
0001
0000
0000
0000
0000
0100
0000
0000
0000
0010
0000
0000
,  // measure 59
1000
1000
0001
0000
,  // measure 60
1001
0000
1000
0000
,  // measure 61
1000
0000
0000
0000
0000
0001
0000
0000
0000
0001
0000
0000
,  // measure 62
0000
0000
1000
0000
0000
0000
0001
0000
0000
1000
0000
0000
,  // measure 63
0010
0000
0000
0000
0000
0010
0000
0000
0000
0110
0000
0000
;

//---------------dance-single - ----------------
#NOTES:
     dance-single:
     :
     Hard:
     11:
     0.502,0.565,0.270,0.371,0.670: // measure 1
0000
0000
0000
0000
,  // measure 2
0000
0000
0000
0000
,  // measure 3
0000
0000
0000
0000
,  // measure 4
0000
0000
0000
0000
,  // measure 5
0000
0000
0000
0000
,  // measure 6
0000
0000
0000
0000
,  // measure 7
0000
0000
0000
0000
,  // measure 8
1100
0000
0100
0000
,  // measure 9
1001
0000
0000
0000
0000
0000
0001
0000
0000
0000
0000
0100
,  // measure 10
0000
0000
0001
0000
0000
0000
1000
0000
0000
1000
0000
0000
,  // measure 11
0010
0000
0100
0000
0000
0000
0000
0000
0001
1000
0000
0000
,  // measure 12
1001
0000
0001
0000
,  // measure 13
0011
0000
0000
0000
0000
0100
0000
0000
0000
0110
0000
0000
,  // measure 14
0000
0000
0000
0000
0000
1000
0100
0000
1000
0100
0000
0000
,  // measure 15
1000
0000
0000
1000
0000
0000
0010
0000
0100
0001
0000
0000
,  // measure 16
2001
0000
0000
3000
0000
0000
0200
0000
0000
0000
0000
1300
,  // measure 17
0000
0000
0001
0000
0000
0000
0000
0000
0010
0001
0000
0010
,  // measure 18
0001
0000
1000
0000
0000
0010
0100
0000
0010
1000
0000
0001
,  // measure 19
0000
0000
1000
0100
0000
0000
1000
0000
0001
0100
0000
0000
,  // measure 20
0001
0000
1000
0000
0000
0001
0000
0000
0010
0000
0000
0100
,  // measure 21
0000
0000
1000
0001
0000
0000
0100
0000
0010
0100
0000
0010
,  // measure 22
0100
0000
0002
0000
0000
0000
1003
0000
0000
0000
0000
0000
,  // measure 23
0001
0000
0100
0000
0010
0000
1000
0000
0001
0010
0000
0000
,  // measure 24
0000
0002
0000
0000
0000
0000
0100
0000
0000
0103
0000
0000
,  // measure 25
0000
0020
0000
0000
0000
0000
1000
0000
0000
1030
0000
0000
,  // measure 26
0001
0000
1000
0000
0000
0001
0000
0000
0010
0000
0000
0100
,  // measure 27
0000
0000
1000
0001
0000
0010
0001
0000
1000
0001
0000
0010
,  // measure 28
0002
0000
1000
0000
0000
1003
0000
0000
0000
0000
0000
0001
,  // measure 29
1000
0000
0100
1000
0000
1000
0100
0000
1000
0001
0000
0000
,  // measure 30
1000
0000
0001
0010
0000
0002
0000
0000
0000
0003
0000
0100
,  // measure 31
0010
0000
0010
0100
0000
0100
0010
0000
2000
0000
0000
0000
,  // measure 32
3002
0000
0000
0000
0000
1003
0000
0000
0001
0000
0000
0100
,  // measure 33
0000
0000
0010
0000
0000
1000
0001
0000
1000
0001
0000
0020
,  // measure 34
0000
0000
0000
0030
0000
0001
0010
0000
0001
1000
0000
0001
,  // measure 35
1000
0000
0001
0010
0000
0001
0010
0000
1001
0000
0000
0000
,  // measure 36
1100
0000
1001
0000
,  // measure 37
1100
0000
0000
0000
0000
0110
0000
0000
0000
0011
0000
0000
,  // measure 38
0000
0000
1010
0000
0000
0000
0101
0000
0000
0000
0000
0000
,  // measure 39
0110
0220
0000
0330
,  // measure 40
0002
0000
0000
2003
0000
0000
3002
0000
0000
2003
0000
0100
,  // measure 41
0000
0000
3100
0000
0000
0000
1000
0000
1001
0000
0000
0002
,  // measure 42
0000
0000
1003
0000
0100
0000
0020
0000
0000
0031
0000
2000
,  // measure 43
0000
0000
0000
0000
0000
0000
3000
0000
0010
0100
0000
0010
,  // measure 44
0000
0000
1000
0000
0001
0000
0020
0000
0000
0230
0000
1000
,  // measure 45
0000
0000
1300
0000
0010
0000
0100
0000
0000
0001
0000
0000
,  // measure 46
2000
3020
0230
0302
,  // measure 47
2003
0000
0100
0000
0000
3100
0000
0000
0000
0000
0000
0000
,  // measure 48
1002
0000
0000
0000
0000
0013
0000
0000
0000
0000
0000
0000
,  // measure 49
0001
0000
0100
0010
0000
1000
0100
0000
0100
1000
0000
1000
,  // measure 50
0001
0000
0000
1000
0000
0010
0100
0000
0100
0010
0000
0010
,  // measure 51
2000
0000
0000
3002
0000
0000
0103
0000
0001
0100
0000
0000
,  // measure 52
0001
0000
1000
0010
0000
0010
1000
0000
1000
0001
0000
0001
,  // measure 53
1000
0000
1000
0100
0000
0100
1000
0000
0000
0001
0000
0001
,  // measure 54
1000
0000
0100
0000
0000
1000
0001
0000
0000
0001
0000
0000
,  // measure 55
0100
0001
1000
0200
0000
0000
1300
0000
0000
0000
0000
0000
,  // measure 56
0002
0000
0000
0203
0000
0000
0301
0000
0010
0000
0100
0000
,  // measure 57
1000
0000
1000
0001
0000
0001
0100
0000
0010
0000
0000
0000
,  // measure 58
1000
0000
0100
0000
0000
1000
0001
0000
0000
0010
0000
0001
,  // measure 59
1000
0000
0010
0000
0000
0100
0010
0000
0100
0010
0000
0000
,  // measure 60
1000
0000
0001
0100
0000
0000
0001
0000
0100
0010
0000
0000
,  // measure 61
0110
0000
0000
0000
0000
1100
0000
0000
0000
1100
0000
0000
,  // measure 62
0000
0000
0021
0000
0000
0000
0130
0000
0000
0110
0000
0000
,  // measure 63
0100
0000
0010
0100
0000
0001
0000
0000
0000
1001
0000
0000
;

//---------------dance-double - ----------------
#NOTES:
     dance-double:
     :
     Easy:
     4:
     0.185,0.212,0.090,0.101,0.000:
00000000
00000000
00000000
00000000
,
00000000
00000000
00000000
00000000
,
00000000
00000000
00000000
00000000
,
00000000
00000000
00000000
00000000
,
00000000
00000000
00000000
00000000
,
00000000
00000000
00000000
00000000
,
00000000
00000000
00000000
00000000
,
00010000
00000000
00010000
00000000
,
00010000
00000000
00010000
00000000
,
00000000
00000000
20000000
00000000
,
00000000
00000000
30000000
00000000
,
00100000
00000000
00100000
00000000
,
00100000
00000000
00000000
01100000
,
00000000
00000000
00000000
00000000
,
00000000
00000000
00000000
00000000
,
00001000
00000000
00010000
00000000
,
00001000
00000000
00010000
00000000
,
00000010
00000000
00000100
00000000
,
00000010
00000000
00000100
00000000
,
00000001
00000000
00000010
00000000
,
00000001
00000000
00000010
00000000
,
00000100
00000000
00010000
00000000
,
00000100
00000000
00010000
00000000
,
00002000
00000000
10003000
00000000
,
00002000
00000000
10003000
00000000
,
02000000
00000000
10000000
00000000
,
10000000
00000000
13000000
00000000
,
10010000
00000000
00010000
00000000
,
01000000
00000000
00001000
00000000
,
00010000
00000000
00000100
00000000
,
00001000
00000000
00000010
00000000
,
00002000
00000000
00000001
00000000
,
00000001
00000000
00003001
00000000
,
00020000
00000000
00000100
00000000
,
00000100
00000000
00030100
00000000
,
00011000
00000000
00010000
00000000
,
00010000
00000000
00000000
00000000
,
00001000
00000000
00001000
00000000
,
01001000
00000000
00000000
00000000
,
00100000
00000000
00010000
00000000
,
00100000
00000000
01000000
00000000
,
10000000
00000000
01000000
00000000
,
10000000
00000000
00100000
00000000
,
00100000
00000000
01000000
00000000
,
00001000
00000000
00010000
00000000
,
00000010
00000000
00000100
00000000
,
00000001
00000000
00001000
00000000
,
00000002
00000000
00000000
00000000
,
00001003
00000000
00001000
00000000
,
00000001
00000000
00000001
00000000
,
00000100
00000000
00000100
00000000
,
00000110
00000000
00000010
00000000
,
00000100
00000000
00001000
00000000
,
00010000
00000000
00100000
00000000
,
01000000
00000000
01000000
00000000
,
20000000
00000000
00000000
00000000
,
30001000
00000000
10000000
00000000
,
00002000
00000000
00000000
00000000
,
01003000
00000000
00100000
00000000
,
01000000
00000000
00001000
00000000
,
00001000
00000000
00000000
00011000
,
00000000
00000000
00000000
00000000
,
00011000
00000000
00000000
00000110
;

//---------------dance-double - ----------------
#NOTES:
     dance-double:
     :
     Medium:
     7:
     0.294,0.353,0.045,0.124,0.231:
00000000
00000000
00000000
00000000
,
00000000
00000000
00000000
00000000
,
00000000
00000000
00000000
00000000
,
00000000
00000000
00000000
00000000
,
00000000
00000000
00000000
00000000
,
00000000
00000000
00000000
00000000
,
00000000
00000000
00000000
00000000
,
00010000
00000000
00010000
00000000
,
00010000
00000000
00000000
00000000
00000000
00000000
00010000
00000000
00000000
00000000
00000000
10000000
,
00000000
00000000
10000000
00000000
00000000
00000000
00001000
00000000
00000000
00000000
00000000
00000000
,
00020000
00000000
00030000
00000000
,
00001000
00000000
00001000
00000000
,
00001000
00000000
00000000
00000000
00000000
00010000
00000000
00000000
00000000
00001000
00000000
00000000
,
00000000
00000000
00000000
00000000
,
00010000
00000001
00010000
00000001
,
00000100
00000000
00000010
00000000
,
00000100
00000000
00000001
00000010
,
00000001
00000000
00001000
00001000
,
00000000
00000000
00000002
00000000
00000000
00000000
00010003
00000000
00000000
00010000
00000000
00000000
,
00001000
00000000
00000000
00000000
00000000
01000000
00000000
00000000
00100000
00000000
00000000
01000000
,
00000000
00010000
00010000
10000000
,
01000000
00000000
10000000
00000000
,
00001000
00000000
00010000
00000000
00001000
00000000
00010000
00000000
00000000
00000000
00000000
00000000
,
00000000
00000020
00000000
00000000
00000000
00000000
00000130
00000000
00000000
00000100
00000000
00000000
,
00000000
00000002
00000000
00000000
00000000
00000000
00001003
00000000
00000000
00001000
00000000
00000000
,
00000100
00000000
00000000
00000000
00000000
00001000
00000000
00000000
00000001
00000000
00000000
00001000
,
00000000
00000001
00000010
00000100
,
00020000
00000000
00000000
00000000
00000000
00031000
00000000
00000000
00000000
00000000
00000000
00000000
,
01000000
00100000
01000000
00000000
,
00010000
00100000
00010000
00000000
,
10000000
00010000
10000000
00000000
,
00020000
00000000
00000000
00000000
00000000
10030000
00000000
00000000
01000000
00000000
00000000
00100000
,
00000000
00000000
00010000
00000000
00000000
10000000
00000000
00000000
10000000
00000000
00000000
00001000
,
00000000
00000000
00010000
00000100
,
00010000
00000100
00001000
00000000
,
00001010
00000000
00001000
00000000
,
00001000
00000000
00000000
00000000
00000000
00001000
00000000
00000000
00000000
00001000
00000000
00000000
,
00000000
00000000
00000001
00000000
00000000
00000000
00000001
00000000
00000000
00000000
00000000
00000000
,
00000001
00001001
00000000
00000000
,
00001000
00000100
00000010
00000100
,
00001000
00000000
00000000
00000100
00000000
00000000
00000010
00000000
00000000
00000001
00000000
00010000
,
00000000
00000000
00001000
00000000
00010000
00000000
00002000
00000000
00000000
00000000
00000000
00013000
,
00000000
00000000
00000000
00001000
,
00100000
00000000
01000000
00000000
00100000
00000000
02000000
00000000
00000000
00000000
00000000
13000000
,
00000000
00000000
10000000
00000000
00000000
00000000
00000000
00000000
00000000
00010000
00000000
00000000
,
10000000
10000000
00100000
00100000
,
10000000
00000000
00001000
00000000
00000000
00010000
00000000
00000000
00000000
00000000
00000000
00000000
,
00000200
00000000
00000000
00000000
00000000
00001300
00000000
00000000
00000000
00000000
00000000
00000000
,
00000001
00001000
00001000
00001000
,
00000010
00000100
00000100
00000100
,
00000001
00010000
00001000
00010000
,
00001000
00001000
00010000
00010000
,
00100000
00100000
01000000
01000000
,
10000000
00000000
00010000
00010000
,
20000000
00010000
30010000
00000000
,
10000000
00000000
00000000
00100000
00000000
00000000
01000000
00000000
00001000
00000000
01000000
00000000
,
00002000
00010000
00013000
00000000
,
00000001
00000000
00000000
00000000
00000000
00000100
00000000
00000000
00000000
00000010
00000000
00000000
,
00010000
00010000
00001000
00000000
,
00011000
00000000
00001000
00000000
,
01000000
00000000
00000000
00000000
00000000
01000000
00000000
00000000
00000000
01000000
00000000
00000000
,
00000000
00000000
00010000
00000000
00000000
00000000
00010000
00000000
00000000
00100000
00000000
00000000
,
00001000
00000000
00000000
00000000
00000000
00001000
00000000
00000000
00000000
00011000
00000000
00000000
;

//---------------dance-double - ----------------
#NOTES:
     dance-double:
     :
     Hard:
     11:
     0.497,0.565,0.259,0.349,0.670:
00000000
00000000
00000000
00000000
,
00000000
00000000
00000000
00000000
,
00000000
00000000
00000000
00000000
,
00000000
00000000
00000000
00000000
,
00000000
00000000
00000000
00000000
,
00000000
00000000
00000000
00000000
,
00000000
00000000
00000000
00000000
,
10010000
00000000
10000000
00000000
,
10010000
00000000
00000000
00000000
00000000
00000000
00010000
00000000
00000000
00000000
00000000
01000000
,
00000000
00000000
00100000
00000000
00000000
00000000
10000000
00000000
00000000
10000000
00000000
00000000
,
00100000
00000000
01000000
00000000
00000000
00000000
00000000
00000000
00001000
00010000
00000000
00000000
,
00011000
00000000
00010000
00000000
,
00010001
00000000
00000000
00000000
00000000
00000001
00000000
00000000
00000000
00000011
00000000
00000000
,
00000000
00000000
00000000
00000000
00000000
00000100
00000010
00000000
00000100
00000010
00000000
00000000
,
00000100
00000000
00000000
00000100
00000000
00000000
00000001
00000000
00001000
00000100
00000000
00000000
,
00002100
00000000
00000000
00003000
00000000
00000000
00000020
00000000
00000000
00000000
00000000
00000130
,
00000000
00000000
00000001
00000000
00000000
00000000
00000000
00000000
00010000
00000100
00000000
00010000
,
00000100
00000000
00010000
00000000
00000000
00001000
00100000
00000000
00001000
00100000
00000000
00001000
,
00000000
00000000
01000000
00100000
00000000
00000000
01000000
00000000
00010000
10000000
00000000
00000000
,
00010000
00000000
10000000
00000000
00000000
00010000
00000000
00000000
00100000
00000000
00000000
01000000
,
00000000
00000000
10000000
00001000
00000000
00000000
01000000
00000000
00001000
00010000
00000000
00001000
,
00010000
00000000
00000020
00000000
00000000
00000000
00000130
00000000
00000000
00000000
00000000
00000000
,
00000001
00000000
00000100
00000000
00000010
00000000
00001000
00000000
00000001
00001000
00000000
00000000
,
00000000
00000002
00000000
00000000
00000000
00000000
00000100
00000000
00000000
00000103
00000000
00000000
,
00000000
00000020
00000000
00000000
00000000
00000000
00001000
00000000
00000000
00001030
00000000
00000000
,
00000001
00000000
00001000
00000000
00000000
00000001
00000000
00000000
00000010
00000000
00000000
00000100
,
00000000
00000000
00001000
00000001
00000000
00001000
00000100
00000000
00001000
00000001
00000000
00001000
,
00000200
00000000
00010000
00000000
00000000
00010300
00000000
00000000
00000000
00000000
00000000
00001000
,
01000000
00000000
00100000
01000000
00000000
01000000
00100000
00000000
10000000
01000000
00000000
00000000
,
10000000
00000000
00100000
01000000
00000000
00200000
00000000
00000000
00000000
00300000
00000000
10000000
,
00010000
00000000
00010000
00100000
00000000
00100000
00010000
00000000
20000000
00000000
00000000
00000000
,
30020000
00000000
00000000
00000000
00000000
10030000
00000000
00000000
00100000
00000000
00000000
01000000
,
00000000
00000000
00010000
00000000
00000000
00100000
00001000
00000000
00100000
00001000
00000000
00020000
,
00000000
00000000
00000000
00030000
00000000
00001000
00010000
00000000
00001000
00010000
00000000
00000100
,
00000010
00000000
00000001
00001000
00000000
00000001
00001000
00000000
00000010
00000000
00000000
00000000
,
00000110
00000000
00000110
00000000
,
00001100
00000000
00000000
00000000
00000000
00000011
00000000
00000000
00000000
00001010
00000000
00000000
,
00000000
00000000
00000101
00000000
00000000
00000000
00000110
00000000
00000000
00000000
00000000
00000000
,
00011000
00022000
00000000
00033000
,
00002000
00000000
00000000
02003000
00000000
00000000
03200000
00000000
00000000
20300000
00000000
00010000
,
00000000
00000000
30010000
00000000
00000000
00000000
10000000
00000000
10010000
00000000
00000000
00020000
,
00000000
00000000
10030000
00000000
01000000
00000000
00200000
00000000
00000000
00301000
00000000
00020000
,
00000000
00000000
00000000
00000000
00000000
00000000
00030000
00000000
00001000
00010000
00000000
00000100
,
00000000
00000000
00001000
00000000
00000010
00000000
00000100
00000000
00000000
00000002
00000000
00001000
,
00000000
00000000
00001003
00000000
00000010
00000000
00000100
00000000
00000000
00000001
00000000
00000000
,
00000200
00000320
00020030
00032000
,
02003000
00000000
00100000
00000000
00000000
03100000
00000000
00000000
00000000
00000000
00000000
00000000
,
20010000
00000000
00000000
00000000
00000000
30010000
00000000
00000000
00000000
00000000
00000000
00000000
,
10000000
00000000
00010000
10000000
00000000
00100000
01000000
00000000
01000000
00100000
00000000
00100000
,
10000000
00000000
00000000
00001000
00000000
01000000
00010000
00000000
00010000
01000000
00000000
01000000
,
00002000
00000000
00000000
00023000
00000000
00000000
00031000
00000000
00010000
00000100
00000000
00000000
,
00001000
00000000
00000010
00000100
00000000
00000100
00000010
00000000
00000010
00001000
00000000
00001000
,
00000001
00000000
00000001
00001000
00000000
00001000
00000100
00000000
00000000
00010000
00000000
00010000
,
00000010
00000000
00000100
00000000
00000000
00000001
00001000
00000000
00000000
00001000
00000000
00000000
,
00000001
00000010
00000100
00002000
00000000
00000000
00003001
00000000
00000000
00000000
00000000
00000000
,
00001000
00000000
00000000
00000002
00000000
00000000
00010003
00000000
00000010
00000000
00000100
00000000
,
00000010
00000000
00000010
00010000
00000000
00010000
00001000
00000000
01000000
00000000
00000000
00000000
,
00010000
00000000
00100000
00000000
00000000
00010000
10000000
00000000
00000000
01000000
00000000
10000000
,
00010000
00000000
01000000
00000000
00000000
00100000
01000000
00000000
00100000
01000000
00000000
00000000
,
00010000
00000000
01000000
00100000
00000000
00000000
01000000
00000000
00001000
00010000
00000000
00000000
,
00011000
00000000
00000000
00000000
00000000
00000110
00000000
00000000
00000000
00000110
00000000
00000000
,
00000000
00000000
00001002
00000000
00000000
00000000
00000013
00000000
00000000
00000011
00000000
00000000
,
00001000
00000000
00000010
00000100
00000000
00000010
00000000
00000000
00000000
00001001
00000000
00000000
;

//---------------dance-single - ----------------
#NOTES:
     dance-single:
     :
     Beginner:
     2:
     0.066,0.106,0.034,0.000,0.000:
0000
0000
0000
0000
,
0000
0000
0000
0000
,
0000
0000
0000
0000
,
0001
0000
0000
0000
,
0000
0000
0000
0000
,
0000
0000
0000
0000
,
0000
0000
0000
0000
,
1000
0000
0000
0000
,
0000
0000
0000
0000
,
0000
0001
0000
0000
,
0000
0000
0000
0000
,
0100
0000
0000
0000
,
0000
0000
0000
0000
,
0000
0000
0000
0000
,
0000
0000
0000
0000
,
0010
0000
0000
0000
,
0000
0000
0000
0000
,
0100
0000
0000
0000
,
0000
0000
0000
0000
,
0010
0000
0000
0000
,
0000
0000
0000
0000
,
1000
0000
0000
0000
,
0000
0000
0000
0000
,
0100
0000
0000
0000
,
1000
0000
0000
0000
,
0100
0000
0000
0000
,
0000
0000
0000
0000
,
0010
0000
0000
0000
,
0100
0000
0000
0000
,
0010
0000
0000
0000
,
0001
0000
0000
0000
,
0010
0000
0000
0000
,
0001
0000
0000
0000
,
0100
0000
0000
0000
,
0000
0000
0000
0000
,
0110
0000
0000
0000
,
0000
0000
0000
0000
,
0000
0000
0000
0000
,
0000
0000
0000
0000
,
0001
0000
0000
0000
,
0000
0000
0000
0000
,
0010
0000
0000
0000
,
0000
0000
0000
0000
,
0100
0000
0000
0000
,
0000
0000
0000
0000
,
0010
0000
0000
0000
,
0000
0000
0000
0000
,
0001
0000
0000
0000
,
1000
0000
0000
0000
,
1000
0000
0000
0000
,
0001
0000
0000
0000
,
0001
0000
0000
0000
,
0100
0000
0000
0000
,
0100
0000
0000
0000
,
0010
0000
0000
0000
,
0010
0000
0000
0000
,
1000
0000
0000
0000
,
0001
0000
0000
0000
,
1000
0000
0000
0000
,
1001
0000
0000
0000
,
0000
0000
0000
0000
,
0000
0000
0000
0000
,
0010
0000
0000
0110
;
