#TITLE:In The Breeze;
#SUBTITLE:-80's Mix-;
#ARTIST:96 & Sota ft. Mayumi Morinaga;
#TITLETRANSLIT:;
#SUBTITLETRANSLIT:;
#ARTISTTRANSLIT:;
#CREDIT:DigiMindAxel;
#BANNER:In The Breeze -80's Mix-.png;
#BACKGROUND:In The Breeze -80's Mix--bg.png;
#LYRICSPATH:In The Breeze -80's Mix-.lrc;
#CDTITLE:Konami original REMIX.png;
#MUSIC:In The Breeze -80's Mix-.ogg;
#METERTYPE:DDR X;
#OFFSET:-1.822;
#SAMPLESTART:58.000;
#SAMPLELENGTH:15.000;
#SELECTABLE:YES;
#DISPLAYBPM:123.000:142.000;
#BPMS:0.000=123.000,16.000=142.000;
#STOPS:;
#BGCHANGES:-5.000=In The Breeze -80's Mix-.avi=1.000=1=1=0,
99999=-nosongbg-=1.000=0=0=0 // don't automatically add -songbackground-
;

//---------------dance-single - ----------------
#NOTES:
     dance-single:
     :
     Beginner:
     3:
     0.079,0.158,0.018,0.000,0.000:
0000
0000
0000
0000
,
0000
0000
0000
0000
,
0000
0000
0000
0000
,
0000
0000
0000
0000
,
0000
0000
0000
0000
,
1000
0000
0000
0000
,
1000
0000
0000
0000
,
0001
0000
0000
0000
,
0001
0000
0000
0000
,
1000
0000
0000
0000
,
0001
0000
0000
0000
,
1000
0000
0000
0000
,
1001
0000
0000
0000
,
0000
0000
0000
0000
,
0000
0000
0000
0000
,
1000
0000
0000
0000
,
1000
0000
0000
0000
,
1000
0000
1000
0000
,
1000
0000
0000
0000
,
0001
0000
0000
0000
,
0001
0000
0000
0000
,
0001
0000
0001
0000
,
0001
0000
0000
0000
,
0000
0000
0000
0000
,
0010
0000
0000
0000
,
0000
0000
0000
0000
,
0100
0000
0000
0000
,
0000
0000
0000
0000
,
1000
0000
0000
0000
,
0001
0000
0000
0000
,
0001
0000
0000
0000
,
1000
0000
0001
0000
,
1000
0000
0000
0000
,
0010
0000
0000
0000
,
0010
0000
0000
0000
,
0100
0000
0100
0000
,
0100
0000
0000
0000
,
0001
0000
0000
0000
,
0001
0000
0000
0000
,
1000
0001
1000
0001
,
1000
0000
0000
0000
,
0010
0000
0000
0000
,
0100
0000
0000
0000
,
0010
0100
0010
0100
,
0010
0000
0100
0000
,
0001
0000
0000
0000
,
1000
0000
0000
0000
,
1001
0000
0000
0000
,
0000
0000
0000
0000
,
0010
0000
0010
0000
,
0010
0000
0000
0000
,
0000
0000
0000
0000
,
0000
0000
0000
0000
,
0100
0000
0100
0000
,
0100
0000
0000
0000
,
0100
0000
0100
0000
,
0100
0000
0000
0000
,
0000
0000
0000
0000
,
0000
0000
0000
0010
0000
0000
0000
0000
;

//---------------dance-single - ----------------
#NOTES:
     dance-single:
     :
     Easy:
     5:
     0.213,0.244,0.136,0.199,0.000:
0000
0000
0000
0000
,
0000
0000
0000
0000
,
0000
0000
0000
0000
,
0000
0000
0000
0000
,
0000
0000
0000
0000
,
2001
0000
0100
0000
,
3020
0000
0230
0000
,
0320
0000
0100
0000
,
0130
0000
0000
0000
,
0002
0000
0010
0000
,
1000
0000
2003
0000
,
3002
0000
0203
0000
,
0010
0000
0310
0000
,
2002
0000
0000
0000
,
0000
3003
0000
0000
,
1000
0000
0100
0000
,
0010
0000
0100
0000
,
1000
0000
0001
0000
,
0100
0000
0001
0000
,
1000
0000
0100
0000
,
1000
0000
0100
0000
,
0010
0000
0001
0000
,
0100
0000
0110
0000
,
0001
0001
0001
0000
,
1000
0001
1000
0000
,
0100
0100
0100
0000
,
0010
0100
0010
0000
,
0001
0001
0001
0000
,
0010
0100
0010
0000
,
0001
0000
0010
0000
,
0100
0000
1000
0001
,
2002
0000
0000
3003
,
0220
0000
0000
0330
,
0010
0100
0001
0000
,
0010
0100
1000
0000
,
0100
0010
0001
0010
,
0110
0000
0110
0000
,
0100
0010
1000
0000
,
0100
0010
0001
0000
,
0010
0100
1000
0100
,
0110
0000
0110
0000
,
0010
0100
0010
0100
,
0010
0000
1000
0000
,
0100
0010
0100
0010
,
0100
0000
0110
0000
,
0001
1000
0001
1000
,
1001
0000
0000
0000
,
1001
0000
1000
0000
,
0100
1000
0100
0000
,
1000
0010
0100
0001
,
1000
0100
1000
0000
,
0001
1000
0001
0000
,
0010
0100
1000
0100
,
0020
0000
0032
0000
,
1003
0001
1000
0000
,
2002
0000
0000
0000
,
3003
0220
0000
0330
,
0000
0100
0000
0000
0100
0000
0000
0100
,
0000
0000
0000
0220
0000
0000
0000
0000
,
0000
0000
0000
0000
0000
0000
0000
0330
;

//---------------dance-single - ----------------
#NOTES:
     dance-single:
     :
     Medium:
     8:
     0.351,0.379,0.461,0.172,0.000:
0000
0000
0000
0000
,
0000
0000
0000
0000
,
0000
0000
0000
0000
,
0000
0000
0000
0000
,
2002
0000
0000
3003
,
0100
0100
0010
0010
,
1000
0001
0010
0000
0001
0010
0100
0000
,
1000
1000
0001
0001
,
0101
0000
0000
1001
0000
0000
0000
0000
,
0100
0100
0010
0010
,
0001
1000
0010
0000
1000
0100
0010
0000
,
0001
0001
1000
1000
,
1100
0000
0000
1001
0000
0000
0000
0000
,
0000
0120
0000
0000
0000
0000
0000
0130
,
0000
2002
0000
3003
,
0001
1000
0001
1000
,
0200
1000
1000
1300
,
0001
0010
0100
1000
,
0020
0100
0100
0130
,
0001
0010
0100
0010
,
0002
0010
0010
0013
,
0001
1000
0010
0100
,
0002
1000
1000
1003
,
1100
0110
0011
0000
,
0001
0100
0001
0000
1000
0001
1000
0000
,
0101
0110
1010
0000
,
0100
0010
0100
0000
0001
1000
0001
0000
,
1100
0110
0011
0000
,
1000
0001
1000
0000
0001
0100
0001
0000
,
0010
0000
0100
0000
1000
0010
0100
0000
,
0001
1000
0100
0000
1000
0100
0010
0000
,
0000
0220
0000
0000
0000
0000
0000
0330
,
0000
0220
0000
0000
0000
0000
0330
0000
,
1001
0001
0101
0001
,
1001
1000
1100
1000
,
0001
0010
0001
0000
0100
0010
0100
0000
,
0110
0000
0000
1001
0000
0000
0000
0000
,
0101
0001
1001
0001
,
1100
1000
1001
1000
,
0100
1000
0100
0000
0010
0100
0010
0000
,
0011
0000
0000
1001
0000
0000
0000
0000
,
0001
0100
0001
0000
1000
0001
1000
0000
,
0100
1000
0100
0000
0010
0100
0010
0000
,
0001
0100
0001
0000
1000
0010
1000
0000
,
1010
0000
0000
1001
0000
0000
0000
0000
,
0100
1000
0010
0000
0100
0010
0100
0001
,
0000
0001
0000
0000
0000
0000
0000
0000
,
1001
0000
0001
0000
0101
0000
0000
0001
,
0000
1000
0100
1000
0010
0000
0110
0000
,
1010
1000
1100
0000
,
0101
0000
0000
1001
0000
0000
0000
0000
,
1100
0000
0100
0000
0110
0000
0000
0001
,
0000
0100
0010
0100
0001
0000
0001
0000
,
0110
0100
1100
0000
,
0110
0000
0000
1001
0000
0000
0000
0000
,
0000
0202
0000
0000
0000
0000
0303
0000
,
0000
0000
0220
0000
0000
0000
0000
0330
,
0000
1100
0000
0000
0011
0000
0000
0110
,
0000
0000
0000
2002
0000
0000
0000
0000
,
0000
0000
0000
0000
0000
0000
0000
0000
0000
0000
0000
0000
0000
0000
0000
0000
0000
0000
0000
0000
0000
0000
0000
0000
0000
0000
0000
0000
0000
0000
0000
0000
0000
0000
0000
0000
0000
0000
0000
0000
0000
0000
0000
0000
0000
0000
0000
0000
0000
0000
0000
0000
0000
0000
0000
0000
0000
0000
0000
0000
0000
0000
0000
0000
0000
0000
0000
0000
0000
0000
0000
0000
0000
0000
0000
0000
0000
0000
0000
0000
0000
0000
0000
0000
0000
0000
0000
0000
0000
0000
0000
0000
0000
0000
0000
0000
0000
0000
0000
0000
0000
0000
0000
0000
0000
0000
0000
0000
0000
0000
0000
0000
0000
0000
0000
0000
0000
0000
0000
0000
0000
0000
0000
0000
0000
0000
0000
0000
0000
0000
0000
0000
0000
0000
0000
0000
0000
0000
0000
0000
0000
0000
0000
0000
0000
0000
0000
0000
0000
0000
0000
0000
0000
0000
0000
0000
0000
0000
0000
0000
0000
0000
0000
0000
0000
0000
0000
0000
0000
3003
0000
0000
0000
0000
0000
0000
0000
0000
0000
0000
0000
0000
0000
0000
0000
0000
0000
0000
0000
0000
0000
0000
;

//---------------dance-single - ----------------
#NOTES:
     dance-single:
     :
     Hard:
     11:
     0.430,0.406,0.226,0.199,0.325: // measure 1
0000
0000
0000
0000
,  // measure 2
0000
0000
0000
0000
,  // measure 3
0000
0000
0000
0000
,  // measure 4
0000
0000
0000
0000
,  // measure 5
2002
0000
0000
3003
,  // measure 6
1001
0000
0000
0000
0100
1000
0000
0000
0010
0000
0000
0010
0100
0000
0001
0000
,  // measure 7
0000
0000
1000
0000
0000
0100
0000
0000
1000
0000
0000
0010
0000
0000
0000
0000
,  // measure 8
1001
0000
0000
0000
1000
0000
0000
0000
0100
0000
0000
1000
0100
0000
1000
0000
,  // measure 9
0010
0000
0000
0010
0000
0000
0220
0000
0000
0000
0000
0000
0330
0000
0000
0000
,  // measure 10
0001
0000
0000
0000
0010
0001
0000
0000
0100
0000
0000
0010
0100
0000
0010
0000
,  // measure 11
0000
0000
1000
0000
0000
0001
0000
0000
1000
0000
0000
0100
0000
0000
0010
0000
,  // measure 12
0100
0000
0000
0000
1000
0000
0000
0000
0010
0000
0000
0100
0010
0000
0100
0000
,  // measure 13
0001
0000
0000
0001
0000
0000
2002
0000
0000
0000
0000
0000
3003
0000
0000
0000
,  // measure 14
0000
0000
0100
0000
0000
0101
0000
0000
0001
0000
0000
1001
0000
0000
1000
0000
,  // measure 15
0000
0000
0000
2002
0000
0000
0000
0000
0000
0000
0000
0000
3003
0000
0000
0000
,  // measure 16
0001
0010
1000
0010
,  // measure 17
0001
0000
1000
0000
0000
0010
0000
0000
1000
0000
0000
0001
0000
0000
1000
0000
,  // measure 18
0001
0010
1000
0010
,  // measure 19
0001
0000
1000
0000
0000
0100
0000
0000
1000
0000
0000
0001
0000
0000
1000
0000
,  // measure 20
0001
0100
1000
0100
,  // measure 21
0001
0000
0010
0000
0000
0001
0000
0000
0010
0000
0000
0100
0000
0000
1000
0000
,  // measure 22
0001
0010
1000
0010
,  // measure 23
0001
0000
0100
0000
0000
0010
0000
0000
0100
0000
0000
0010
0000
0000
1000
0000
,  // measure 24
0001
0000
0000
0010
0000
0000
0011
0000
0000
0000
0001
0000
0100
0000
0010
0000
,  // measure 25
0100
0010
1000
0000
0100
0010
0001
0000
,  // measure 26
1000
0000
0000
0100
0000
0000
1100
0000
0000
0000
1000
0000
0001
0000
1000
0000
,  // measure 27
0100
0010
0100
0000
1000
0001
0100
0000
,  // measure 28
0001
0000
0000
1000
0000
0000
1001
0000
0000
0000
0010
0000
0100
0000
0010
0000
,  // measure 29
1000
0001
0010
0000
0001
0010
0100
0000
,  // measure 30
1001
0000
0000
0001
0000
0000
0100
0000
0010
0000
0000
0010
0000
0000
1000
0000
,  // measure 31
0100
0000
0000
1000
0000
0000
0010
0000
0100
0000
0000
0001
0000
0000
0010
0000
,  // measure 32
0000
1001
0000
0000
0001
0000
0000
0101
0000
0000
0100
0000
0000
0001
0000
1000
,  // measure 33
0000
0100
0000
0000
1100
0000
0000
0200
0000
0000
0000
0000
0000
0000
0000
0000
,  // measure 34
1300
0000
0010
0000
0100
0000
0001
0000
0010
0000
0000
0100
0000
0000
1000
0000
,  // measure 35
0000
0000
0010
0000
0100
0000
0010
0000
0100
0000
0000
0001
0000
0000
1000
0000
,  // measure 36
0001
0010
0100
1000
0100
0010
0001
0000
,  // measure 37
1000
0000
0000
0001
0000
0000
1001
0000
0000
0000
1000
0000
1000
0000
0000
0000
,  // measure 38
0001
0000
0010
0000
0001
0000
1000
0000
0100
0000
0000
0010
0000
0000
0001
0000
,  // measure 39
0000
0000
0100
0000
0010
0000
0100
0000
0001
0000
0000
0010
0000
0000
0100
0000
,  // measure 40
1000
0010
0100
0001
0100
0010
1000
0000
,  // measure 41
0001
0000
0000
1000
0000
0000
2002
0000
0000
0000
0000
0000
3003
0000
0000
0000
,  // measure 42
0001
0100
0010
0000
1000
1000
0001
0010
,  // measure 43
0100
0000
1000
0000
0000
0001
0000
0000
0100
0000
0000
0001
0000
0000
1000
0000
,  // measure 44
0010
0100
0001
0000
1000
1000
0100
0010
,  // measure 45
0001
0000
0000
1000
0000
0000
2002
0000
0000
0000
0000
0000
3003
0000
0000
0000
,  // measure 46
1000
0000
0100
0000
1000
0000
0000
0001
0000
0010
0000
0100
0000
0000
1010
0000
,  // measure 47
0000
2002
0000
0000
0000
0000
3003
0000
,  // measure 48
1000
0000
0000
0000
0100
1000
0000
0000
0010
0000
0000
0100
0010
0000
0100
0000
,  // measure 49
0000
0000
0001
0000
0000
1000
0000
0000
0100
0000
0000
1000
0000
0000
0010
0000
,  // measure 50
0100
0000
0000
0000
0001
0000
0000
0000
1000
0000
0000
0100
1000
0000
0010
0000
,  // measure 51
0100
0000
0000
0010
0000
0000
0220
0000
0000
0000
0000
0000
0330
0000
0000
0000
,  // measure 52
0001
0000
0000
0000
0100
0001
0000
0000
1000
0000
0000
0100
1000
0000
0010
0000
,  // measure 53
0000
0000
0100
0000
0000
0001
0000
0000
1000
0000
0000
0100
0000
0000
1000
0000
,  // measure 54
0010
0000
0000
0000
0100
0000
0000
0000
0010
0000
0000
1000
0001
0000
1000
0000
,  // measure 55
0010
0000
0000
0100
0000
0000
0220
0000
0000
0000
0000
0000
0330
0000
0000
0000
,  // measure 56
0000
0000
0101
0000
0000
0001
0000
0000
1001
0000
0000
1000
0000
0000
0010
0100
,  // measure 57
0010
0000
0000
0220
0000
0000
0000
0000
0000
0000
0000
0000
0000
0000
0330
0000
,  // measure 58
0000
0000
1000
0001
0000
0001
0000
0000
0100
0001
0000
0001
0000
0000
1000
0100
,  // measure 59
0000
0100
0000
0100
0000
1000
0002
0000
0000
0000
0000
0000
0000
0000
0000
0000
,  // measure 60
0000
0000
0000
0000
0000
0000
0000
0003
;

//---------------dance-double - ----------------
#NOTES:
     dance-double:
     :
     Easy:
     5:
     0.220,0.244,0.136,0.181,0.000:
00000000
00000000
00000000
00000000
,
00000000
00000000
00000000
00000000
,
00000000
00000000
00000000
00000000
,
00000000
00000000
00000000
00000000
,
20020000
00000000
00000000
30030000
,
10000000
00000000
01000000
00000000
,
00100000
00000000
01000000
00000000
,
10000000
00000000
00100000
00000000
,
01100000
00000000
00000000
00000000
,
00010000
00000000
00001000
00000000
,
00010000
00000000
00000001
00000000
,
00000010
00000000
00000100
00000000
,
00022000
00000000
00000000
00000000
00000000
00000000
00000000
00033000
,
00000000
00011000
00000000
00000000
00000000
00000000
00000000
00000000
,
00000000
20002000
00000000
00000000
00000000
00000000
30003000
00000000
,
10000000
00000000
01000000
00000000
,
00100000
00000000
01000000
00000000
,
00100000
00000000
00001000
00000000
,
00010000
00000000
00000100
00000000
,
00000010
00000000
00000100
00000000
,
00010000
00000000
00000010
00000000
,
00000100
00000000
00000010
00000000
,
00010000
00000000
00001000
00000000
,
10000000
10000000
10000000
00000000
,
00100000
01000000
00010000
01000000
,
00001000
00001000
00001000
00000000
,
00010000
00000100
00000010
00000001
,
00000100
00000100
00000100
00000000
,
00000001
00000100
00000010
00010000
,
00001000
00001000
10000000
10000000
,
00100000
01000000
00001000
00010000
,
00000020
00000000
00000030
00000000
,
00002002
00000000
00003003
00000000
,
00000001
00000010
00000001
00000000
,
00000010
00000100
00010000
00000000
,
00001000
00010000
00001000
01000000
,
00100000
00000000
01100000
00000000
,
10000000
00100000
10000000
00000000
,
01000000
00100000
00001000
00000000
,
00010000
00001000
00010000
00000100
,
00000010
00000000
00000110
00000000
,
00001000
00000001
00000010
00000100
,
00010000
00001000
00100000
00000000
,
00010000
10000000
01000000
00100000
,
00022000
00000000
00033000
00000000
,
00010000
00001000
00010000
00000010
,
00000200
00000000
00000300
00000000
,
00000010
00000010
00000010
00000000
,
00001000
00010000
00011000
00000000
,
00100000
00100000
00100000
00000000
,
00010000
00001000
00011000
00000000
,
00000100
00000010
00000100
00010000
,
00001000
01000000
00100000
00000000
,
10000000
01000000
00100000
00001000
,
00022000
00000000
00033000
00000000
,
00000000
00022000
00000000
00000000
00000000
00000000
00000000
00033000
,
00000000
00000000
00020002
00000000
00000000
00000000
00000000
00030003
,
00000000
00000100
00000000
00000000
00000100
00000000
00000000
00000100
,
00000000
00000000
00000000
00000220
00000000
00000000
00000000
00000000
,
00000000
00000000
00000000
00000000
00000000
00000000
00000000
00000330
;

//---------------dance-double - ----------------
#NOTES:
     dance-double:
     :
     Medium:
     8:
     0.346,0.379,0.280,0.081,0.050:
00000000
00000000
00000000
00000000
,
00000000
00000000
00000000
00000000
,
00000000
00000000
00000000
00000000
,
00000000
00000000
00000000
00000000
,
20020000
00000000
00000000
30030000
,
10010000
00000000
10000000
00000000
00001000
00010000
00001000
00000000
,
00010000
00000100
00000001
00000100
,
00010000
00000000
00001000
00000000
01000000
00100000
01000000
00000000
,
10010000
00000000
00000000
10010000
00000000
00000000
00000000
00000000
,
01100000
00000000
01000000
00000000
00001000
00010000
00001000
00000000
,
00010000
00000010
00000001
00000010
,
00010000
00000000
00001000
00000000
01000000
00100000
01000000
00000000
,
01100000
00000000
00000000
01100000
00000000
00000000
00000000
00000000
,
00000000
10000000
00000000
00000000
01000000
00000000
00000000
00100000
,
00000000
00000000
00000000
20020000
00000000
00000000
00000000
00000000
00000000
00000000
00000000
00000000
30030000
00000000
00000000
00000000
,
00100000
01000000
00010000
01000000
,
00001000
00010000
00000100
00000010
,
00000001
00000010
00000100
00000010
,
00000001
00000100
00000010
00000000
00001000
00000100
00010000
00000000
,
00001000
00100000
01000000
00100000
,
00001000
00100000
00010000
01000000
,
00100000
10000000
00001000
00010000
,
00000010
00000100
00000001
00000000
00000010
00000100
00001000
00000000
,
00011000
01001000
01100000
00000000
,
00100000
01000000
00100000
00000000
10000000
00010000
01000000
00000000
,
10001000
01001000
00011000
00000000
,
00010000
00000100
00000010
00000000
00000001
00000100
00000001
00000000
,
00001001
00010010
00011000
00000000
,
00100000
01000000
10000000
00000000
00100000
01000000
00001000
00000000
,
00010000
00000000
00000100
00000010
00000001
00000000
00000010
00000100
,
00010000
00000000
00000000
00000000
00001000
00000000
00000000
00000000
01000000
00000000
00000000
00100000
00000000
00000000
10000000
00000000
,
00000000
00001000
00000000
00000000
00000000
00000000
00000000
00010000
00000000
00000000
00000000
00000000
00000000
00000010
00000000
00000010
,
00000000
00000200
00000000
00000000
00000000
00000000
00000000
00000000
00000300
00000000
00000000
00000000
00000000
00000000
00000000
00000000
,
00001000
00000000
00000001
00000100
00000001
00000000
00000100
00000000
,
00000010
00001000
00010000
00000000
00001000
00010000
01000000
00000000
,
00100000
01000000
00100000
00000000
10000000
01000000
00100000
00001000
,
00010000
00000000
00000000
00000010
00000000
00000000
00000100
00000000
00000000
00000000
00000000
00000000
00000000
00000000
00000000
00000000
,
00000001
00001000
00000001
00000010
00000001
00000000
00000010
00000000
,
00000100
00000000
00001000
00000000
00010000
00000000
00000000
00000000
01000000
00000000
00000000
01000000
00000000
00000000
00000000
00000000
,
00100000
10000000
01000000
00000000
00100000
00010000
00001000
00000010
,
00000100
00000000
00000000
00000100
00000000
00000000
00000110
00000000
00000000
00000000
00000000
00000000
00000000
00000000
00000000
00000000
,
00000001
00000010
00000100
00000000
00001000
00010000
00100000
00000000
,
01000000
10000000
00100000
00000000
00100000
01000000
00100000
00000000
,
10000000
00100000
01000000
00000000
00001000
00010000
00000010
00000000
,
00000100
00000000
00000000
00000100
00000000
00000000
00000110
00000000
00000000
00000000
00000000
00000000
00000000
00000000
00000000
00000000
,
00000001
00000000
00000100
00000000
00000010
00010000
00001000
01000000
,
00000000
01000000
00000000
00000000
00000000
00000000
00000000
00000000
,
10010000
00000000
10000000
00000000
00001000
00010000
00001000
00000000
,
00010000
00000010
00000001
00000010
,
00010000
00000000
00001000
00000000
01000000
00100000
10000000
00000000
,
10010000
00000000
00000000
10010000
00000000
00000000
00000000
00000000
,
01100000
00000000
01000000
00000000
00001000
00010000
00001000
00000000
,
00010000
00000100
00000010
00000000
00000100
00000010
00000001
00000000
,
00001001
00000000
00001000
00000000
00000100
00010000
00001000
00000000
,
01100000
00000000
00000000
01100000
00000000
00000000
00000000
00000000
,
00000000
10000000
00000000
00000000
00010000
00000000
00000000
01000000
,
00000000
00000000
02200000
00000000
00000000
00000000
00000000
03300000
,
00000000
01001000
00000000
00000000
00011000
00000000
00000000
00010010
,
00000000
00002002
00000000
00000000
,
00000000
00000000
00000000
00000000
00000000
00000000
00000000
00003003
;

//---------------dance-double - ----------------
#NOTES:
     dance-double:
     :
     Hard:
     11:
     0.446,0.433,0.271,0.172,0.249:
00000000
00000000
00000000
00000000
,
00000000
00000000
00000000
00000000
,
00000000
00000000
00000000
00000000
,
00000000
00000000
00000000
00000000
,
20020000
00000000
00000000
30030000
,
00010000
00000000
00000000
00000000
10000000
01000000
00000000
00000000
00100000
00000000
00000000
00001000
00000000
00000000
00010000
00000000
,
00000000
00000000
00000001
00000000
00000000
00000010
00000000
00000000
00000100
00000000
00000000
00001000
00000000
00000000
00000010
00000000
,
00001000
00000000
00000000
00000000
00000001
00000100
00000000
00000000
00000010
00000000
00000000
00010000
00000000
00000000
00001000
00000000
,
01000000
00000000
00000000
00100000
00000000
00000000
01100000
00000000
00000000
00000000
00000000
00000000
00000000
00000000
00000000
00000000
,
10000000
00000000
00000000
00000000
00010000
00100000
00000000
00000000
00001000
00000000
00000000
00010000
00000000
00000000
00000010
00000000
,
00000000
00000000
00001000
00000000
00000000
00000001
00000000
00000000
00000010
00000000
00000000
00000001
00000000
00000000
00001000
00000000
,
00000010
00000000
00000000
00000000
00000100
00000001
00000000
00000000
00010000
00000000
00000000
00001000
00000000
00000000
00100000
00000000
,
01000000
00000000
00000000
10000000
00000000
00000000
10010000
00000000
00000000
00000000
00000000
00000000
00000000
00000000
00000000
00000000
,
00000000
00000000
10000000
00000000
00000000
10010000
00000000
00000000
00010000
00000000
00000000
00110000
00000000
00000000
00100100
00000000
,
00000000
00000000
00000000
00002002
00000000
00000000
00000000
00000000
00000000
00000000
00000000
00000000
00003003
00000000
00000000
00000000
,
00000100
00000001
00000010
00000000
00000100
00001000
00000010
00000000
,
00001000
00010000
00100000
00000000
01000000
10000000
00100000
00000000
,
01000000
00010000
00100000
01000000
00100000
00010000
01000000
00000000
,
00001000
00010000
00001000
00000000
00010000
00001000
00100000
00000000
,
01000000
10000000
00100000
00000000
01000000
00010000
00100000
00000000
,
00010000
00001000
00000100
00000000
00000010
00000001
00001000
00000000
,
00000100
00001000
00000010
00010000
00001000
00010000
00000010
00000000
,
00010000
00001000
00100000
01000000
00100000
00001000
00010000
00000000
,
00000001
00000000
00000000
00001001
00000000
00000000
00001010
00000000
00000000
00000000
00000000
00000000
00000100
00000000
00000010
00000000
,
00000100
00001000
00010000
00000000
00001000
00010000
00100000
00000000
,
00010000
00000000
00000000
10010000
00000000
00000000
10100000
00000000
00000000
00000000
00000000
00000000
00100000
00000000
01000000
00000000
,
00100000
10000000
01000000
00000000
00100000
00010000
00001000
00000000
,
00000100
00000000
00000000
00000110
00000000
00000000
00000101
00000000
00000000
00000000
00000000
00000000
00000010
00000000
00000100
00000000
,
00000010
00001000
00010000
00001000
00010000
01000000
00100000
00000000
,
01000000
00000000
00000000
01000000
00000000
00000000
01000000
00000000
00010000
00000000
00000000
00010000
00000000
00000000
00010000
00000000
,
00001000
00000000
00000000
00000010
00000000
00000000
00000100
00000000
00000001
00000000
00000000
00010000
00000000
00000000
00001000
00000000
,
00000000
01001000
00000000
00000000
01000000
00000000
00000000
01100000
00000000
00000000
00100000
00000000
00000000
10000000
00000000
10000000
,
00000000
00010000
00000000
00000000
00110000
00000000
00000000
02200000
00000000
00000000
00000000
00000000
00000000
00000000
03300000
00000000
,
00100000
01000000
00001000
00010000
00001000
00000000
00010000
00000000
,
00000100
00000010
00000001
00000010
00000100
00000000
00001000
00000000
,
00010000
00010000
01000000
00100000
01000000
00001000
00010000
00000000
,
00011000
00000000
00000000
00001010
00000000
00000000
00000202
00000000
00000000
00000000
00000000
00000000
00000303
00000000
00000000
00000000
,
00000001
00000100
00000001
00001000
00010000
00000000
00100000
00000000
,
10000000
00100000
01000000
00001000
00010000
00000000
00000010
00000000
,
00000100
00000100
00000001
00000010
00000100
00001000
00010000
01000000
,
00100000
00000000
00000000
10100000
00000000
00000000
02200000
00000000
00000000
00000000
00000000
00000000
03300000
00000000
00000000
00000000
,
10000000
00100000
00010000
00100000
10000000
01000000
00100000
00001000
,
00010000
00000010
00000100
00000000
00000001
00001000
00000100
00000000
,
00001000
00000001
00000010
00000001
00000100
00000010
00010000
00001000
,
01000000
00000000
00000000
01100000
00000000
00000000
22000000
00000000
00000000
00000000
00000000
00000000
33000000
00000000
00000000
00000000
,
10000000
00000000
00100000
00000000
01000000
00010000
00000000
01000000
00000000
00001000
00000000
00010000
00000000
00000000
00000010
00000000
,
00000000
00000110
00000000
00000000
00000000
00000000
00000000
00000000
,
00000001
00000000
00000000
00000000
00000010
00000100
00000000
00000000
00001000
00000000
00000000
00010000
00000000
00000000
00100000
00000000
,
10000000
00010000
00100000
00000000
01000000
10000000
00100000
10000000
,
00010000
00000000
00000000
00000000
10000000
01000000
00000000
00000000
00010000
00000000
00000000
00001000
00000000
00000000
00000100
00000010
,
00000100
00000000
00000000
00000010
00000000
00000000
00000220
00000000
00000000
00000000
00000000
00000000
00000330
00000000
00000000
00000000
,
00000100
00000001
00000010
00000100
00001000
00000001
00000010
00000000
,
00000100
00001000
00010000
00001000
00010000
01000000
00100000
00000000
,
10000000
00010000
00100000
01000000
10000000
00000000
00001000
00010000
,
00000010
00000000
00000000
00000100
00000000
00000000
00000220
00000000
00000000
00000000
00000000
00000000
00000000
00000000
00000330
00000000
,
00000000
00000000
00000100
00000000
00000000
00000101
00000000
00000000
00000001
00000000
00000000
00010001
00000000
00000000
00000000
00000000
,
00000000
00000000
00000000
00022000
00000000
00000000
00000000
00000000
00000000
00000000
00000000
00000000
00000000
00000000
00033000
00000000
,
00000000
00000000
00100000
01000000
00000000
01000000
00000000
00000000
10000000
00001000
00000000
00001000
00000000
00000000
00010000
00001000
,
00000000
00001000
00000000
00001000
00000000
00010000
00000020
00000000
00000000
00000000
00000000
00000000
00000000
00000000
00000000
00000000
,
00000000
00000000
00000000
00000000
00000000
00000000
00000000
00000030
;

//---------------dance-single - ----------------
#NOTES:
     dance-single:
     :
     Challenge:
     13:
     0.554,0.622,0.380,0.127,0.493: // measure 1
0000
0000
0000
0000
,  // measure 2
0000
0000
0000
0000
,  // measure 3
0000
0000
0000
0000
,  // measure 4
0000
0000
0000
0000
,  // measure 5
1000
0001
1000
0001
1000
0001
1000
0000
0001
1000
0000
1001
0000
0000
0000
0000
,  // measure 6
1001
0000
0000
0000
0001
0100
0000
0000
0001
0000
0000
0001
1000
0000
0100
0000
,  // measure 7
0000
0000
1001
0000
0000
0001
0000
0000
0101
0000
0000
0100
0000
0000
0000
0000
,  // measure 8
1001
0000
0000
0000
1000
0000
0000
0000
0010
0000
0000
0010
0100
0000
0001
0000
,  // measure 9
1001
0000
0000
0110
0000
0000
1002
0000
0000
0000
1000
0000
1003
0000
0000
0000
,  // measure 10
1001
0000
0000
0000
0100
1000
0000
0000
0001
0000
0000
0001
1000
0000
0100
0000
,  // measure 11
0000
0000
1100
0000
0000
1000
0000
0000
1001
0000
0000
0001
0000
0000
0101
0000
,  // measure 12
0100
0000
0000
0000
0010
0000
0000
0000
0100
0000
0000
0001
1000
0000
0100
0000
,  // measure 13
0010
0000
0001
0100
0000
0001
0100
0000
0000
0010
0100
0010
0100
0010
0100
0010
,  // measure 14
0000
0000
1000
0100
0000
0100
0010
0000
0010
0001
0000
0001
0100
0000
0100
0010
,  // measure 15
0000
0000
0000
0220
0000
0000
0000
0000
0000
0000
0000
0000
0330
0000
0000
0000
,  // measure 16
0010
0001
0010
0000
0100
0010
0100
0000
,  // measure 17
1000
0000
0001
0000
0000
0100
0000
0000
0010
0000
0000
0100
0000
0000
0001
0000
,  // measure 18
1000
0010
1000
0000
0100
0010
0100
0000
,  // measure 19
1000
0000
0001
0000
0000
0010
0000
0000
0100
0000
0000
0010
0000
0000
0001
0000
,  // measure 20
0100
0010
0100
0000
0001
1000
0001
0000
,  // measure 21
0010
0000
0100
0000
0000
1000
0000
0000
0010
0000
0000
1000
0000
0000
0100
0000
,  // measure 22
0010
0001
0010
0000
0100
0010
0100
0000
,  // measure 23
1000
0000
0001
0000
0000
0100
0000
0000
0001
1000
0000
0001
1000
0001
0000
0000
,  // measure 24
1001
0000
0000
1000
0000
0000
1100
0000
0000
0000
1000
0001
1000
0000
0100
0000
,  // measure 25
0010
0100
1000
0001
0100
0001
0010
0000
,  // measure 26
0011
0000
0000
0001
0000
0000
1001
0000
0000
0000
1000
0010
1000
0000
0001
0000
,  // measure 27
0010
0100
0010
0001
0100
0010
1000
0000
,  // measure 28
1100
0000
0000
0100
0000
0000
0110
0000
0000
0000
0001
0100
0001
0000
1000
0000
,  // measure 29
0100
0010
0100
1000
0010
0100
0001
0000
,  // measure 30
0101
0000
0000
0100
0000
0000
0100
0000
0010
0000
0000
0010
0000
0000
0010
0000
,  // measure 31
1000
0000
0000
1000
0000
0000
0010
0000
0100
0000
0000
0001
0000
0000
1000
0000
,  // measure 32
0000
0010
0100
0000
0100
0001
0000
0001
1000
0000
1000
0100
0000
1000
0000
1001
,  // measure 33
0000
0001
0100
0000
0100
0010
0000
0220
0000
0000
0000
0000
0000
0000
0330
0000
,  // measure 34
0100
0000
1000
0000
0001
0000
0100
0000
0001
0000
0000
1000
0000
0000
1100
0000
,  // measure 35
0000
0000
0100
0000
0010
0000
0100
0000
1000
0000
0000
1000
0000
0000
0001
0000
,  // measure 36
0010
1000
0010
0001
0100
1000
0100
0001
,  // measure 37
1001
0000
0000
0100
0000
0000
0120
0000
0000
0000
0100
0000
0130
0000
0000
0000
,  // measure 38
0001
0000
0100
0000
0010
0000
0100
0000
0001
0000
0000
1000
0000
0000
1100
0000
,  // measure 39
0000
0000
1000
0000
0001
0000
0100
0000
0010
0000
0000
1010
0000
0000
0010
0000
,  // measure 40
0100
0010
0001
0100
0010
1000
0100
0010
,  // measure 41
0011
0000
0000
0001
0000
0000
1001
0000
0000
1000
0001
1000
0001
1000
0001
1000
,  // measure 42
0001
0010
0100
0010
0001
1000
0100
1000
,  // measure 43
0001
0000
0100
0000
0000
0101
0000
0000
0100
0000
0000
0110
0000
0000
0010
0000
,  // measure 44
1000
0100
0010
0100
1000
0001
0100
0010
,  // measure 45
0110
0000
0000
1010
0000
0000
0210
0000
0000
0000
0010
0000
0310
0000
0000
0000
,  // measure 46
1000
0000
0001
0000
0100
0001
0000
0010
0000
0100
0000
1000
0000
0000
1010
0000
,  // measure 47
0000
2020
0000
0000
0000
0000
3030
0000
,  // measure 48
0110
0000
0000
0000
0100
0001
0000
0000
1000
0000
0000
1000
0001
0000
0010
0000
,  // measure 49
0000
0000
0001
0000
0100
0010
0000
0000
0100
0000
0001
0100
0000
0000
0001
0000
,  // measure 50
1000
0000
0100
0000
0010
0001
0000
1000
0001
0000
1000
0000
0100
0000
0010
0000
,  // measure 51
0011
0000
0000
0010
0000
0000
1002
0000
0000
0000
1000
0000
1003
0000
0000
0000
,  // measure 52
0010
0000
1000
0100
1000
0100
0010
0001
0010
0000
0000
0001
1000
0000
0100
0000
,  // measure 53
1000
0000
1000
0000
0001
0100
0000
0010
0000
0100
0001
0000
1000
0000
0100
0000
,  // measure 54
0010
0000
0000
0001
0000
0000
0200
0000
0000
0000
0000
0000
0301
0000
0100
0010
,  // measure 55
0100
0000
0000
0110
0000
0000
1001
0000
0000
1000
0001
1000
0001
1000
0001
1000
,  // measure 56
0000
0000
0001
0100
0000
0100
0010
0000
0010
1000
0000
1000
0001
0000
1000
0001
,  // measure 57
1000
0000
0000
2002
0000
0000
0000
0000
0000
0000
0000
0000
0000
0000
3003
0000
,  // measure 58
0000
0000
0001
0100
0000
0100
0000
0000
0001
1000
0000
1000
0000
0000
0100
0010
,  // measure 59
0000
0010
0000
0010
0000
0001
0200
0000
0000
0000
0000
0000
0000
0000
0000
0000
,  // measure 60
0000
0000
0000
0000
0000
0000
0000
0300
;

//---------------dance-double - ----------------
#NOTES:
     dance-double:
     :
     Challenge:
     13:
     0.551,0.622,0.353,0.127,0.493:
00000000
00000000
00000000
00000000
,
00000000
00000000
00000000
00000000
,
00000000
00000000
00000000
00000000
,
00000000
00000000
00000000
00000000
,
10000000
00010000
10000000
00010000
10000000
00010000
10000000
00000000
00010000
10000000
00000000
10010000
00000000
00000000
00000000
00000000
,
01100000
00000000
00000000
00000000
00100000
01000000
00000000
00000000
00010000
00000000
00000000
00010000
00001000
00000000
00000010
00000000
,
00000000
00000000
00000110
00000000
00000000
00000100
00000000
00000000
00001001
00000000
00000000
00000001
00000000
00000000
00000000
00000000
,
00011000
00000000
00000000
00000000
00001000
00000000
00000000
00000000
00100000
00000000
00000000
00100000
01000000
00000000
10000000
00000000
,
00100000
00000000
01000000
00010000
00000000
00000000
20010000
00000000
00000000
00000000
00010000
00000000
30010000
00000000
00000000
00000000
,
10000000
00000000
00000000
00000000
00100000
01000000
00000000
00000000
00001000
00000000
00000000
00001000
00010000
00000000
00000010
00000000
,
00000000
00000000
00000110
00000000
00000000
00000100
00000000
00000000
00000101
00000000
00000000
00000101
00000000
00000000
00010001
00000000
,
00010000
00000000
00000000
00000000
00001000
00000000
00000000
00000000
00100000
00000000
00000000
00100000
01000000
00000000
10000000
00000000
,
00010000
00000000
01000000
00010000
00000000
01000000
00010000
00000000
00000000
10000000
00010000
10000000
00010000
10000000
00010000
10000000
,
00000000
00000000
00100000
01000000
00000000
01000000
00001000
00000000
00001000
00010000
00000000
00010000
00000010
00000000
00000010
00000100
,
00000000
00000000
00000000
00000220
00000000
00000000
00000000
00000000
00000000
00000000
00000000
00000000
00000330
00000000
00000000
00000000
,
00000100
00000010
00000100
00000000
00000001
00000010
00000001
00000000
,
00000100
00000000
00000010
00000000
00000000
00001000
00000000
00000000
00010000
00000000
00000000
01000000
00000000
00000000
00100000
00000000
,
10000000
00010000
10000000
00000000
01000000
00100000
01000000
00000000
,
10000000
00000000
00010000
00000000
00000000
01000000
00000000
00000000
00001000
00000000
00000000
00010000
00000000
00000000
00000100
00000000
,
00000010
00000001
00000010
00000000
00000001
00001000
00000001
00000000
,
00000100
00000000
00000010
00000000
00000000
00010000
00000000
00000000
00001000
00000000
00000000
01000000
00000000
00000000
00100000
00000000
,
10000000
01000000
10000000
00000000
01000000
00100000
01000000
00000000
,
10000000
00000000
00010000
00000000
00000000
01000000
00000000
00000000
00001000
00010000
00000000
00001000
00010000
00001000
00000000
00000000
,
00010100
00000000
00000000
00000100
00000000
00000000
00000110
00000000
00000000
00000000
00000001
00000010
00000001
00000000
00000100
00000000
,
00000010
00001000
00010000
01000000
00100000
10000000
01000000
00000000
,
10010000
00000000
00000000
10000000
00000000
00000000
10100000
00000000
00000000
00000000
01000000
00100000
01000000
00000000
00001000
00000000
,
00100000
01000000
00100000
00001000
00010000
00000010
00000100
00000000
,
00000110
00000000
00000000
00000010
00000000
00000000
00001010
00000000
00000000
00000000
00000100
00000010
00000100
00000000
00000001
00000000
,
00001000
00000100
00001000
00000001
00010000
00001000
00100000
00000000
,
01100000
00000000
00000000
00100000
00000000
00000000
00100000
00000000
10000000
00000000
00000000
10000000
00000000
00000000
10000000
00000000
,
00100000
00000000
00000000
01000000
00000000
00000000
00001000
00000000
00010000
00000000
00000000
00000100
00000000
00000000
00000010
00000000
,
00000000
00010000
00100000
00000000
00100000
00001000
00000000
00001000
01000000
00000000
01000000
00100000
00000000
01000000
00000000
01001000
,
00000000
00010000
01000000
00000000
01000000
00100000
00000000
02200000
00000000
00000000
00000000
00000000
00000000
00000000
03300000
00000000
,
01000000
00000000
10000000
00000000
00010000
00000000
01000000
00000000
00010000
00000000
00000000
10000000
00000000
00000000
11000000
00000000
,
00000000
00000000
00100000
00000000
00010000
00000000
00001000
00000000
00000010
00000000
00000000
00000010
00000000
00000000
00001000
00000000
,
00000100
00000001
00000100
00001000
00000010
00010000
00001000
01000000
,
01100000
00000000
00000000
00100000
00000000
00000000
20010000
00000000
00000000
00000000
00010000
00000000
30010000
00000000
00000000
00000000
,
10000000
00000000
00100000
00000000
00010000
00000000
00100000
00000000
10000000
00000000
00000000
01000000
00000000
00000000
11000000
00000000
,
00000000
00000000
00100000
00000000
01000000
00000000
00001000
00000000
00010000
00000000
00000000
00011000
00000000
00000000
00010000
00000000
,
00000100
00000010
00000100
00010000
00000010
00000100
00000001
00010000
,
00011000
00000000
00000000
00001000
00000000
00000000
01001000
00000000
00000000
01000000
00100000
01000000
00100000
01000000
00100000
01000000
,
00100000
10000000
01000000
10000000
00010000
00100000
10000000
00100000
,
00001000
00000000
00010000
00000000
00000000
00010100
00000000
00000000
00000100
00000000
00000000
00000110
00000000
00000000
00000010
00000000
,
00000001
00000100
00001000
00000100
00000001
00001000
00010000
01000000
,
01100000
00000000
00000000
00100000
00000000
00000000
10020000
00000000
00000000
00000000
10000000
00000000
10030000
00000000
00000000
00000000
,
00010000
00000000
10000000
00000000
00010000
01000000
00000000
00001000
00000000
00010000
00000000
00000100
00000000
00000000
00000110
00000000
,
00000000
00000220
00000000
00000000
00000000
00000000
00000330
00000000
,
00000110
00000000
00000000
00000000
00000100
00000010
00000000
00000000
00010000
00000000
00000000
00010000
00001000
00000000
00100000
00000000
,
00000000
00000000
01000000
00000000
10000000
00100000
00000000
00000000
10000000
00000000
00001000
00100000
00000000
00000000
00001000
00000000
,
00010000
00000000
00000100
00000000
00000010
00000001
00000000
00001000
00000001
00000000
00000010
00000000
00000100
00000000
00010000
00000000
,
00011000
00000000
00000000
00001000
00000000
00000000
20001000
00000000
00000000
00000000
00001000
00000000
30001000
00000000
00000000
00000000
,
10000000
00000000
01000000
10000000
01000000
10000000
00100000
01000000
00100000
00000000
00000000
10000000
00010000
00000000
00100000
00000000
,
00001000
00000000
00001000
00000000
00010000
00000100
00000000
00000010
00000000
00000100
00010000
00000000
00000001
00000000
00001000
00000000
,
00000100
00000000
00000000
00010000
00000000
00000000
00002000
00000000
00000000
00000000
00000000
00000000
01003000
00000000
00100000
01000000
,
00100000
00000000
00000000
01100000
00000000
00000000
10010000
00000000
00000000
00010000
10000000
00010000
10000000
00010000
10000000
00010000
,
00000000
00000000
01000000
00001000
00000000
00001000
00010000
00000000
00010000
00000100
00000000
00000100
00000010
00000000
00000001
00000100
,
00000001
00000000
00000000
00002002
00000000
00000000
00000000
00000000
00000000
00000000
00000000
00000000
00000000
00000000
00003003
00000000
,
00000000
00000000
00000010
00000001
00000000
00000001
00000000
00000000
00010000
00000100
00000000
00000100
00000000
00000000
00010000
00001000
,
00000000
00001000
00000000
00001000
00000000
00100000
02000000
00000000
00000000
00000000
00000000
00000000
00000000
00000000
00000000
00000000
,
00000000
00000000
00000000
00000000
00000000
00000000
00000000
03000000
;
