#TITLE:Ignition∞Break;
#SUBTITLE:;
#ARTIST:NAOKI;
#TITLETRANSLIT:Ignition Break;
#SUBTITLETRANSLIT:;
#ARTISTTRANSLIT:;
#CREDIT:DigiMindAxel;
#BANNER:Ignition Break.png;
#BACKGROUND:Ignition Break-bg.png;
#LYRICSPATH:;
#CDTITLE:REFLEC BEAT.png;
#MUSIC:Ignition Break.ogg;
#METERTYPE:DDR X;
#OFFSET:-8.120;
#SAMPLESTART:42.165;
#SAMPLELENGTH:12.000;
#SELECTABLE:YES;
#BPMS:0.000=155.100;
#STOPS:;
#BGCHANGES:;

//---------------dance-single - ----------------
#NOTES:
     dance-single:
     :
     Easy:
     3:
     0.175,0.204,0.018,0.220,0.000:
2000
0000
0000
0000
,
3200
0000
0000
0000
,
0320
0000
0000
0000
,
0032
0000
0000
0000
,
0003
0000
0000
0000
,
1000
0000
1000
0000
,
0100
0000
0100
0000
,
1000
0000
1000
0000
,
0010
0000
0010
0000
,
0100
0000
0100
0000
,
0001
0000
0001
0000
,
1000
0000
0001
0000
,
1000
0000
0001
0000
,
0020
0000
0000
0000
,
0000
0000
0000
0030
,
0002
0000
0000
0000
,
0000
0000
0000
0003
,
2000
0000
0000
0000
,
0000
0000
0000
3000
,
0200
0000
0000
0000
,
0000
0000
0000
0300
,
1001
0000
0000
0000
,
0110
0000
0010
0000
,
0010
0000
0010
0000
,
1000
0000
1000
0000
,
1000
0000
1000
0000
,
0001
0000
0001
0000
,
0001
0000
0001
0000
,
0010
0000
0100
0000
,
0010
0000
0100
0000
,
2000
0000
0000
0000
,
3020
0000
0000
0000
,
0230
0000
0000
0000
,
0302
0000
0000
0000
,
0203
0000
0000
0000
,
0320
0000
0000
0000
,
2030
0000
0000
0000
,
3002
0000
0000
0000
,
1003
0000
0100
0000
,
1000
0000
0100
0000
,
0010
0000
0001
0000
,
0010
0000
0001
0000
,
1000
0000
0010
0000
,
1000
0000
0010
0000
,
0100
0000
0001
0000
,
0100
0000
0001
0000
,
2000
0000
3100
0000
,
0020
0000
0031
0000
,
2000
0000
3010
0000
,
0200
0000
0000
0000
,
0302
0000
0103
0000
,
0020
0000
1030
0000
,
0002
0000
0013
0000
,
0200
0000
0000
0000
,
1300
0000
0000
0000
,
0001
1000
0001
0000
,
0010
0001
0010
0000
,
0100
0010
0100
0000
,
1000
0001
1000
0000
,
0100
1000
0100
0000
,
0010
0100
0010
0000
,
0001
1000
0001
0000
,
0010
0001
0010
0000
,
0001
1000
0001
0000
,
0100
0001
0100
0001
,
2000
0000
0000
0000
,
3000
0000
0000
0000
;

//---------------dance-single - ----------------
#NOTES:
     dance-single:
     :
     Medium:
     8:
     0.351,0.407,0.115,0.300,0.000:
1000
0000
1000
0000
,
0010
0000
0010
0000
,
0100
0000
0100
0000
,
0001
0000
0001
0000
,
2000
0000
0000
0000
,
3001
0000
1000
0100
1000
0000
0001
0000
,
1000
0010
1000
0001
,
0010
0000
0100
0010
0100
0000
1000
0000
,
0100
0000
0010
0100
0010
0000
0001
0000
,
1000
0000
0001
0100
0001
0000
1000
0000
,
0001
1000
0100
1000
,
0001
0000
0010
0001
0010
0000
0001
0000
,
1000
0000
0010
1000
0010
0000
1000
0000
,
0020
0200
0000
0000
,
0000
0000
0000
0330
,
0002
2000
0000
0000
,
0000
0000
0000
3003
,
0200
2000
0000
0000
,
0000
0000
0000
3300
,
0020
0200
0000
0000
,
0000
0000
0000
0330
,
2002
0000
0000
3003
,
0001
0101
0001
0101
,
0010
0100
0010
0000
1000
0100
1000
0000
,
0010
0110
0010
0110
,
0100
0001
0100
0000
0001
1000
0001
0000
,
0010
0011
0010
0011
,
0001
1000
0001
0000
1000
0100
1000
0000
,
0110
0100
1001
0100
,
0110
0010
0100
0010
,
1000
0200
0000
0000
0000
0000
0300
0000
,
0010
0002
0000
0000
0000
0000
0003
0000
,
1000
0020
0000
0000
0000
0000
0030
0000
,
0100
0002
0000
0000
0000
0000
0003
0000
,
0010
0200
0000
0000
0000
0000
0300
0000
,
0010
0002
0000
0000
0000
0000
0003
0000
,
1000
0020
0000
0000
0000
0000
0030
0000
,
0100
0002
0000
0000
0000
0000
0003
0000
,
1000
0001
1000
0000
0100
0000
0010
0000
,
0001
0010
0100
0010
,
0001
1000
0100
0000
1000
0100
1000
0000
,
0100
1000
0001
0000
0100
0001
0100
0000
,
0001
1000
0001
0000
0100
0000
0010
0000
,
1000
0010
0100
0010
,
1000
0001
0010
0000
0001
0010
0001
0000
,
0010
0001
1000
0000
0010
1000
0010
0000
,
1002
1000
0100
0103
,
0020
0100
0230
0000
,
0302
1000
1000
1003
,
0200
0000
2300
0000
,
3020
0100
0100
0130
,
0002
1000
2003
0000
,
3200
0010
0010
0310
,
0002
0000
2003
0000
,
0002
0000
0000
3003
,
0001
0010
0001
0000
0100
0010
0100
0000
,
0001
0010
0100
1000
,
0010
0100
0010
0000
1000
0010
1000
0000
,
0001
0100
0010
1000
,
0100
1000
0010
0000
0100
0000
0010
0000
,
1000
0001
0010
0000
0001
0010
0001
0000
,
1000
0001
0100
0000
0001
0100
0001
0000
,
0010
0000
0100
0000
1000
0000
0010
0100
,
0001
0000
0010
0000
0100
0000
1000
0010
,
0100
0000
0001
1000
0100
0000
1100
0000
,
2002
0000
0000
0000
,
3003
0000
0000
0000
;

//---------------dance-single - ----------------
#NOTES:
     dance-single:
     :
     Hard:
     12:
     0.520,0.524,0.150,0.167,0.388: // measure 1
1001
0010
0100
1000
,  // measure 2
0001
0010
0100
1000
,  // measure 3
0010
0100
0001
1000
,  // measure 4
0100
0010
0100
1000
,  // measure 5
0020
0000
0000
0000
0000
0130
0000
0000
,  // measure 6
0110
0100
0010
0001
0000
1000
0100
0020
,  // measure 7
0001
0001
0100
0130
,  // measure 8
0001
0000
1000
0000
0000
0100
0000
0001
0000
0000
0100
0000
0000
1000
0000
0001
,  // measure 9
0000
0000
0100
0000
0000
1000
0000
0010
0000
0000
0100
0000
0000
0001
0000
0000
,  // measure 10
1000
0001
0010
0100
0000
0010
0100
2000
,  // measure 11
0001
0001
0100
3100
,  // measure 12
1000
0000
0001
0000
0000
0010
0000
0100
0000
0000
1000
0000
0000
0001
0000
0100
,  // measure 13
0000
0000
0001
0000
0000
1000
0000
0100
0000
0000
1000
0000
0000
0001
0000
0000
,  // measure 14
1000
0100
1000
0001
1000
0100
1000
0000
,  // measure 15
0001
0100
0001
1000
0001
0100
0001
0000
,  // measure 16
0010
0100
0010
0001
1000
0001
0010
0000
,  // measure 17
0100
1000
0001
1000
0001
1000
0010
0000
,  // measure 18
0100
0001
1000
0001
0010
0100
0010
0000
,  // measure 19
0001
1000
0100
1000
0010
0100
0010
0000
,  // measure 20
1000
0100
1000
0001
1000
0100
0010
0000
,  // measure 21
0100
1000
0010
0100
0010
1000
0001
0100
,  // measure 22
0220
0000
0000
0330
,  // measure 23
1000
0000
0000
0010
0000
0000
0100
0000
0000
0001
0000
0000
1000
0000
0100
0000
,  // measure 24
0010
0000
0000
0100
0000
0000
1000
0000
0000
0010
0000
0000
0100
0000
0001
0000
,  // measure 25
0010
0000
0000
0100
0000
0000
0010
0000
0000
0001
0000
0000
1000
0000
0001
0000
,  // measure 26
0010
0000
0000
0100
0000
0000
1000
0000
0000
0001
0000
0000
0010
0000
0001
0000
,  // measure 27
1001
0000
0000
1000
0000
0000
0010
0000
0000
0100
0000
0000
0001
0000
1000
0000
,  // measure 28
0100
0000
0000
0010
0000
0000
0100
0000
0000
1000
0000
0000
0001
0000
1000
0000
,  // measure 29
1010
0000
0100
0010
0110
0000
0100
0001
,  // measure 30
0101
0000
0000
0100
0000
0000
0010
0000
0000
1000
0000
0000
0010
0000
0100
0000
,  // measure 31
0102
0000
0000
0000
0000
0000
1000
0000
0000
1000
0000
0000
1003
0000
0000
0000
,  // measure 32
2100
0000
0000
0000
0000
0000
0010
0000
0000
0010
0000
0000
3010
0000
0000
0000
,  // measure 33
0120
0000
0000
0000
0000
0000
1000
0000
0000
1000
0000
0000
1030
0000
0000
0000
,  // measure 34
0102
0000
0000
0000
0000
0000
1000
0000
0000
1000
0000
0000
1003
0000
0000
0000
,  // measure 35
0012
0000
0000
0000
0000
0000
0100
0000
0000
0100
0000
0000
0103
0000
0000
0000
,  // measure 36
0210
0000
0000
0000
0000
0000
0001
0000
0000
0001
0000
0000
0301
0000
0000
0000
,  // measure 37
2001
0000
0000
0000
0000
0000
0010
0000
0000
0010
0000
0000
3010
0000
0000
0000
,  // measure 38
0120
0000
0000
0000
0000
0000
1000
0000
0000
1000
0000
0000
1030
0000
0000
0000
,  // measure 39
0001
0000
1000
0001
0000
0001
0000
0100
0001
0000
1000
0000
0100
0000
0000
0000
,  // measure 40
0010
0100
1000
0000
0001
0010
0100
0000
,  // measure 41
1000
0000
0001
0000
0000
1000
0000
0010
0000
0000
0100
0000
0000
0001
0000
1000
,  // measure 42
0000
0000
0001
0000
0000
0010
0000
0001
0000
0000
1000
0000
0000
0010
0000
0000
,  // measure 43
1000
0000
0001
1000
0000
1000
0000
0010
1000
0000
0010
0000
0100
0000
0000
0000
,  // measure 44
0001
1000
0100
0000
0010
0001
0100
0000
,  // measure 45
0001
0000
1000
0000
0000
0010
0000
0100
0000
0000
0010
0000
0000
1000
0000
0100
,  // measure 46
0000
0000
1000
0000
0000
0001
0000
1000
0000
0000
0010
0000
0000
0100
0000
0000
,  // measure 47
0001
1000
0001
0000
1000
0000
0000
0100
0000
0000
0010
0000
0100
0000
1000
0000
,  // measure 48
0001
1000
0001
0000
0100
0000
0000
0020
0000
0000
0000
0000
1030
0000
0100
0000
,  // measure 49
0010
0001
0010
0000
0001
0000
0000
1000
0000
0000
0010
0000
0100
0000
0001
0000
,  // measure 50
1000
0100
1000
0000
0001
0010
0001
0000
,  // measure 51
1000
0001
1000
0000
0010
0000
0000
0100
0000
0000
0001
0000
0010
0000
0100
0000
,  // measure 52
0010
0001
0010
0000
0001
0000
0000
2000
0000
0000
0000
0000
3001
0000
1000
0000
,  // measure 53
0010
1000
0010
0000
0100
0000
0000
0001
0000
0000
1000
0000
0100
0000
0010
0000
,  // measure 54
0100
1000
0100
1000
0001
1000
0001
1000
,  // measure 55
2002
0000
0000
3003
,  // measure 56
1000
0000
0000
0100
0000
0000
0001
0000
0000
0100
0000
0000
1000
0000
0001
0000
,  // measure 57
0010
0000
0000
1000
0000
0000
0010
0000
0000
0001
0000
0000
1000
0000
0001
0000
,  // measure 58
0100
0000
0000
1000
0000
0000
0100
0000
0000
0001
0000
0000
1000
0000
0001
0000
,  // measure 59
0010
0000
0000
0010
0000
0000
0100
0000
0000
0100
0000
0000
0010
0000
0001
0000
,  // measure 60
1000
0000
0000
0010
0000
0000
0001
0000
0000
0010
0000
0000
1000
0000
0001
0000
,  // measure 61
0100
0000
0000
1000
0000
0000
0100
0000
0000
0001
0000
0000
1000
0000
0001
0000
,  // measure 62
0010
0000
0000
1000
0000
0000
0010
0000
0000
0001
0000
0000
1000
0000
0010
0000
,  // measure 63
0100
0000
0000
0100
0000
0000
0001
0000
0000
0001
0000
0000
1000
0000
0010
0000
,  // measure 64
0100
0000
0000
0100
0000
0000
0001
0000
0000
0001
0000
0000
1000
0000
0010
0000
,  // measure 65
0100
0000
0000
0100
0000
0000
0001
0000
1000
0001
0000
0000
0010
0000
0100
0000
,  // measure 66
2200
0000
0000
0000
,  // measure 67
3300
0000
0000
0000
;

//---------------dance-single - ----------------
#NOTES:
     dance-single:
     :
     Challenge:
     14:
     0.705,0.844,0.220,0.115,0.789: // measure 1
0001
0000
0000
1000
0000
0000
0100
0000
0000
0010
0000
0000
0100
0000
1000
0000
,  // measure 2
0001
0000
0000
0001
0000
0000
0100
0000
0000
0100
0000
0000
0010
0000
1000
0000
,  // measure 3
0001
0000
0000
0010
0000
0000
0100
0000
0000
0010
0000
0000
0001
0000
1000
0000
,  // measure 4
0010
0000
0000
0010
0000
0000
0100
0000
0000
0100
0000
0000
0001
0000
1000
0000
,  // measure 5
0200
0000
0000
0000
0000
1300
0000
0000
,  // measure 6
0001
0000
1000
0000
0010
0000
1000
0001
0000
0000
0010
0000
0001
0000
0100
0020
,  // measure 7
0000
0000
0000
1000
0000
0000
1030
0000
,  // measure 8
0001
0000
1000
0000
0000
0001
0000
0010
0000
0000
0001
0000
0000
1000
0000
0100
,  // measure 9
0000
0000
1000
0000
0000
0001
0000
0100
0000
0000
0001
0000
0000
1000
0000
0010
,  // measure 10
1000
0000
0001
0000
0010
0000
0100
0010
0000
0000
0001
0000
0100
0000
0010
0200
,  // measure 11
0000
0000
0000
0001
0000
0000
0301
0000
,  // measure 12
1000
0000
0001
0000
0000
1000
0000
0100
0000
0000
1000
0000
0000
0001
0000
0100
,  // measure 13
0000
0000
0001
0000
0000
1000
0000
0010
0000
0000
1000
0000
0000
0001
0000
0010
,  // measure 14
0001
1000
0001
1000
0100
0010
0100
0010
,  // measure 15
0001
0100
0001
0100
0001
1000
0001
1000
,  // measure 16
0010
0100
0010
0100
0001
0010
0001
0010
,  // measure 17
0100
0010
0100
0010
0001
0100
0001
0100
,  // measure 18
0010
1000
0010
1000
0100
0010
0100
0010
,  // measure 19
0001
1000
0001
1000
0010
1000
0010
1000
,  // measure 20
0100
0010
0001
1000
0100
0010
0100
1000
,  // measure 21
0001
1000
0001
1000
0001
1000
0001
1000
0001
1000
0001
1000
0001
1000
0001
1000
,  // measure 22
0002
0000
0000
0000
,  // measure 23
1003
0000
0001
0100
0000
0000
0001
0000
1000
0100
0000
0000
1000
0000
0100
0000
,  // measure 24
0010
0000
0000
0110
0000
0000
0010
0000
0000
0110
0000
0000
0010
0000
1000
0000
,  // measure 25
0100
0000
1000
0001
0000
0000
0010
0000
0100
0010
0000
0000
0001
0000
1000
0000
,  // measure 26
0010
0000
0000
1010
0000
0000
0010
0000
0000
1010
0000
0000
0010
0000
1000
0000
,  // measure 27
1001
0000
0001
0100
0000
0000
0001
0000
1000
0100
0000
0000
1000
0000
0001
0000
,  // measure 28
0010
0000
0000
0110
0000
0000
0010
0000
0000
0110
0000
0000
0010
0000
0100
0000
,  // measure 29
0101
0000
0010
1000
1100
0000
0010
0001
,  // measure 30
0011
0000
0000
1001
0000
0000
0010
0000
0000
1001
0000
0000
0010
0000
0001
0000
,  // measure 31
1000
0000
0100
1000
0200
0000
0010
0000
0000
0010
0000
0000
0310
0000
0000
0000
,  // measure 32
0001
0000
0010
0001
0020
0000
0100
0000
0000
0100
0000
0000
0130
0000
0000
0000
,  // measure 33
1000
0000
0001
0100
0002
0000
1000
0000
0000
1000
0000
0000
1003
0000
0000
0000
,  // measure 34
0010
0000
1000
0001
2000
0000
0100
0000
0000
0100
0000
0000
3100
0000
0000
0000
,  // measure 35
0010
0000
0001
0100
0001
0000
0010
0000
0001
1000
0000
0001
1000
0000
0000
0000
,  // measure 36
0100
0000
1000
0010
1000
0000
0100
0000
1000
0001
0000
1000
0001
0000
0000
0000
,  // measure 37
0100
0000
0001
0010
0001
0000
0100
0000
0001
1000
0000
0001
1000
0000
0000
0000
,  // measure 38
0010
0000
1000
0100
1000
0000
0010
0000
1000
0001
0000
1000
0001
0000
0000
0000
,  // measure 39
1000
0000
0001
0010
0000
0001
0000
0100
0010
0000
0100
0010
0000
0100
0010
0000
,  // measure 40
1000
0001
1000
0001
0000
1000
0000
0001
0100
0000
0001
0100
0000
0001
0100
0000
,  // measure 41
0001
1000
0001
1000
0000
0001
0000
0100
0001
0000
1000
0000
0000
0010
0000
1000
,  // measure 42
0001
0000
0010
0000
0000
0001
0000
1000
0100
0000
1000
0000
0000
0010
0000
0100
,  // measure 43
0010
0000
1000
0010
0000
1000
0000
0010
1000
0000
0001
0010
0000
0001
0010
0000
,  // measure 44
0001
1000
0001
1000
0000
0001
1000
0000
0001
0000
0100
0001
0000
0100
0001
0000
,  // measure 45
1000
0010
1000
0010
0000
0100
0000
0010
1000
0000
0100
0000
0000
1000
0000
0001
,  // measure 46
0010
0000
0001
0000
0000
1000
0000
0010
0100
0000
0010
0000
0000
1000
0000
0001
,  // measure 47
1000
0100
1000
0100
1000
0000
0001
0010
0000
0001
0010
0000
0001
1000
0001
0000
,  // measure 48
1000
0010
1000
0010
1000
0000
0001
0200
0000
0000
0000
0000
0301
1000
0001
0000
,  // measure 49
0100
0001
0100
0001
0100
0000
0001
1000
0000
0001
1000
0000
0100
0010
0100
0000
,  // measure 50
1000
0010
0100
0001
1000
0010
0100
0001
,  // measure 51
1000
0001
1000
0001
1000
0000
0010
0100
0000
0010
0100
0000
0001
0010
0100
0000
,  // measure 52
0010
0001
0010
0001
0010
0000
0001
2000
0000
0000
0000
0000
3010
0100
0010
0000
,  // measure 53
0100
0001
0100
0001
0100
0000
0001
1000
0000
0001
1000
0000
0100
0010
0001
0000
,  // measure 54
0100
0010
0100
0010
0100
0010
0100
0010
0100
0010
0100
0010
0100
0010
0100
0010
,  // measure 55
0200
0000
0000
0300
,  // measure 56
0101
0000
0010
0100
0000
0010
0100
0000
1000
0010
0000
1000
0001
0000
0010
0000
,  // measure 57
0100
0000
1000
0001
0000
1000
0001
0000
0010
0001
0000
0100
0010
0000
1000
0000
,  // measure 58
0100
0000
0010
0100
0000
0010
0100
0000
1000
0010
0000
1000
0001
0000
0010
0000
,  // measure 59
0100
0000
0000
1100
0000
0000
0010
0000
0000
0011
0000
0000
0001
0000
1000
0000
,  // measure 60
0100
0000
1000
0100
0000
1000
0100
0000
0010
0100
0000
1000
0100
0000
0010
0000
,  // measure 61
0001
0000
0100
0001
0000
0100
0010
0000
1000
0100
0000
1000
0001
0000
0010
0000
,  // measure 62
0100
0000
0010
0001
0000
0100
0010
0000
0100
0001
0000
1000
0100
0000
1000
0000
,  // measure 63
1001
0000
0000
0101
0000
0000
0010
0000
0000
1010
0000
0000
0010
0000
1000
0000
,  // measure 64
1001
0000
0000
0101
0000
0000
0010
0000
0000
1010
0000
0000
0010
0000
1000
0000
,  // measure 65
1001
0000
0000
0101
0000
0000
0010
0000
1000
0010
0000
0000
1001
0000
0001
0000
,  // measure 66
0022
0000
0000
0000
,  // measure 67
0033
0000
0000
0000
;

//---------------dance-double - ----------------
#NOTES:
     dance-double:
     :
     Medium:
     8:
     0.355,0.436,0.159,0.300,0.000:
10010000
00000000
01000000
00000000
,
00100000
00000000
00010000
00000000
,
00100000
00000000
01000000
00000000
,
10000000
00000000
00001000
00000000
,
00020000
00000000
00000000
00000000
,
00031000
00000000
01000000
00001000
01000000
00000000
00001000
00000000
,
00010000
00000010
00000100
00000001
,
00010000
00000000
00001000
00010000
00001000
00000000
00010000
00000000
,
00001000
00000000
00010000
00001000
00010000
00000000
00001000
00000000
,
10000000
00000000
00100000
01000000
00100000
00000000
10000000
00000000
,
00100000
01000000
00001000
00010000
,
00000010
00000000
00001000
00000001
00001000
00000000
00000010
00000000
,
00000100
00000000
00000001
00001000
00000001
00000000
00000100
00000000
,
00000020
00020000
00000000
00000000
,
00000000
00000000
00000000
00030030
,
00002000
02000000
00000000
00000000
,
00000000
00000000
00000000
03003000
,
00020000
00000200
00000000
00000000
,
00000000
00000000
00000000
00030300
,
00002000
00200000
00000000
00000000
,
00000000
00000000
00000000
00303000
,
00022000
00000000
00000000
00033000
,
00011000
00010100
00000100
00010100
,
00010000
00000100
00000010
00000000
00000001
00000010
00000001
00000000
,
00000101
00000110
00000010
00000110
,
00000100
00000010
00010000
00000000
00000010
00010000
00000010
00000000
,
00011000
01001000
01000000
01001000
,
00001000
00100000
01000000
00000000
10000000
01000000
10000000
00000000
,
10010000
00010000
00011000
00001000
,
00001001
00000001
00001000
00000100
,
00010000
00002000
00000000
00000000
00000000
00000000
00003000
00000000
,
00010000
00000020
00000000
00000000
00000000
00000000
00000030
00000000
,
00001000
00000002
00000000
00000000
00000000
00000000
00000003
00000000
,
00000010
00000200
00000000
00000000
00000000
00000000
00000300
00000000
,
00001000
00200000
00000000
00000000
00000000
00000000
00300000
00000000
,
00010000
20000000
00000000
00000000
00000000
00000000
30000000
00000000
,
01000000
00200000
00000000
00000000
00000000
00000000
00300000
00000000
,
00010000
00000200
00000000
00000000
00000000
00000000
00000300
00000000
,
00001001
00000100
00000010
00000001
,
00000010
00000100
00010000
00001000
,
00100000
01000000
10000000
00000000
01000000
00100000
00010000
00000000
,
00100000
01000000
10000000
00000000
01000000
00100000
00001000
00000000
,
01000000
00100000
10000000
00100000
,
01000000
00001000
00010000
00000100
,
00010000
00000010
00000100
00000000
00000001
00000100
00000001
00000000
,
00000100
00000010
00001000
00000000
00000010
00000100
00000010
00000000
,
00002001
00000001
00000100
00003100
,
00020000
00001000
00032000
00000000
,
20003000
00001000
00100000
30100000
,
02000000
00000000
03002000
00000000
,
00023000
00001000
00000001
00030001
,
00000200
00000010
00000320
00000000
,
00020030
00000010
00001000
00031000
,
02000000
00000000
03020000
00000000
,
20000000
00000000
00000000
30030000
,
01000000
00100000
01000000
00000000
00010000
00100000
00010000
00000000
,
10000000
01000000
00100000
00010000
,
01000000
00100000
01000000
00000000
00010000
01000000
00010000
00000000
,
10000000
00100000
01000000
00001000
,
00010000
00000001
00000010
00000000
00000001
00000000
00001000
00000000
,
00000010
00000100
00000001
00000000
00000100
00000001
00000100
00000000
,
00000001
00010000
00001000
00000000
00010000
00001000
00010000
00000000
,
00000001
00000000
00000010
00000000
00000100
00000000
00001000
00000001
,
00010000
00000000
00001000
00000000
00100000
00000000
00010000
01000000
,
00010000
00000000
00100000
00001000
00100000
00000000
00011000
00000000
,
00022000
00000000
00000000
00000000
,
00033000
00000000
00000000
00000000
;

//---------------dance-double - ----------------
#NOTES:
     dance-double:
     :
     Hard:
     12:
     0.518,0.524,0.159,0.203,0.375:
20010000
00000000
00000000
00000000
,
32000000
00000000
00000000
00000000
,
23000000
00000000
00000000
00000000
,
30020000
00000000
00000000
00000000
,
00230000
00000000
00000000
00000000
00000000
00301000
00000000
00000000
,
00011000
00010000
00000010
00000100
00000000
00000100
00000001
00001000
,
00000100
00010000
00000100
00010000
,
00001000
00000000
01000000
00000000
00000000
00100000
00000000
00001000
00000000
00000000
00100000
00000000
00000000
01000000
00000000
00001000
,
00000000
00000000
00010000
00000000
00000000
00000010
00000000
00000100
00000000
00000000
00000010
00000000
00000000
00010000
00000000
00000000
,
00000001
00000100
00000010
00000100
00000000
00000100
00000001
00010000
,
00000100
00010000
00000100
00010000
,
00001000
00000000
00100000
00000000
00000000
01000000
00000000
00100000
00000000
00000000
00001000
00000000
00000000
00010000
00000000
00000010
,
00000000
00000000
00000100
00000000
00000000
00000010
00000000
00010000
00000000
00000000
00001000
00000000
00000000
10000000
00000000
00000000
,
00001000
00010000
00001000
01000000
00001000
00010000
00001000
00000000
,
01000000
00010000
01000000
00001000
01000000
00010000
01000000
00000000
,
00010000
00100000
01000000
10000000
00100000
01000000
00100000
00000000
,
10000000
00001000
01000000
00001000
01000000
00001000
10000000
00000000
,
00100000
01000000
00001000
01000000
00100000
10000000
01000000
00000000
,
10000000
00001000
00100000
00001000
01000000
00100000
01000000
00000000
,
00010000
00100000
00010000
10000000
00001000
00100000
01000000
00000000
,
10000000
00100000
01000000
00001000
00010000
00000010
00000100
00000001
,
00002002
00000000
00000000
00003003
,
00001100
00000000
00000000
00001000
00000000
00000000
00000010
00000000
00000000
00000100
00000000
00000000
00000001
00000000
00010000
00000000
,
00001000
00000000
00000000
01000000
00000000
00000000
00010000
00000000
00000000
01000000
00000000
00000000
00001000
00000000
00100000
00000000
,
01000000
00000000
00000000
10000000
00000000
00000000
00010000
00000000
00000000
01000000
00000000
00000000
00100000
00000000
01000000
00000000
,
00001000
00000000
00000000
00010000
00000000
00000000
00000100
00000000
00000000
00010000
00000000
00000000
00001000
00000000
00010000
00000000
,
00000001
00000000
00000000
00000010
00000000
00000000
00000100
00000000
00000000
00010000
00000000
00000000
00000100
00000000
00000010
00000000
,
00000001
00000000
00000000
00010000
00000000
00000000
00000100
00000000
00000000
00010000
00000000
00000000
00000001
00000000
00000100
00000000
,
00000110
00000000
00010000
00000100
00010100
00000000
00001000
00100000
,
00101000
00000000
00000000
00001000
00000000
00000000
10000000
00000000
00000000
00100000
00000000
00000000
01000000
00000000
00010000
00000000
,
20010000
00000000
00000000
00000000
00000000
00000000
00010000
00000000
00000000
00010000
00000000
00000000
30010000
00000000
00000000
00000000
,
02001000
00000000
00000000
00000000
00000000
00000000
00001000
00000000
00000000
00001000
00000000
00000000
03001000
00000000
00000000
00000000
,
00010200
00000000
00000000
00000000
00000000
00000000
00010000
00000000
00000000
00010000
00000000
00000000
00010300
00000000
00000000
00000000
,
00000120
00000000
00000000
00000000
00000000
00000000
00000100
00000000
00000000
00000100
00000000
00000000
00000130
00000000
00000000
00000000
,
00000012
00000000
00000000
00000000
00000000
00000000
00000010
00000000
00000000
00000010
00000000
00000000
00000013
00000000
00000000
00000000
,
00000210
00000000
00000000
00000000
00000000
00000000
00000010
00000000
00000000
00000010
00000000
00000000
00000310
00000000
00000000
00000000
,
00020100
00000000
00000000
00000000
00000000
00000000
00000100
00000000
00000000
00000100
00000000
00000000
00030100
00000000
00000000
00000000
,
01002000
00000000
00000000
00000000
00000000
00000000
01000000
00000000
00000000
01000000
00000000
00000000
01003000
00000000
00000000
00000000
,
00001000
10000000
01000000
00010000
01000000
10000000
00001000
00100000
,
00001000
00010000
00001000
00100000
00001000
00010000
00000010
00000100
,
00000010
00000000
00001000
00000000
00000000
00000001
00000000
00001000
00000000
00000000
00000100
00000000
00000000
00010000
00000000
00001000
,
00000000
00000000
10000000
00000000
00000000
01000000
00000000
00100000
00000000
00000000
00001000
00000000
00000000
00010000
00000000
00000000
,
00000100
00010000
00001000
00010000
00000100
00010000
00000001
00000010
,
00000100
00000010
00000001
00010000
00000100
00010000
00001000
01000000
,
00100000
00000000
01000000
00000000
00000000
00010000
00000000
10000000
00000000
00000000
00001000
00000000
00000000
00010000
00000000
00001000
,
00000000
00000000
00010000
00000000
00000000
00000010
00000000
00000100
00000000
00000000
00000001
00000000
00000000
00000100
00000000
00000000
,
00000001
00001000
00000001
00000000
00000100
00000000
00000000
00000010
00000000
00000000
00000100
00000000
00000010
00010000
00000010
00000000
,
00010000
00001000
00010000
00000000
00001000
00000000
00000000
20000000
00000000
00000000
00000000
00000000
31000000
00000000
00100000
00000000
,
00010000
10000000
00010000
00000000
00100000
00000000
00000000
01000000
00000000
00000000
00100000
00000000
00010000
01000000
00010000
00000000
,
20000000
31000000
00200000
00301000
,
00010000
00001000
00010000
00000000
00000010
00000000
00000000
00001000
00000000
00000000
00000010
00000000
00000100
00000010
00000100
00000000
,
00000001
00001000
00000001
00000000
00010000
00000000
00000000
00002000
00000000
00000000
00000000
00000000
10003000
00000000
01000000
00000000
,
00100000
00010000
00100000
00000000
00010000
00000000
00000000
01000000
00000000
00000000
00001000
00000000
00010000
00000000
00000001
00000000
,
00001000
00000001
00010000
00001000
10000000
01000000
00100000
00010000
,
20020000
00000000
00000000
30030000
,
10010000
00000000
00000000
00010000
00000000
00000000
01000000
00000000
00000000
00001000
00000000
00000000
00010000
00000000
00000001
00000000
,
00000010
00000000
00000000
00000100
00000000
00000000
00000010
00000000
00000000
00000001
00000000
00000000
00000100
00000000
00000010
00000000
,
00010000
00000000
00000000
00001000
00000000
00000000
01000000
00000000
00000000
00100000
00000000
00000000
10000000
00000000
00010000
00000000
,
00100000
00000000
00000000
00010000
00000000
00000000
00100000
00000000
00000000
00001000
00000000
00000000
00100000
00000000
00010000
00000000
,
10000000
00000000
00000000
00100000
00000000
00000000
01000000
00000000
00000000
00001000
00000000
00000000
00010000
00000000
00000010
00000000
,
00000100
00000000
00000000
00000010
00000000
00000000
00000100
00000000
00000000
00000001
00000000
00000000
00000100
00000000
00000001
00000000
,
00010000
00000000
00000000
00001000
00000000
00000000
00100000
00000000
00000000
01000000
00000000
00000000
10000000
00000000
01000000
00000000
,
00100000
00000000
00000000
00100000
00000000
00000000
00010000
00000000
00000000
00010000
00000000
00000000
10000000
00000000
00001000
00000000
,
00100000
00000000
00000000
00100000
00000000
00000000
00010000
00000000
00000000
00010000
00000000
00000000
10000000
00000000
00001000
00000000
,
00100000
00000000
00000000
00100000
00000000
00000000
00010000
00000000
10000000
00001000
00000000
00000000
00010000
00000000
00000010
00000000
,
00000220
00000000
00000000
00000000
,
00000330
00000000
00000000
00000000
;

//---------------dance-double - ----------------
#NOTES:
     dance-double:
     :
     Challenge:
     14:
     0.704,0.844,0.220,0.115,0.789:
10000000
00000000
00000000
01000000
00000000
00000000
00100000
00000000
00000000
00010000
00000000
00000000
10000000
00000000
00001000
00000000
,
00010000
00000000
00000000
00010000
00000000
00000000
00000010
00000000
00000000
00000010
00000000
00000000
00000100
00000000
00000001
00000000
,
00010000
00000000
00000000
00000010
00000000
00000000
00000100
00000000
00000000
00000001
00000000
00000000
00000100
00000000
00000010
00000000
,
00010000
00000000
00000000
00010000
00000000
00000000
00001000
00000000
00000000
00001000
00000000
00000000
00100000
00000000
01000000
00000000
,
20000000
00000000
00000000
00000000
00000000
30010000
00000000
00000000
,
10000000
00000000
01000000
00000000
00100000
00000000
00010000
10000000
00000000
00000000
00001000
00000000
00010000
00000000
00000001
00002000
,
00000000
00000000
00000000
00000100
00000000
00000000
00003100
00000000
,
00001000
00000000
00000001
00000000
00000000
00001000
00000000
00000100
00000000
00000000
00010000
00000000
00000000
00001000
00000000
10000000
,
00000000
00000000
00100000
00000000
00000000
10000000
00000000
00010000
00000000
00000000
10000000
00000000
00000000
00001000
00000000
00010000
,
00001000
00000000
00100000
00000000
01000000
00000000
10000000
00001000
00000000
00000000
00100000
00000000
00001000
00000000
01000000
00200000
,
00000000
00000000
00000000
01000000
00000000
00000000
01300000
00000000
,
00010000
00000000
10000000
00000000
00000000
01000000
00000000
00100000
00000000
00000000
00001000
00000000
00000000
00010000
00000000
00000001
,
00000000
00000000
00000100
00000000
00000000
00000010
00000000
00001000
00000000
00000000
00000001
00000000
00000000
00010000
00000000
00001000
,
00010000
00000001
00010000
00000001
00001000
00000100
00001000
00000100
,
00010000
00000010
00010000
00000010
00001000
00000001
00001000
00000000
,
00000100
00001000
00000100
00001000
00000010
00010000
00000010
00010000
,
00000001
00000010
00000001
00000010
00000001
00010000
00000001
00010000
,
00001000
00100000
00001000
00100000
00010000
10000000
00010000
10000000
,
01000000
00100000
01000000
00100000
00010000
01000000
00010000
01000000
,
00001000
10000000
01000000
00100000
00010000
00000100
00000010
00000001
,
00001000
00000001
00001000
00000001
00001000
00000001
00001000
00000001
00001000
00000001
00001000
00000001
00001000
00000001
00001000
00000001
,
00002000
00000000
00000000
00000000
,
00003001
00000000
00010000
00000100
00000000
00000000
00010000
00000000
00001000
01000000
00000000
00000000
00010000
00000000
10000000
00000000
,
01000000
00000000
00000000
11000000
00000000
00000000
01000000
00000000
00000000
11000000
00000000
00000000
01000000
00000000
10000000
00000000
,
00010000
00000000
00100000
00001000
00000000
00000000
00010000
00000000
00000010
00000100
00000000
00000000
00000001
00000000
00001000
00000000
,
00000100
00000000
00000000
00010100
00000000
00000000
00000100
00000000
00000000
00010100
00000000
00000000
00000100
00000000
00100000
00000000
,
01000000
00000000
10000000
00001000
00000000
00000000
00010000
00000000
00001000
01000000
00000000
00000000
00100000
00000000
10000000
00000000
,
00010000
00000000
00000000
10010000
00000000
00000000
00010000
00000000
00000000
10010000
00000000
00000000
10000000
00000000
00001000
00000000
,
00011000
00000000
00010000
00000010
00000110
00000000
00000100
00001000
,
00001001
00000000
00000000
00001100
00000000
00000000
00001001
00000000
00000000
00001100
00000000
00000000
00001000
00000000
00000100
00000000
,
00010000
00000000
00001000
10000000
00002000
00000000
10000000
00000000
00000000
10000000
00000000
00000000
10003000
00000000
00000000
00000000
,
00001000
00000000
01000000
00100000
02000000
00000000
00001000
00000000
00000000
00001000
00000000
00000000
03001000
00000000
00000000
00000000
,
10000000
00000000
00010000
01000000
00020000
00000000
10000000
00000000
00000000
10000000
00000000
00000000
10030000
00000000
00000000
00000000
,
00001000
00000000
00010000
00001000
00020000
00000000
00000010
00000000
00000000
00000010
00000000
00000000
00030010
00000000
00000000
00000000
,
00010000
00000000
00000001
00000010
00000001
00000000
00010000
00000000
00000100
00000010
00000000
00000100
00000010
00000000
00000000
00000000
,
00000001
00000000
00001000
00000100
00001000
00000000
00000001
00000000
00000010
00000100
00000000
00000010
00000100
00000000
00000000
00000000
,
00001000
00000000
00100000
01000000
00100000
00000000
00010000
00000000
10000000
00100000
00000000
10000000
00100000
00000000
00000000
00000000
,
10000000
00000000
00001000
01000000
00001000
00000000
10000000
00000000
01000000
00100000
00000000
01000000
00100000
00000000
00000000
00000000
,
00001000
00000000
10000000
00010000
00000000
01000000
00000000
00010000
10000000
00000000
01000000
10000000
00000000
01000000
10000000
00000000
,
00100000
01000000
00100000
01000000
00000000
00001000
00000000
00010000
00000100
00000000
00010000
00000100
00000000
00010000
00000100
00000000
,
00001000
00000001
00001000
00000001
00000000
00000010
00000000
00000001
00000010
00000000
00000100
00000000
00000000
00001000
00000000
00001000
,
00000010
00000000
00000100
00000000
00000000
00000001
00000000
00000001
00010000
00000000
00001000
00000000
00000000
01000000
00000000
01000000
,
00010000
00000000
10000000
00010000
00000000
00100000
00000000
00010000
10000000
00000000
00010000
00100000
00000000
00010000
00100000
00000000
,
00001000
01000000
00001000
01000000
00000000
00001000
00010000
00000000
00000010
00000000
00000100
00000001
00000000
00000100
00000001
00000000
,
00000010
00000100
00000010
00000100
00000000
00001000
00000000
00001000
00000100
00000000
00000010
00000000
00000000
00000001
00000000
00000001
,
00010000
00000000
00001000
00000000
00000000
01000000
00000000
01000000
00100000
00000000
01000000
00000000
00000000
00001000
00000000
00001000
,
10000000
00100000
10000000
00100000
01000000
00000000
00010000
10000000
00000000
10000000
01000000
00000000
00100000
00001000
00100000
00000000
,
00001000
00010000
00001000
00010000
00000010
00000000
00000100
00000002
00000000
00000000
00000000
00000000
00000013
00000100
00010000
00000000
,
00001000
00010000
00001000
00010000
00001000
00000000
01000000
00001000
00000000
01000000
00001000
00000000
01000000
00100000
10000000
00000000
,
01000000
00100000
00001000
00000100
00000010
00000001
00000010
00000100
,
00010000
00000001
00010000
00000001
00010000
00000000
00000010
00000100
00000000
00000010
00000100
00000000
00000001
00000010
00000100
00000000
,
00010000
00000010
00010000
00000010
00010000
00000000
00001000
00200000
00000000
00000000
00000000
00000000
00301000
00100000
01000000
00000000
,
10000000
00100000
10000000
00100000
10000000
00000000
01000000
00100000
00000000
01000000
00100000
00000000
00001000
01000000
00100000
00000000
,
10000000
00001000
10000000
00001000
10000000
00001000
10000000
00001000
10000000
00001000
10000000
00001000
10000000
00001000
10000000
00001000
,
20000000
00000000
00000000
30000000
,
01100000
00000000
00100000
10000000
00000000
00100000
10000000
00000000
01000000
00100000
00000000
00001000
01000000
00000000
00001000
00000000
,
10000000
00000000
01000000
00100000
00000000
00100000
00001000
00000000
00010000
00000010
00000000
00000010
00000100
00000000
00000001
00000000
,
00001000
00000000
00000100
00001000
00000000
00000100
00001000
00000000
00000010
00010000
00000000
00001000
00010000
00000000
00000010
00000000
,
00000100
00000000
00000000
00001001
00000000
00000000
00000100
00000000
00000000
00001001
00000000
00000000
00000100
00000000
00000001
00000000
,
00010000
00000000
00001000
00100000
00000000
00001000
00100000
00000000
00010000
10000000
00000000
01000000
00100000
00000000
00001000
00000000
,
10000000
00000000
00100000
10000000
00000000
10000000
00001000
00000000
00010000
00000100
00000000
00000100
00000010
00000000
00000001
00000000
,
00001000
00000000
00000100
00001000
00000000
00000100
00001000
00000000
00000010
00000100
00000000
00000010
00010000
00000000
00001000
00000000
,
00101000
00000000
00000000
00110000
00000000
00000000
00100000
00000000
00000000
00110000
00000000
00000000
00010000
00000000
10000000
00000000
,
10010000
00000000
00000000
10100000
00000000
00000000
10000000
00000000
00000000
10100000
00000000
00000000
01000000
00000000
00001000
00000000
,
00011000
00000000
00000000
00010100
00000000
00000000
00010000
00000000
00000100
00001000
00000000
00000000
00001001
00000000
00000001
00000000
,
00000202
00000000
00000000
00000000
,
00000303
00000000
00000000
00000000
;

//---------------dance-double - ----------------
#NOTES:
     dance-double:
     :
     Easy:
     3:
     0.189,0.233,0.071,0.238,0.000:
10000000
00000000
00010000
00000000
,
10000000
00000000
00000000
00000000
,
00100000
00000000
01000000
00000000
,
00100000
00000000
00000000
00000000
,
02200000
00000000
00000000
03300000
,
00001000
00000000
00001000
00000000
,
00010000
00000000
00010000
00000000
,
00000010
00000000
00000010
00000000
,
00001000
00000000
00001000
00000000
,
00010000
00000000
00010000
00000000
,
00000100
00000000
00000100
00000000
,
00001000
00000000
00000001
00000000
,
00000100
00000000
00000010
00000000
,
00000220
00000000
00000000
00000000
,
00000000
00000000
00000000
00000330
,
00022000
00000000
00000000
00000000
,
00000000
00000000
00000000
00033000
,
02200000
00000000
00000000
00000000
,
00000000
00000000
00000000
03300000
,
00022000
00000000
00000000
00000000
,
00000000
00000000
00000000
00033000
,
00011000
00000000
00000000
00000000
,
00000110
00000000
00000100
00000000
,
00000010
00000000
00000100
00000000
,
00000010
00000000
00010000
00000000
,
00000010
00000000
00010000
00000000
,
00001000
00000000
00010000
00000000
,
00001000
00000000
00010000
00000000
,
00001000
00000000
00100000
00000000
,
00001000
00000000
00100000
00000000
,
00020000
00000000
00000000
00000000
,
20030000
00000000
00000000
00000000
,
30002000
00000000
00000000
00000000
,
00023000
00000000
00000000
00000000
,
00030002
00000000
00000000
00000000
,
00002003
00000000
00000000
00000000
,
00003002
00000000
00000000
00000000
,
00020003
00000000
00000000
00000000
,
00031000
00000000
00100000
00000000
,
00010000
00000000
01000000
00000000
,
00100000
00000000
10000000
00000000
,
01000000
00000000
10000000
00000000
,
01000000
00000000
00100000
00000000
,
00001000
00000000
00100000
00000000
,
00001000
00000000
00010000
00000000
,
00000100
00000000
00001000
00000000
,
00000120
00000000
00000130
00000000
,
00000002
00000000
00000103
00000000
,
00000020
00000000
00010030
00000000
,
00002000
00000000
00000000
00000000
,
20003000
00000000
30010000
00000000
,
00200000
00000000
00310000
00000000
,
20000000
00000000
31000000
00000000
,
20000000
00000000
00000000
00000000
,
30001000
00000000
00000000
00000000
,
00010000
00001000
00010000
00000000
,
00000001
00000100
00000001
00000000
,
00010000
00000100
00010000
00000000
,
00001000
01000000
00001000
00000000
,
10000000
00100000
10000000
00000000
,
00001000
00010000
00001000
00000000
,
00010000
00000010
00010000
00000000
,
00000100
00000010
00000100
00000000
,
00001000
00000001
00001000
00000000
,
00000100
00010000
00000100
00010000
,
00002000
00000000
00000000
00000000
,
00003000
00000000
00000000
00000000
;

//---------------dance-single - ----------------
#NOTES:
     dance-single:
     :
     Beginner:
     2:
     0.089,0.115,0.088,0.000,0.000:
1001
0000
0000
0000
,
0000
0000
0000
0000
,
0000
0000
0000
0000
,
0000
0000
0000
0000
,
0110
0000
0000
0000
,
0010
0000
0000
0010
,
0000
0000
0000
0000
,
1000
0000
0000
0001
,
0000
0000
0001
0000
,
1000
0000
0000
1000
,
0000
0000
0000
0000
,
0100
0000
0000
0010
,
0000
0000
0010
0000
,
1001
0000
0000
0000
,
0000
0000
0000
0000
,
0001
0000
0000
0000
,
0000
0000
0000
0000
,
0010
0000
0000
0000
,
0000
0000
0000
0000
,
0100
0000
0000
0000
,
0000
0000
0000
0000
,
1000
0000
0000
0000
,
1001
0000
0000
0000
,
0001
0000
0000
0000
,
0100
0000
0000
0000
,
0001
0000
0000
0000
,
1001
0000
0000
0000
,
1000
0000
0000
0000
,
0100
0000
0000
0000
,
1000
0000
0000
0000
,
0110
0000
0000
0000
,
0010
0000
0000
0000
,
0010
0000
0000
0000
,
0010
0000
0000
0000
,
1001
0000
0000
0000
,
0001
0000
0000
0000
,
1000
0000
0000
0000
,
0001
0000
0000
0000
,
1001
0000
0000
0000
,
0000
0000
0000
0000
,
1000
0000
0000
0000
,
0100
0000
0000
0000
,
0010
0000
0000
0000
,
0000
0000
0000
0000
,
0001
0000
0000
0000
,
0010
0000
0000
0000
,
0100
0000
0000
0000
,
1000
0000
0000
0000
,
0100
0000
0000
0000
,
1000
0000
0000
0000
,
0001
0000
0000
0000
,
0010
0000
0000
0000
,
0001
0000
0000
0000
,
0010
0000
0000
0000
,
1001
0000
0000
0000
,
0001
0000
0000
0000
,
0010
0000
0000
0000
,
0001
0000
0000
0000
,
0010
0000
0000
0000
,
0100
0000
0000
0000
,
0010
0000
0000
0000
,
0100
0000
0100
0000
,
0100
0000
0000
0000
,
1000
0000
0000
0000
,
0001
0000
1000
0000
,
1001
0000
0000
0000
;
