#TITLE:INFINITE PRAYER;
#SUBTITLE:-Ryu☆Remix-;
#ARTIST:Remixed by Ryu☆;
#TITLETRANSLIT:;
#SUBTITLETRANSLIT:-Ryu*Remix-;
#ARTISTTRANSLIT:Remixed by Ryu*;
#CREDIT:DigiMindAxel;
#BANNER:INFINITE PRAYER -Ryu Remix-.png;
#BACKGROUND:INFINITE PRAYER -Ryu Remix--bg.png;
#LYRICSPATH:;
#CDTITLE:Konami original REMIX.png;
#MUSIC:INFINITE PRAYER -Ryu Remix-.ogg;
#METERTYPE:DDR X;
#OFFSET:-8.084;
#SAMPLESTART:13.497;
#SAMPLELENGTH:12.000;
#SELECTABLE:YES;
#BPMS:0.000=177.000;
#STOPS:;
#BGCHANGES:;

//---------------dance-single - ----------------
#NOTES:
     dance-single:
     :
     Easy:
     6:
     0.286,0.386,0.143,0.064,0.000: // measure 1
1000
0000
1000
0000
,  // measure 2
0001
0000
0001
0000
,  // measure 3
1000
0000
0100
0000
,  // measure 4
0020
0000
0000
0000
,  // measure 5
0031
1000
0001
0000
,  // measure 6
0010
0000
0100
0000
,  // measure 7
1000
0001
1000
0100
,  // measure 8
1000
0001
1000
0100
,  // measure 9
1000
0001
1000
0000
,  // measure 10
0100
0000
0010
0000
,  // measure 11
0001
1000
0001
1000
,  // measure 12
0001
0010
0001
1000
,  // measure 13
0001
0000
0010
0000
,  // measure 14
0100
0000
1000
0000
,  // measure 15
0010
0100
0010
1000
,  // measure 16
0010
0100
0010
1000
,  // measure 17
0001
0000
0010
0000
,  // measure 18
0100
0000
1000
0000
,  // measure 19
1001
0000
0000
1001
,  // measure 20
0000
0000
0000
0000
,  // measure 21
0010
0100
0010
0100
,  // measure 22
0001
0000
0010
0000
,  // measure 23
0100
1000
0100
1000
,  // measure 24
0010
0100
0010
0100
,  // measure 25
0001
1000
0001
0000
,  // measure 26
0010
0000
0100
0000
,  // measure 27
1001
0000
0110
0000
,  // measure 28
1001
0000
0000
0000
,  // measure 29
0010
0100
0010
0100
,  // measure 30
0001
0010
0001
0010
,  // measure 31
0001
1000
0001
1000
,  // measure 32
0100
1000
0100
0000
,  // measure 33
1001
0000
1001
0000
,  // measure 34
0110
0000
0110
0000
,  // measure 35
0100
0010
0100
0010
,  // measure 36
1000
0100
0010
0001
,  // measure 37
2000
0000
0000
0000
,  // measure 38
3001
0000
1000
0000
,  // measure 39
0100
0010
0001
0010
,  // measure 40
0100
0000
1000
0000
,  // measure 41
0010
0100
0001
0100
,  // measure 42
0010
0000
1000
0000
,  // measure 43
0100
0000
0010
0000
,  // measure 44
0001
1000
0001
0000
,  // measure 45
1001
0000
0000
0000
,  // measure 46
0100
1000
0100
1000
,  // measure 47
0100
1000
0100
1000
,  // measure 48
0010
0100
0010
0100
,  // measure 49
0010
0100
0010
0100
,  // measure 50
0001
0010
0001
0010
,  // measure 51
0001
0010
0001
0010
,  // measure 52
0001
1000
0001
1000
,  // measure 53
0002
0000
0000
0000
,  // measure 54
1003
0100
0010
0001
,  // measure 55
1000
0000
1000
0000
,  // measure 56
0001
0010
0100
1000
,  // measure 57
0001
0000
0001
0000
,  // measure 58
0100
0010
1000
0010
,  // measure 59
0100
0000
0100
0000
,  // measure 60
0010
0100
0001
1000
,  // measure 61
0002
0000
0000
0000
,  // measure 62
1003
0000
1000
0000
,  // measure 63
0001
0010
0100
1000
,  // measure 64
0010
0000
0010
0000
,  // measure 65
0100
0001
0010
0100
,  // measure 66
1000
0000
1000
0000
,  // measure 67
0001
0010
0100
0010
,  // measure 68
0001
1000
0001
1000
,  // measure 69
0100
1000
0100
0000
,  // measure 70
1000
1000
1000
1000
,  // measure 71
1001
0001
0001
0001
,  // measure 72
0110
0100
0100
0100
,  // measure 73
1001
1000
1000
0000
,  // measure 74
0001
1000
0001
1000
,  // measure 75
0100
1000
0100
1000
,  // measure 76
0110
0000
0110
0000
,  // measure 77
1001
0000
0000
0000
,  // measure 78
2002
0000
0000
3003
,  // measure 79
2002
0000
0000
0000
,  // measure 80
0000
0000
0000
0000
,  // measure 81
0000
0000
0000
0000
,  // measure 82
3003
0000
0000
0000
;

//---------------dance-single - ----------------
#NOTES:
     dance-single:
     :
     Medium:
     10:
     0.437,0.483,0.207,0.095,0.000:
1000
0001
1000
0001
,
1000
0001
1000
0001
,
0010
0100
0010
0100
,
2001
0000
0000
0000
,
3001
0000
1000
0000
0100
0000
0010
0001
,
0000
0001
0000
1000
0000
1000
0000
0000
,
0001
0000
0000
0100
0000
0000
0010
0000
,
0000
1000
0000
0000
0001
1000
0001
0000
,
1000
0000
0100
0000
0010
0000
0001
1000
,
0000
1000
0000
0001
0000
0001
0000
0000
,
0010
0000
0000
0100
0000
0000
0010
0000
,
0000
0001
0000
0000
1000
0001
1000
0000
,
0010
0000
0100
0000
0001
0000
1000
0001
,
0000
0001
0000
1000
0000
1000
0000
0000
,
0100
0000
0000
0010
0000
0000
0001
0000
,
0000
0100
0000
0000
0010
0100
0010
0000
,
1000
0000
0001
0000
0010
0000
0100
1000
,
0000
1000
0000
0001
0000
0001
0000
0000
,
1001
0000
0000
1001
0000
0000
0110
0000
,
0000
0110
0000
0000
0100
0010
0100
0000
,
0001
1000
0001
0000
1000
0000
0100
0010
,
0000
0010
0000
0001
0000
0001
0000
0000
,
1000
0010
0000
1000
0001
0000
1000
0010
,
0000
1000
0001
0000
0010
0100
0010
0000
,
0001
1000
0001
0000
1000
0000
0010
0100
,
0000
0100
0000
0001
0000
0001
0000
0000
,
1001
0000
0000
1001
0000
0000
0110
0000
,
0000
0110
0000
0000
0100
0010
0100
0000
,
0001
1000
0100
0000
0010
0000
0001
0000
,
1000
0001
0100
0000
0010
0000
1000
0000
,
0001
1000
0000
0001
0010
0000
0001
1000
,
0000
0001
0010
0000
0100
1000
0100
0000
,
1000
0001
0100
0000
0101
0000
1001
0000
,
0100
0010
0001
0000
0011
0000
1001
0000
,
1000
0100
0010
0001
0000
0100
0010
1000
,
0100
0100
1100
1001
,
0012
0000
0000
0000
,
1003
0000
0001
0010
0000
0100
0000
1000
,
0000
0010
0100
0010
0100
0010
1000
0000
,
0100
0001
0100
1000
,
0010
0100
0010
0100
0001
0100
0001
0000
,
1000
0000
0100
0010
0000
0001
0000
1000
,
0000
0010
1000
0010
1000
0010
0100
0000
,
0001
0010
1000
0010
,
2002
0000
0000
3003
,
0001
0000
1000
0100
0000
1000
0000
0010
,
0100
0000
0001
1000
0000
0001
1000
0001
,
0010
0000
0100
1000
0000
0010
0000
0100
,
0010
0100
0001
1001
,
1000
0000
0100
0010
0000
0001
0000
0100
,
0010
0000
1000
0001
0000
1000
0001
0010
,
0001
0000
0010
0100
0000
1000
0000
0010
,
0200
0000
0000
0300
,
0001
0000
0010
0000
0100
0000
1000
0001
,
1000
0000
0100
0000
1000
0000
0001
0100
,
0001
0000
0100
0000
0010
0000
1000
0001
,
1000
0100
0010
0100
,
1000
0001
1000
0001
1000
0100
0010
0000
,
0001
0100
0010
1000
,
0010
0100
0010
0100
0001
1000
0001
0000
,
2002
0000
0000
3003
,
1000
0100
1000
0000
0001
0000
0100
0001
,
0000
0001
0000
1000
0000
1000
0010
0000
,
0100
0010
0000
0100
0010
0000
1000
0001
,
0000
1000
0001
0000
1000
0100
1000
0000
,
0001
0100
0001
0000
1000
0000
0010
0100
,
0000
0100
0000
0001
0000
0001
1000
0000
,
0100
1000
0000
0100
1000
0000
0100
0010
,
0000
0100
0010
0000
0001
1000
0001
1000
,
0100
1000
0010
0100
,
1001
0010
0100
1000
,
0110
0001
0100
0010
,
1001
1000
0002
0000
,
1003
0100
0010
0000
0001
0010
0100
0000
,
1000
0100
0010
0000
0001
0010
0100
0000
,
1000
0010
0000
1000
0010
0000
1000
0001
,
0000
1000
0001
0000
0011
0000
0110
0000
,
2020
0000
0000
3030
,
2002
0000
0000
0000
,
0000
0000
0000
0000
,
0000
0000
0000
0000
,
3003
0000
0000
0000
;

//---------------dance-single - ----------------
#NOTES:
     dance-single:
     :
     Hard:
     13:
     0.620,0.708,0.151,0.143,0.111:
1000
0100
0010
0001
1000
0100
0010
0001
,
1000
0000
0100
0000
0001
0000
0100
0100
,
1000
0010
0100
0001
1000
0010
0100
0001
,
2000
0000
0000
0000
,
3001
1000
0100
0010
0001
1000
0100
0001
,
0000
0100
0000
1000
0000
0100
0010
0100
,
0010
0001
0000
1000
0010
0000
0100
0001
,
0000
0010
0100
0000
1000
0010
1000
0001
,
0010
0100
1000
0001
0010
0001
1000
0100
,
0000
0001
0000
0100
0000
1000
0010
1000
,
0010
0100
0000
0001
1000
0000
0100
0010
,
0000
0001
0010
0000
0001
1000
0001
1000
,
0010
0100
0001
1000
0100
0010
0001
0100
,
0000
1000
0000
0100
0000
0001
0100
0001
,
0010
0100
0000
1000
0010
0000
0100
0001
,
0000
0010
0100
0000
1000
0001
0100
0001
,
1000
0100
0010
0001
1000
0100
0010
0100
,
0000
1000
0000
0010
0000
0001
0010
1000
,
1001
0001
0000
0101
0100
0000
0110
0010
,
0000
1001
0001
0000
1000
1000
2000
0000
,
3010
0100
0001
1000
0010
0100
0001
1000
,
0000
0100
0000
0001
0000
0100
1000
0100
,
0010
0010
0001
1000
1000
0001
0010
0010
,
0001
1000
1000
0001
0010
0100
1000
0001
,
1000
0010
0100
0001
1000
0010
0100
0001
,
0000
0100
0000
1000
0000
0100
0001
0010
,
0100
0000
0000
0000
1001
0000
0000
0000
1010
0000
0000
1010
0000
0000
0010
0000
,
0110
0000
0100
0000
0000
0101
0000
0000
0001
0000
1000
0000
0001
0000
1000
0000
,
0001
0010
0001
0010
0001
0010
0001
0010
,
0001
1000
0001
1000
0001
1000
0001
1000
,
0010
1000
0010
1000
0010
1000
0010
1000
,
0100
0010
0100
0010
0100
0010
0100
0000
,
1000
0000
0001
0100
0001
0000
1000
0001
1000
0000
0010
0100
0010
0000
0000
0000
,
1000
0000
0001
0010
0001
0000
1000
0001
1000
0000
0010
0100
0010
0000
0000
0000
,
1001
0001
0100
0100
0010
1000
1000
0001
,
1000
0000
0000
0100
0000
0000
0010
0000
0000
0000
0000
0000
0100
0000
0000
0010
0000
0000
0001
0000
0000
0000
0000
0000
0100
0000
0000
0000
0001
0000
0000
0000
0100
0000
0000
0000
0010
0000
0000
0000
1000
0000
0000
0000
0100
0000
0000
0000
,
0020
0002
0000
0033
,
1001
0000
1000
0020
0000
1000
0000
0130
,
0000
0001
0010
1000
0010
0001
1000
0100
,
0110
0100
0001
0100
,
1000
0010
0001
0010
1000
0100
0010
0000
,
0001
0000
1000
0200
0000
1000
0000
0310
,
0000
0001
0100
1000
0100
0001
1000
0010
,
0110
0100
0001
0100
,
2002
0000
0000
3003
,
1001
0000
1000
0001
0000
0100
0000
1000
,
0100
0000
0001
1000
0000
0100
0010
0001
,
1000
0000
0001
0010
0000
1000
0000
0010
,
0001
0000
0100
0010
1000
0001
1000
1000
,
1001
0000
1000
0010
0000
0001
0000
0010
,
1000
0000
0100
0010
0000
0001
1000
0010
,
0100
0000
0001
1000
0000
0010
0000
0001
,
0020
2000
0000
3030
,
0001
0010
0100
1000
0001
0010
0100
1000
,
0001
0000
0100
0000
1000
0000
0100
0001
,
1000
0010
0100
0001
1000
0010
0100
0001
,
1000
0000
0010
0000
0001
0010
1000
1000
,
1000
0001
0010
0100
1000
0001
0010
0100
,
1000
0010
0001
0010
,
1000
0001
0100
0010
1000
0001
0100
0010
,
2000
0000
0000
3000
,
0001
1000
0010
0001
0010
1000
0001
0100
,
0000
1000
0000
0100
0000
0001
1000
0100
,
0020
0001
0031
2000
0001
3001
0020
0001
,
0031
2000
0001
3001
0100
0001
1000
0100
,
0010
0001
0100
1000
0100
0001
1000
0010
,
0000
0001
0000
0010
0000
1000
0100
0010
,
0001
0000
0000
0000
1001
0000
0000
0000
1000
0000
0000
0001
0000
0000
1000
0000
,
0100
0000
0010
0000
0000
0010
0000
0000
0010
0000
0001
0000
0100
0000
0010
0000
,
1000
0001
1000
0001
1000
0001
1000
0001
,
1000
0100
1000
0100
1000
0100
1000
0100
,
1000
0010
1000
0010
1000
0010
1000
0010
,
1000
0001
1000
0001
1000
0001
1000
0000
,
0001
0000
0010
0001
0010
0000
0001
1000
0001
0000
1000
0010
1000
0000
0000
0000
,
0001
0000
1000
0100
1000
0000
0010
0100
0010
0000
1000
0001
1000
0000
0000
0000
,
1001
1000
0010
0010
0100
0001
0001
1000
,
0001
0000
0000
0010
0000
0000
0100
0000
0000
0000
0000
0000
0010
0000
0000
0100
0000
0000
1000
0000
0000
0000
0000
0000
0001
0000
0000
0000
0100
0000
0000
0000
0001
0000
0000
0000
0100
0000
0000
0000
0010
0000
0000
0000
1000
0000
0000
0000
,
0200
0000
1000
0000
1000
1000
1300
0010
,
0220
0000
0000
0000
,
0000
0000
0000
0000
,
0000
0000
0000
0000
,
0330
0000
0000
0000
;

//---------------dance-double - ----------------
#NOTES:
     dance-double:
     :
     Easy:
     6:
     0.290,0.322,0.119,0.079,0.000:
10000000
00000000
10000000
00000000
,
00010000
00000000
00010000
00000000
,
10000000
00000000
01000000
00000000
,
00200000
00000000
00000000
00000000
,
00301000
01000000
00001000
00000000
,
00010000
00000000
00001000
00000000
,
00010000
00000010
00010000
00000010
,
00000100
00000010
00001000
00001000
,
00000001
00000010
00000001
00000000
,
00000100
00000000
00000010
00000000
,
00010000
00001000
00010000
00001000
,
01000000
00100000
01000000
00010000
,
10010000
00000000
10000000
00000000
,
00100000
01000000
00100000
00000000
,
10000000
01000000
10000000
00010000
,
10000000
01000000
10000000
00001000
,
10000000
00000000
00001000
00000000
,
00010000
00001000
00010000
00000000
,
00011000
00000000
00000000
00000110
,
00000000
00000000
00000000
00000000
,
00000100
00001000
00000100
00001000
,
00000010
00000000
00000100
00000000
,
00000001
00010000
00000001
00010000
,
00001000
00010000
00001000
00010000
,
00100000
01000000
00100000
00000000
,
00011000
00000000
00001000
00000000
,
00010000
00000000
00000010
00000000
,
00000220
00000000
00000000
00000330
,
00000010
00000001
00000010
00000001
,
00010000
00000100
00010000
00000100
,
00010000
00001000
01000000
00100000
,
01000000
00100000
01000000
00000000
,
10010000
00000000
10010000
00000000
,
10001000
00000000
10001000
00000000
,
00010000
00001000
00010000
00001000
,
00000010
00000100
00000001
00001000
,
00000002
00000000
00000000
00000000
,
00001003
00000000
00000010
00000000
,
00010000
00001000
00100000
01000000
,
10000000
00000000
00100000
00000000
,
10000000
00010000
00100000
00010000
,
10000000
00000000
01000000
00000000
,
00100000
00000000
00001000
00010000
,
00001000
00000000
00010000
00000000
,
00000110
00000000
00000000
00000000
,
00000010
00000100
00000010
00000100
,
00000010
00000100
00000010
00000100
,
00000001
00001000
00000001
00001000
,
00000010
00000100
00000010
00000100
,
00000001
00010000
00000001
00010000
,
00001000
01000000
00001000
01000000
,
00001000
00100000
01000000
00100000
,
02000000
00000000
00000000
00000000
,
13000000
01000000
00100000
00010000
,
01000000
00000000
01000000
00000000
,
00001000
00010000
00000010
00000100
,
00000001
00000000
00000001
00000000
,
00000010
00000100
00010000
00001000
,
00100000
00000000
00100000
00000000
,
01000000
10000000
00100000
01000000
,
00002000
00000000
00000000
00000000
,
00013000
00001000
00010000
00000000
,
00000100
00000010
00000001
00000010
,
00000100
00000000
00010000
00000000
,
00001000
00100000
01000000
10000000
,
00010000
10000000
00010000
00000000
,
01000000
00100000
01000000
00001000
,
00010000
00001000
00010000
00000010
,
00000100
00000010
00000100
00000000
,
00000001
00000010
00000001
00000010
,
00000100
00010000
00000100
00010000
,
00001000
00010000
00001000
00010000
,
01000000
00100000
01000000
00000000
,
00010000
10000000
00010000
10000000
,
00001000
00010000
00001000
00010000
,
00011000
00000000
00011000
00000000
,
00000110
00000000
00000000
00000000
,
00000220
00000000
00000000
00000330
,
00002002
00000000
00000000
00000000
,
00000000
00000000
00000000
00000000
,
00000000
00000000
00000000
00000000
,
00003003
00000000
00000000
00000000
;

//---------------dance-double - ----------------
#NOTES:
     dance-double:
     :
     Medium:
     10:
     0.468,0.515,0.207,0.095,0.000:
10000000
01000000
00100000
00010000
,
10000000
00000000
00001000
01000000
00000000
00001000
00010000
00000000
,
00000010
00000100
00000001
00001000
,
00001002
00000000
00000000
00000000
,
00001003
00000000
00000010
00000000
00000100
00000000
00000001
00001000
,
00000000
00001000
00000000
00000100
00000000
00000100
00000000
00000000
,
00010000
00001000
00000000
00010000
00001000
00000000
00100000
01000000
,
00000000
00100000
01000000
00000000
10000000
00010000
10000000
00000000
,
01000000
00000000
00100000
00000000
00001000
00000000
00010000
00000010
,
00000000
00000010
00000000
00000100
00000000
00000100
00000000
00000000
,
00000001
00001000
00000000
00000001
00001000
00000000
00000100
00010000
,
00000000
00000100
00010000
00000000
00001000
00010000
00001000
00000000
,
00100000
00000000
01000000
00000000
10000000
00000000
00010000
01000000
,
00000000
01000000
00000000
00001000
00000000
00001000
00000000
00000000
,
00010000
00001000
00000000
00010000
00001000
00000000
00010000
00000010
,
00000000
00010000
00000010
00000000
00000100
00000010
00000100
00000000
,
00000001
00000000
00000010
00000000
00000100
00000000
00010000
00001000
,
00000000
00001000
00000000
00100000
00000000
00100000
00000000
00000000
,
01100000
00000000
00000000
01100000
00000000
00000000
11000000
00000000
,
00000000
11000000
00000000
00000000
01000000
10000000
00010000
00000000
,
01000000
00010000
01000000
00000000
00001000
00010000
00000010
00000100
,
00000000
00000100
00000000
00000010
00000000
00000010
00000000
00000000
,
00010000
00000100
00000000
00010000
00000001
00000000
00010000
00000100
,
00000000
00010000
00000001
00000000
00000100
00000010
00000100
00000000
,
00000001
00001000
00000100
00000000
00010000
00001000
00010000
00100000
,
00000000
00100000
00000000
01000000
00000000
01000000
00000000
00000000
,
10000000
00010000
00000000
10000000
00010000
00000000
01100000
00000000
,
00000000
01100000
00000000
00000000
00100000
01000000
00100000
00000000
,
10000000
00010000
00100000
00000000
00010000
00000000
10000000
00000000
,
01000000
00100000
00001000
00000000
00010000
00000000
00000100
00000000
,
00000010
00000001
00000000
00001000
00000001
00000000
00000010
00000001
,
00000000
00001000
00000001
00000000
00000010
00000100
00000010
00000000
,
00000001
00001000
00000100
00000000
00001100
00000000
00010100
00000000
,
00010000
00001000
01000000
00000000
01001000
00000000
01100000
00000000
,
00100000
01000000
10000000
00010000
00000000
01000000
00100000
10000000
,
01000000
11000000
10001000
00011000
,
00020010
00000000
00000000
00000000
,
00030010
00000000
00001000
00000001
00000000
00000001
00000000
00000001
,
00000000
00000010
00000100
00000010
00000001
00000100
00000001
00000000
,
00000110
00000010
00000100
00010000
,
00001000
01000000
00001000
01000000
00100000
10000000
01000000
00000000
,
00100000
00000000
00001000
10000000
00000000
10000000
00000000
10000000
,
00000000
00100000
01000000
00100000
10000000
01000000
00100000
00000000
,
01100000
01000000
00100000
00001000
,
00022000
00000000
00000000
00033000
,
00010000
00000000
00001000
00010000
00000000
00000010
00000000
00010000
,
00001000
00000000
00100000
01000000
00000000
10000000
00010000
10000000
,
01000000
00000000
00100000
00001000
00000000
00010000
00000000
00001000
,
00100000
00010000
00001000
00011000
,
00010000
00000000
00000100
00000010
00000000
00000001
00000000
00000100
,
00000010
00000000
00001000
00000001
00000000
00001000
00000001
00000010
,
00000001
00000000
00000010
00000100
00000000
00010000
00000000
00001000
,
00020000
00000000
00000000
00030000
,
00011000
00000000
00001000
00000000
00100000
01000000
00100000
01000000
,
10000000
00000000
00010000
00000000
10000000
00000000
00100000
01000000
,
00001000
00000000
00010000
00000000
00000100
00000010
00000100
00000010
,
00000001
00000000
00001000
00000000
00000100
00000000
00010000
00001000
,
01000000
00100000
01000000
00100000
01000000
00010000
00100000
00000000
,
00001000
00000000
00010000
00000000
00000100
00000000
00000010
00000100
,
00000010
00000001
00000010
00000001
00000010
00000001
00001000
00000000
,
00002002
00000000
00000000
00003003
,
00000100
00000010
00000100
00000000
00010000
00000000
00001000
10000000
,
00000000
10000000
00000000
01000000
00000000
01000000
00100000
00000000
,
00001000
00010000
00000000
00001000
00010000
00000000
00000100
00000010
,
00000000
00000100
00000010
00000000
00000001
00000100
00000001
00000000
,
00000010
00000100
00001000
00000000
00010000
00000000
00001000
01000000
,
00000000
01000000
00000000
00100000
00000000
00100000
10000000
00000000
,
01000000
00100000
00000000
01000000
00100000
00000000
00010000
10000000
,
00000000
00010000
10000000
00000000
00001000
00010000
00001000
00010000
,
00000010
00000000
00000100
00000000
00000001
00000010
00000100
00001000
,
00000001
00000100
00000010
00010000
,
00011000
00000000
00001000
00000000
01000000
00100000
10000000
01000000
,
00100000
00010000
20000000
00000000
,
30100000
01000000
00001000
00000000
00010000
00001000
00010000
00001000
,
00000100
00000010
00000001
00000000
00000100
00000010
00010000
00001000
,
00100000
01000000
00000000
10000000
00100000
00000000
01000000
00100000
,
00000000
01000000
00010000
00000000
10010000
00000000
00101000
00000000
,
00022000
00000000
00000000
00033000
,
00000220
00000000
00000000
00000000
,
00000000
00000000
00000000
00000000
,
00000000
00000000
00000000
00000000
,
00000330
00000000
00000000
00000000
;

//---------------dance-double - ----------------
#NOTES:
     dance-double:
     :
     Hard:
     14:
     0.637,0.805,0.127,0.119,0.143:
10000000
00010000
00100000
01000000
10000000
00010000
00100000
01000000
,
10000000
00000000
00001000
00000000
01000000
00000000
00001000
00001000
,
00010000
00000010
00000100
00000001
00010000
00000010
00000100
00000001
,
00020000
00000000
00000000
00000000
,
00030001
00000010
00000100
00001000
00000001
00000010
00000100
00001000
,
00000000
00000010
00000000
00010000
00000000
00001000
00010000
00001000
,
10000000
10000000
00100000
10000000
10000000
00010000
10000000
10000000
,
00010000
10000000
10000000
00100000
10000000
01000000
00100000
00001000
,
00010000
00000010
00000100
00000001
00010000
00000010
00000100
00000001
,
00000000
00010000
00000000
00000010
00000000
00010000
00001000
00100000
,
01000000
01000000
10000000
00010000
00010000
10000000
01000000
01000000
,
10000000
00010000
00010000
10000000
00100000
01000000
00100000
10000000
,
01000000
00100000
00010000
10000000
01000000
00100000
00010000
10000000
,
00000000
00100000
00000000
01000000
00000000
00001000
00010000
00001000
,
00010000
00010000
00000010
00001000
00001000
00000001
00010000
00010000
,
00000010
00001000
00001000
00000001
00000100
00000010
00000100
00000001
,
00000010
00000100
00001000
00000001
00000010
00000100
00001000
00000001
,
00000000
00010000
00000000
00001000
00000000
00100000
01000000
10000000
,
10100000
00100000
00000000
01100000
01000000
00000000
10001000
00001000
,
00000000
00011000
00010000
00000000
00000010
00000100
00000020
00000000
,
00001030
00000100
00000001
00000100
00001000
00000100
00000001
00000100
,
00000000
00001000
00000000
00000100
00000000
00010000
00001000
01000000
,
00100000
00100000
10000000
00010000
00010000
10000000
00100000
00100000
,
10000000
00010000
00010000
10000000
01000000
00100000
01000000
10000000
,
00010000
00100000
10000000
00100000
00010000
00100000
10000000
00100000
,
00000000
00010000
00000000
01000000
00000000
00001000
00010000
00000100
,
00000010
00000000
00000000
00000000
00000110
00000000
00000000
00000000
00000101
00000000
00000000
00000101
00000000
00000000
00000001
00000000
,
00001000
00000000
00000100
00000000
00000000
00001000
00000000
00000000
00010000
00000000
00100000
00000000
01000000
00000000
00100000
00000000
,
00010000
10000000
00100000
10000000
00100000
10000000
00100000
10000000
,
00001000
00100000
00001000
00100000
00001000
00100000
00001000
00100000
,
00010000
00001000
00010000
00001000
00010000
00001000
00010000
00001000
,
00000100
00000010
00000100
00000010
00000100
00000010
00000100
00000000
,
00001000
00000000
00000001
00000100
00000001
00000000
00000100
00000010
00000100
00000000
00000001
00001000
00000001
00000000
00000000
00000000
,
00010000
00000000
00001000
00100000
00001000
00000000
01000000
00100000
01000000
00000000
00010000
10000000
00010000
00000000
00000000
00000000
,
10000000
01000000
10000000
00000000
00010000
10000000
00010000
00000000
01000000
00100000
01000000
00000000
00001000
00100000
00001000
00000000
,
00010000
00000000
00000000
00000100
00000000
00000000
00000010
00000000
00000000
00000000
00000000
00000000
00000100
00000000
00000000
00000010
00000000
00000000
00000001
00000000
00000000
00000000
00000000
00000000
00000100
00000000
00000000
00000000
00000010
00000000
00000000
00000000
00000100
00000000
00000000
00000000
00000010
00000000
00000000
00000000
00010000
00000000
00000000
00000000
00000100
00000000
00000000
00000000
,
00020000
00002000
00000000
00033000
,
00011000
00000000
00001000
10000000
00000000
01000000
00000000
00100000
,
00000000
00001000
10000000
00100000
10000000
00001000
00010000
00000100
,
00000010
00000001
00000100
00000001
,
00000010
00000100
00001000
00010000
00001000
00100000
01000000
00000000
,
10010000
00000000
00010000
10000000
00000000
01000000
00000000
00100000
,
00000000
00001000
00010000
00000100
00000010
00000001
00000010
00000100
,
00001100
00000100
00010000
00001000
,
02200000
00000000
00000000
03300000
,
01100000
00000000
00100000
01000000
00000000
00010000
00000000
10000000
,
01000000
00000000
00100000
00001000
00000000
00010000
00000010
00000100
,
00000010
00000000
00001000
00000001
00000000
00000010
00000000
00000001
,
00001000
00000000
00000010
00000100
00000001
00010000
00001000
00100000
,
01100000
00000000
01000000
10000000
00000000
00100000
00000000
10000000
,
01000000
00000000
00100000
00001000
00000000
00010000
00000100
00000010
,
00000001
00000000
00000100
00000010
00000000
00010000
00000000
00001000
,
00200000
02000000
00000000
03300000
,
10000000
01000000
00010000
01000000
10000000
01000000
00010000
01000000
,
10000000
00000000
00010000
00000000
00100000
00000000
00010000
00001000
,
00000001
00000010
00001000
00000010
00000001
00000010
00001000
00000010
,
00000001
00000000
00000010
00000000
00000100
00010000
00001000
00001000
,
00001000
00100000
10000000
00100000
00001000
00100000
10000000
00100000
,
00001000
00000000
00010000
00000000
00000010
00000000
00000100
00000001
,
00001000
00000100
00000001
00000100
00001000
00000100
00000001
00000100
,
00002000
00000000
00000000
00003000
,
00000100
00000010
00000001
00000100
00000001
00000010
00000100
00001000
,
00000000
00010000
00000000
01000000
00000000
00100000
10000000
01000000
,
00200000
00010000
00310000
02000000
00100000
03100000
20000000
00100000
,
30100000
02000000
00001000
03001000
00010000
00001000
00010000
00000010
,
00000100
00000001
00000010
00001000
00000010
00000001
00000100
00000010
,
00000000
00001000
00000000
00010000
00000000
01000000
00100000
01000000
,
00010000
00000000
00000000
00000000
10010000
00000000
00000000
00000000
10000000
00000000
00000000
00010000
00000000
00000000
10000000
00000000
,
01000000
00000000
00100000
00000000
00000000
00100000
00000000
00000000
00100000
00000000
00001000
00000000
00010000
00000000
00000001
00000000
,
00000010
00000100
00000010
00000100
00000010
00000100
00000010
00000100
,
00010000
00000010
00010000
00000010
00010000
00000010
00010000
00000010
,
00001000
00010000
00001000
00010000
00001000
00010000
00001000
00010000
,
01000000
00100000
01000000
00100000
01000000
00100000
01000000
00000000
,
00010000
00000000
10000000
01000000
10000000
00000000
00010000
10000000
00010000
00000000
01000000
00010000
01000000
00000000
00000000
00000000
,
00001000
00000000
00010000
00001000
00010000
00000000
00000001
00000100
00000001
00000000
00000010
00000100
00000010
00000000
00000000
00000000
,
00000001
00000010
00000001
00000000
00010000
00000010
00010000
00000000
00001000
00010000
00001000
00000000
01000000
00100000
01000000
00000000
,
00010000
00000000
00000000
00100000
00000000
00000000
01000000
00000000
00000000
00000000
00000000
00000000
00100000
00000000
00000000
01000000
00000000
00000000
10000000
00000000
00000000
00000000
00000000
00000000
00100000
00000000
00000000
00000000
01000000
00000000
00000000
00000000
00100000
00000000
00000000
00000000
01000000
00000000
00000000
00000000
00001000
00000000
00000000
00000000
00010000
00000000
00000000
00000000
,
00000010
00000000
00000110
00000000
00000100
00000010
00000100
00000001
,
00002002
00000000
00000000
00000000
,
00000000
00000000
00000000
00000000
,
00000000
00000000
00000000
00000000
,
00003003
00000000
00000000
00000000
;

//---------------dance-single - ----------------
#NOTES:
     dance-single:
     :
     Beginner:
     3:
     0.153,0.155,0.056,0.000,0.000: // measure 1
0001
0000
1000
0000
,  // measure 2
0001
0000
0000
0000
,  // measure 3
1000
0000
0001
0000
,  // measure 4
1000
0000
0000
0000
,  // measure 5
0010
0000
0010
0000
,  // measure 6
0010
0000
0000
0000
,  // measure 7
0100
0000
0010
0000
,  // measure 8
0100
0000
0010
0000
,  // measure 9
0100
0000
0100
0000
,  // measure 10
0100
0000
0000
0000
,  // measure 11
0001
0000
1000
0000
,  // measure 12
0001
0000
1000
0000
,  // measure 13
0001
0000
0001
0000
,  // measure 14
0001
0000
0000
0000
,  // measure 15
1000
0000
0100
0000
,  // measure 16
1000
0000
0100
0000
,  // measure 17
1000
0000
1000
0000
,  // measure 18
1000
0000
0000
0000
,  // measure 19
0010
0000
0000
0000
,  // measure 20
0000
0000
0000
0000
,  // measure 21
0100
0000
0010
0000
,  // measure 22
0100
0000
0000
0000
,  // measure 23
0001
0000
0001
0000
,  // measure 24
0001
0000
0001
0000
,  // measure 25
1000
0000
0100
0000
,  // measure 26
1000
0000
0000
0000
,  // measure 27
0010
0000
0010
0000
,  // measure 28
0010
0000
0000
0000
,  // measure 29
1000
0000
0100
0000
,  // measure 30
0010
0000
0001
0000
,  // measure 31
1000
0000
0100
0000
,  // measure 32
0010
0000
0001
0000
,  // measure 33
1000
0000
1000
0000
,  // measure 34
0001
0000
0001
0000
,  // measure 35
1000
0000
0100
0000
,  // measure 36
0010
0000
0001
0000
,  // measure 37
1000
0000
0000
0000
,  // measure 38
1001
0000
0001
0000
,  // measure 39
0001
0000
0000
0000
,  // measure 40
0100
0000
0000
0000
,  // measure 41
0010
0000
0000
0000
,  // measure 42
1000
0000
1000
0000
,  // measure 43
1000
0000
0000
0000
,  // measure 44
0010
0000
0000
0000
,  // measure 45
0110
0000
0000
0000
,  // measure 46
0100
0000
0001
0000
,  // measure 47
0100
0000
0001
0000
,  // measure 48
0100
0000
0001
0000
,  // measure 49
0100
0000
0001
0000
,  // measure 50
1000
0000
0100
0000
,  // measure 51
1000
0000
0100
0000
,  // measure 52
1000
0000
0100
0000
,  // measure 53
0010
0000
0000
0000
,  // measure 54
1001
0000
0001
0000
,  // measure 55
0001
0000
0000
0000
,  // measure 56
1000
0000
1000
0000
,  // measure 57
1000
0000
0000
0000
,  // measure 58
0001
0000
0100
0000
,  // measure 59
0001
0000
0000
0000
,  // measure 60
1000
0000
0010
0000
,  // measure 61
1000
0000
0000
0000
,  // measure 62
1001
0000
0001
0000
,  // measure 63
0001
0000
0000
0000
,  // measure 64
1000
0000
0100
0000
,  // measure 65
0010
0000
0001
0000
,  // measure 66
1000
0000
1000
0000
,  // measure 67
1000
0000
0000
0000
,  // measure 68
0001
0000
0010
0000
,  // measure 69
0100
0000
1000
0000
,  // measure 70
0001
0000
0001
0000
,  // measure 71
1000
0000
1000
0000
,  // measure 72
0100
0000
0100
0000
,  // measure 73
1000
0000
1000
0000
,  // measure 74
0010
0000
0010
0000
,  // measure 75
0010
0000
0010
0000
,  // measure 76
0110
0000
0000
0000
,  // measure 77
1000
0000
0000
0000
,  // measure 78
1001
0000
0000
0000
,  // measure 79
1001
0000
0000
0000
;
