#TITLE:I wish;
#SUBTITLE:-tri.Version-;
#ARTIST:AiM;
#TITLETRANSLIT:;
#SUBTITLETRANSLIT:;
#ARTISTTRANSLIT:;
#CREDIT:DigiMindAxel;
#BANNER:I wish -tri.Version-.png;
#BACKGROUND:I wish -tri.Version--bg.png;
#LYRICSPATH:I wish -tri.Version-.lrc;
#CDTITLE:DigiMindAxel original simfile.png;
#MUSIC:I wish -tri.Version-.ogg;
#METERTYPE:DDR X;
#OFFSET:-1.006;
#SAMPLESTART:54.935;
#SAMPLELENGTH:12.000;
#SELECTABLE:YES;
#DISPLAYBPM:134.000;
#BPMS:0.000=134.000,48.000=67.000,52.000=134.000;
#STOPS:;
#BGCHANGES:-1.000=I wish -tri.Version-.avi=1.000=1=1=0,
99999=-nosongbg-=1.000=0=0=0 // don't automatically add -songbackground-
;

//---------------dance-single - ----------------
#NOTES:
     dance-single:
     :
     Easy:
     5:
     0.214,0.269,0.111,0.067,0.000:
0000
0000
0000
0000
,
0000
0000
0000
0000
,
0000
0000
0000
0000
,
0000
0000
0000
0000
,
0001
1000
0001
0000
,
0010
0001
0100
0000
,
0010
1000
0100
0000
,
1000
0100
0010
0000
,
0002
0000
1000
0000
,
1003
0001
1000
0000
,
0200
0000
0010
0000
,
0310
0001
0010
0000
,
2002
0000
0000
0000
0000
0000
0000
3003
,
0001
0001
0001
0000
,
1000
1000
1000
0000
,
0100
0100
0100
0000
,
0010
0010
0010
0000
,
0001
0001
0001
0000
,
1000
1000
1000
0000
,
0010
0010
0010
0000
,
0100
0100
0100
0000
,
0110
0000
0110
0000
,
1001
0000
1001
0000
,
0110
0000
0110
0000
,
1001
0000
1001
0000
,
0001
1000
0100
0000
,
1000
0001
0010
0000
,
0001
0010
0100
0000
,
0010
0001
1000
0001
,
0000
0000
0000
0000
,
1000
0100
1000
0000
,
0001
1000
0001
0000
,
0100
0001
0100
0000
,
0001
1000
0001
0000
,
0010
0100
0010
0000
,
0001
0010
0001
0000
,
1000
0100
1000
0000
,
0010
0100
0010
0100
,
0001
0100
0001
0000
,
1000
0100
1000
0000
,
0100
0010
0100
0000
,
1000
0010
0100
0000
,
0001
0010
0100
0000
,
0010
0100
1000
0000
,
0001
0100
0010
0000
,
1000
0001
1000
1000
,
2002
0000
0000
0000
,
0000
0000
0000
0000
,
0000
0000
3003
0000
;

//---------------dance-single - ----------------
#NOTES:
     dance-single:
     :
     Medium:
     7:
     0.335,0.350,0.144,0.122,0.000:
0000
0000
0000
0000
,
0000
0000
0000
0000
,
0000
0000
0000
0000
,
0000
0000
0000
0000
,
1001
0100
0010
0001
,
1000
0010
0100
0000
0001
1000
0001
0000
,
1000
0100
0010
0001
,
0100
0000
0001
0000
1000
0010
1000
0000
,
0001
0000
1000
0100
0000
0100
0000
1001
,
0000
0010
0000
0100
0000
1000
0001
1000
,
0100
1000
0100
0010
,
0001
0001
0001
0000
1000
0000
1100
0000
,
0220
0000
0000
0000
0000
0000
0000
0330
,
0010
0010
0010
0010
,
0100
0100
0100
0100
,
0010
0010
0010
0010
,
0100
0100
0100
0100
,
1001
0001
0001
0001
,
1000
1000
1000
1000
,
0001
0001
0001
0001
,
1000
1000
1000
1000
,
1020
0000
0130
0100
,
1002
0000
0013
0010
,
2100
0000
3001
0001
,
0210
0000
0310
0010
,
1000
0000
0100
0010
0001
0000
0001
0000
,
1000
0000
0010
0100
0001
0000
0001
0000
,
1000
0001
0010
0100
,
1000
1000
0010
0000
0100
0010
0100
0010
,
0000
0000
0000
0110
,
1002
0100
1000
0103
,
0001
0000
1000
0100
1000
0000
0010
0100
,
0001
0000
0010
0000
0100
1000
0100
1000
,
0010
0000
0100
0000
0010
0100
0001
0000
,
2001
0100
0001
3100
,
1000
0000
0010
0100
0010
0000
1000
0001
,
0020
0001
0100
0031
,
1000
1000
0001
0000
1000
0001
0100
0000
,
1002
0100
1000
0103
,
0001
0000
0010
0100
0010
0000
0001
1000
,
0010
0000
1000
0000
0001
0000
0010
0100
,
1000
0000
0001
0000
0100
0010
0100
0000
,
0001
0000
1000
0100
0000
0100
0000
1000
,
0000
0001
0000
0010
0000
0100
0000
0000
,
1000
0010
1000
0000
0100
0000
0010
0000
,
0001
0001
1000
0000
0100
1000
0100
1000
,
0020
0000
0000
0000
,
0000
0000
0000
0000
,
0000
0000
0030
0000
;

//---------------dance-single - ----------------
#NOTES:
     dance-single:
     :
     Hard:
     9:
     0.419,0.458,0.089,0.200,0.056:
0000
0000
0000
0000
,
0000
0000
0000
0000
,
0000
0000
0000
0000
,
0000
0000
0000
0000
,
2001
0001
0100
3100
,
1000
0001
0010
1000
0010
0001
0100
0001
,
1000
0000
0100
0010
0100
0010
0001
1000
,
0001
0000
0100
0000
0001
1000
0010
1000
,
0002
0000
1000
1000
0000
1003
0000
0001
,
0000
0010
0000
0100
0000
1000
0001
0100
,
0001
2000
0000
0000
0000
0000
0001
0000
,
3001
1000
1000
0010
0010
1000
0001
0010
,
0022
0000
0000
0000
0000
0000
0000
0033
,
0001
0010
0001
0010
,
0100
1000
0100
1000
,
0001
0100
0001
0100
,
0010
1000
0010
1000
,
0110
0010
0100
0110
,
1000
0100
1000
1100
,
1000
0001
1000
1001
,
0010
0100
0100
0000
0010
0100
0010
0010
,
1000
0000
0000
1000
0000
0000
1000
0000
0020
0000
0000
0000
0230
0000
0000
0000
,
0301
0000
0000
0001
0000
0000
0001
0000
0020
0000
0000
0000
0230
0000
0000
0000
,
1300
0000
0000
1000
0000
0000
1000
0000
0200
0000
0000
0000
0320
0000
0000
0000
,
0031
0000
0000
0001
0000
0000
0001
0000
0020
0000
0000
0000
0230
0000
0000
0000
,
0310
0000
0000
0010
0000
0000
0001
0000
1000
0000
0000
1000
0000
0000
1000
0000
,
0100
0000
0000
0100
0000
0000
1000
0000
0010
0000
0000
0010
0000
0000
0010
0000
,
1000
0000
0000
1000
0000
0000
1000
0000
0100
0000
1000
0000
0001
0000
0010
0000
,
0200
1000
0000
1000
0000
1300
0001
0010
,
0000
0000
0000
1001
,
0100
0010
0100
0010
1000
0100
0010
0000
,
0001
0010
0001
1000
0010
0001
0010
1000
,
0001
0000
1000
0100
1000
0100
0010
0001
,
0000
0001
1000
0001
0010
1000
0010
0001
,
1000
0010
1000
0010
0100
0001
0010
0000
,
0100
1000
0100
1000
0010
0001
0010
1000
,
0002
1000
1000
1003
,
0001
0001
1000
1000
0010
0100
0001
0100
,
0001
1000
0001
1000
0010
0100
0001
0000
,
0010
0100
0010
0100
1000
0001
0100
0001
,
1000
0000
0100
0010
0100
1000
0001
0100
,
0001
0000
1000
0000
0100
0100
1000
1000
,
0002
0000
0100
0100
0000
0103
0000
0001
,
0000
1000
0000
0100
0000
0010
0100
1000
,
0010
0100
0010
0000
1000
0001
0010
0000
,
0100
0000
0100
0000
1000
0000
1000
0000
0010
0100
0010
0000
1000
0000
0010
0000
,
0220
0000
0000
0000
,
0000
0000
0000
0000
,
0000
0000
0330
0000
;

//---------------dance-single - ----------------
#NOTES:
     dance-single:
     :
     Challenge:
     12:
     0.514,0.647,0.167,0.056,0.244:
0000
0000
0000
0000
,
0000
0000
0000
0000
,
0000
0000
0000
0000
,
0000
0000
0000
0000
,
1000
0000
0001
0100
0001
0000
1000
0001
1000
0000
0100
0000
0010
0000
0001
0000
,
0100
0001
0001
1000
1000
0010
0100
0001
,
0010
0000
0001
1000
1000
0001
0001
0100
,
0010
0000
0000
0000
1000
0000
0001
0000
1000
0001
1000
0000
0001
0000
0001
0000
,
1000
0100
0001
0100
1000
0001
0000
0001
,
1000
0100
1000
0010
1000
0001
1000
0100
,
0010
0000
0001
0000
0100
0000
0000
0000
0010
0000
1000
0000
0100
0000
0000
1000
,
0001
0000
0001
0000
0001
0000
1000
0001
1000
0000
0100
1000
0100
0000
0100
0000
,
2002
0000
0000
0000
0000
0000
0000
3003
,
1000
0100
0001
0100
,
1000
0010
0001
0010
,
1000
0010
0001
0010
,
1000
0000
0100
0000
0001
0000
0100
1000
,
0001
0000
0100
0000
0010
0000
1000
0100
,
0010
0000
0001
0000
1000
0000
0010
0100
,
0001
1000
0100
0010
,
0001
0000
1000
0000
1000
0000
0000
0000
0000
0000
0001
1000
0001
0000
0000
0000
,
0101
0000
0000
0101
0000
0000
0101
0000
1000
0001
1000
0001
1000
0000
0100
0000
,
0011
0000
0000
0011
0000
0000
0011
0000
0100
0010
0100
0010
0100
0000
0001
0000
,
1100
0000
0000
1100
0000
0000
1100
0000
0000
0000
0010
0100
0010
0000
1000
0000
,
1010
0000
0000
1010
0000
0000
1010
0000
0100
0010
0100
0010
0100
0000
0001
1000
,
0001
0000
0000
0100
0001
0000
0000
0001
1000
0000
0000
1000
0100
0000
0000
0000
,
0010
0000
0000
0010
0001
0000
0000
0001
0100
0000
0000
0100
0010
0000
0000
0000
,
1000
0000
0000
1000
0100
0000
0000
0100
0010
0000
0000
0010
0001
0000
0000
0000
,
0100
0000
0010
0000
1000
0010
1000
0000
0100
0000
0010
0000
0001
1000
0010
0000
,
0000
0000
0000
1001
,
0001
0000
1000
0100
1000
0000
0001
1000
0001
0000
0010
0000
0100
0000
1000
0000
,
0001
0100
0100
0010
0010
1000
0100
0010
,
0100
0000
1000
0010
0001
0010
1000
0100
,
0000
0000
1000
0000
1000
0000
0001
0000
0001
0010
0100
0000
1000
0000
0010
0100
,
0010
0000
1000
0100
1000
0000
0001
1000
0001
0000
0010
0000
0100
0000
1000
0000
,
0001
1000
1000
0001
0001
0100
0010
1000
,
0200
0000
0000
0000
0010
0000
0000
0000
0001
0000
0000
0000
0310
0000
1000
0100
,
0010
0000
0010
0000
0001
0000
0001
0000
1000
0001
1000
0000
1000
0000
0001
0000
,
0100
0000
0010
1000
0010
0000
1000
0001
1000
0000
0100
0000
0010
0000
0001
0000
,
1000
0010
0010
1000
1000
0010
0001
0010
,
1000
0000
0001
0100
0100
0010
0010
1000
,
0100
0000
0010
0000
0100
0000
0000
0000
1000
0100
1000
0000
1000
0000
0010
0100
,
0001
0100
1000
0100
0001
0010
0000
0100
,
1000
0010
0100
0001
0010
1000
0010
0001
,
1000
0000
0100
0000
1000
0000
0000
0000
0100
0000
0010
0000
0001
0000
0100
0010
,
1000
0000
1000
0000
0100
0000
0100
0000
1000
0010
0100
0000
0100
0000
0001
0000
,
2002
0000
0000
0000
,
0000
0000
0000
0000
,
0000
0000
3003
0000
;

//---------------dance-double - ----------------
#NOTES:
     dance-double:
     :
     Easy:
     5:
     0.214,0.269,0.122,0.056,0.000:
00000000
00000000
00000000
00000000
,
00000000
00000000
00000000
00000000
,
00000000
00000000
00000000
00000000
,
00000000
00000000
00000000
00000000
,
10000000
01000000
10000000
01000000
,
00100000
00000000
00001000
00000000
,
00010000
00000010
00000100
00000000
,
00000001
00000010
00000001
00000010
,
00000100
00010000
00001000
00000000
,
00100000
01000000
00100000
01000000
,
00200000
00000000
01000000
00000000
,
01300000
00010000
10000000
00000000
,
20020000
00000000
00000000
00000000
00000000
00000000
00000000
30030000
,
10000000
00000000
10000000
00000000
,
01000000
00000000
01000000
00000000
,
00100000
00000000
00100000
00000000
,
00010000
00000000
00010000
00000000
,
00011000
00000000
00001000
00000000
,
00000010
00000000
00000010
00000000
,
00000100
00000000
00000100
00000000
,
00000001
00000000
00000001
00000000
,
00001001
00000000
00001001
00000000
,
00000110
00000000
00000110
00000000
,
00011000
00000000
00011000
00000000
,
01100000
00000000
01100000
00000000
,
10000000
00010000
10000000
00000000
,
00010000
10000000
00010000
00000000
,
01000000
00100000
10000000
00000000
,
01000000
00100000
01000000
00100000
,
00000000
00000000
00000000
00000000
,
00010000
00001000
00010000
00001000
,
00000010
00000000
00000100
00000000
,
00000001
00001000
00000001
00000000
,
00010000
00001000
00010000
00001000
,
00100000
01000000
00100000
00000000
,
00010000
00100000
00010000
00100000
,
01000000
10000000
00100000
00000000
,
01000000
01000000
01000000
01000000
,
00001000
00100000
00001000
00010000
,
00000100
00000000
00000010
00000000
,
00000001
00000010
00000001
00000100
,
00000010
00000000
00001000
00000000
,
00010000
00100000
01000000
10000000
,
00010000
00100000
01000000
10000000
,
00001000
00010000
00000010
00000100
,
00000010
00000010
00000010
00000010
,
00002002
00000000
00000000
00000000
,
00000000
00000000
00000000
00000000
,
00000000
00000000
00003003
00000000
;

//---------------dance-double - ----------------
#NOTES:
     dance-double:
     :
     Medium:
     8:
     0.346,0.377,0.189,0.089,0.000:
00000000
00000000
00000000
00000000
,
00000000
00000000
00000000
00000000
,
00000000
00000000
00000000
00000000
,
00000000
00000000
00000000
00000000
,
10010000
10000000
00010000
00100000
,
01000000
10000000
00001000
00000000
00010000
00001000
00010000
00000000
,
00000010
00000100
00000001
00001000
,
00000001
00000000
00000010
00000000
00000100
00001000
00000100
00001000
,
00000010
00000000
00010000
00001000
00000000
00001000
00000000
00100000
,
00000000
01000000
00000000
10000000
00000000
00010000
01000000
00000000
,
00002000
00010000
00013000
00000100
,
00000010
00000001
00000010
00000001
00000100
00000000
00000101
00000000
,
00000220
00000000
00000000
00000000
00000000
00000000
00000000
00000330
,
00000001
00000001
00000001
00000001
,
00001000
00001000
00001000
00001000
,
00000001
00000001
00000001
00000001
,
00001000
00001000
00001000
00001000
,
00011000
00010000
00010000
00010000
,
01000000
01000000
01000000
01000000
,
00100000
00100000
00100000
00100000
,
01000000
00100000
01000000
00000000
10000000
01000000
10000000
00000000
,
11000000
00000000
11000000
01000000
,
01100000
00000000
01001000
00001000
,
00011000
00000000
00000110
00000100
,
00000101
00000000
00001001
00001001
,
00000001
00000000
00000100
00000001
00010000
00000000
00010000
00000000
,
00001000
00000000
00100000
01000000
10000000
00000000
10000000
00000000
,
01000000
10000000
00100000
01000000
,
00001000
00010000
00001000
00000000
00010000
00000010
00010000
00000001
,
00000000
00000000
00000000
00001001
,
00000210
00000010
00000010
00000310
,
00010000
00000000
00001000
00010000
00001000
00000000
00100000
01000000
,
10000000
00000000
00010000
00000000
01000000
00010000
01000000
00010000
,
10000000
00000000
01000000
00000000
00100000
00010000
00100000
00000000
,
00012000
00010000
00010000
00013000
,
00000010
00000000
00000100
00000001
00000010
00000000
00000100
00001000
,
00020000
00001000
00001000
00031000
,
01000000
00100000
01000000
00100000
10000000
00010000
10000000
00000000
,
10020000
10000000
10000000
10030000
,
00010000
00000000
00001000
00010000
00001000
00000000
00000010
00000100
,
00000001
00000000
00000100
00000000
00000010
00000000
00000100
00000001
,
00010000
00000000
00010000
00000000
00100000
01000000
00100000
01000000
,
00100000
00000000
00001000
00010000
00000000
00010000
00000000
00000010
,
00000000
00000100
00000000
00000001
00000000
00001000
00000000
00000000
,
00000010
00000100
00000010
00000000
00010000
00000000
00001000
00000000
,
01000000
00100000
01000000
00100000
10000000
01000000
00100000
01000000
,
20000000
00000000
00000000
00000000
,
00000000
00000000
00000000
00000000
,
00000000
00000000
30000000
00000000
;

//---------------dance-double - ----------------
#NOTES:
     dance-double:
     :
     Hard:
     9:
     0.414,0.458,0.122,0.133,0.028:
00000000
00000000
00000000
00000000
,
00000000
00000000
00000000
00000000
,
00000000
00000000
00000000
00000000
,
00000000
00000000
00000000
00000000
,
10020000
10000000
00100000
00130000
,
00010000
00100000
00010000
10000000
00010000
10000000
00001000
01000000
,
00001000
00000000
00010000
00000000
00000100
00000010
00000001
00000010
,
00000100
00000000
00010000
00000000
00001000
01000000
00100000
01000000
,
00002000
00000000
00010000
00010000
00000000
00013000
00000000
00000100
,
00000000
00000010
00000000
00000001
00000000
00000100
00000010
00000100
,
00000010
00020000
00000000
00000000
00000000
00000000
00001000
00000000
,
00031000
01000000
01000000
00100000
00100000
10000000
00010000
10000000
,
20020000
00000000
00000000
00000000
00000000
00000000
00000000
30030000
,
10000000
01000000
00010000
01000000
,
10000000
01000000
00010000
01000000
,
10000000
00100000
00010000
00100000
,
10000000
00100000
00010000
00100000
,
10010000
10000000
00001000
00011000
,
00010000
00000010
00000100
00000110
,
00000001
00000010
00000001
00000011
,
00010000
00001000
00001000
00000000
00100000
01000000
10000000
10000000
,
00100000
00000000
00000000
00100000
00000000
00000000
00100000
00000000
10000000
00000000
10000000
00000000
00001000
00000000
00001000
00000000
,
00010000
00000000
00000000
00010000
00000000
00000000
00010000
00000000
00000100
00000000
00000100
00000000
00000010
00000000
00000010
00000000
,
00000001
00000000
00000000
00000001
00000000
00000000
00000001
00000000
00001000
00000000
00001000
00000000
00000010
00000000
00000010
00000000
,
00010000
00000000
00000000
00010000
00000000
00000000
00010000
00000000
00001000
00000000
00001000
00000000
00100000
00000000
00100000
00000000
,
02000000
10000000
13000000
01100000
,
00002000
01000000
01003000
00011000
,
00020000
00000100
00030100
00010001
,
00000000
00000010
00000000
00000010
00000100
00000010
00000100
00000001
,
00000000
00000000
00000000
00000110
,
00000100
00000001
00000100
00000001
00000010
00001000
00000010
00000000
,
00000001
00001000
00000001
00000010
00000100
00001000
00000010
00010000
,
00001000
00000000
01000000
00100000
01000000
00100000
10000000
01000000
,
00000000
00100000
00010000
00100000
00001000
00010000
00001000
00010000
,
00000010
00000100
00000010
00000100
00000001
00000010
00001000
00000000
,
00000010
00000001
00001000
00000100
00000010
00000100
00010000
00001000
,
00200000
01000000
01000000
01300000
,
00010000
00010000
10000000
10000000
00010000
01000000
00100000
01000000
,
00001000
00010000
00001000
00010000
00000100
00000001
00000100
00000000
,
00010000
00001000
00010000
00001000
10000000
00100000
00010000
00100000
,
10000000
00000000
00010000
10000000
00010000
00100000
10000000
00100000
,
00001000
00000000
00010000
00000000
00000010
00000010
00000100
00000100
,
00000002
00000000
00001000
00001000
00000000
00001003
00000000
00000001
,
00000000
00000100
00000000
00000010
00000000
00010000
00001000
01000000
,
00100000
10000000
01000000
00000000
00100000
00010000
00001000
00000000
,
00000100
00000000
00000100
00000000
00000010
00000000
00000010
00000000
00000001
00001000
00000001
00000000
00000010
00000000
00000100
00000000
,
00020200
00000000
00000000
00000000
,
00000000
00000000
00000000
00000000
,
00000000
00000000
00030300
00000000
;

//---------------dance-double - ----------------
#NOTES:
     dance-double:
     :
     Challenge:
     12:
     0.508,0.620,0.178,0.044,0.283:
00000000
00000000
00000000
00000000
,
00000000
00000000
00000000
00000000
,
00000000
00000000
00000000
00000000
,
00000000
00000000
00000000
00000000
,
10000000
00000000
00100000
01000000
00100000
00000000
10000000
01000000
00000000
00000000
00100000
00010000
00100000
00000000
00001000
00010000
,
00000000
00000010
00000010
00000100
00000100
00000001
00000010
00000100
,
00001000
00000000
00000001
00000100
00000100
00000001
00000001
00010000
,
00001000
00000000
00000000
00000000
00100000
00000000
00000000
00000000
01000000
10000000
01000000
00000000
10000000
00000000
10000000
00000000
,
00010000
01000000
10000000
01000000
00010000
00100000
00000000
00100000
,
00001000
00010000
00000100
00000010
00000001
00001000
00000001
00000010
,
00000001
00000000
00001000
00000000
00000001
00000000
00000000
00000000
00000010
00000000
00000000
00000000
00000100
00000000
00000000
00010000
,
00001000
00000000
00001000
00000000
00001000
00000000
01000000
00010000
01000000
00000000
00100000
01000000
00100000
00000000
10000000
00000000
,
20020000
00000000
00000000
00000000
00000000
00000000
00000000
30030000
,
10000000
00100000
01000000
00001000
,
00010000
00000100
00000010
00000001
,
00000100
00000010
00010000
00001000
,
00100000
00000000
01000000
00000000
00100000
00000000
00001000
00010000
,
00011000
00000000
00001000
00000000
10000000
01000000
00100000
00000000
,
00001000
00000000
00010000
00000000
00000100
00000010
00000001
00000000
,
00000100
00000000
00000010
00000000
00010000
00001000
00010000
00000000
,
00001000
00000000
10000000
00000000
10000000
00000000
00000000
00000000
00000000
00000000
01000000
10000000
01000000
00000000
00000000
00000000
,
10100000
00000000
00000000
10100000
00000000
00000000
10100000
00000000
00001000
00010000
00001000
00010000
00001000
00000000
00000010
00000000
,
00000110
00000000
00000000
00000110
00000000
00000000
00000110
00000000
00000001
00000100
00000001
00000100
00000001
00000000
00010000
00000000
,
00011000
00000000
00000000
00011000
00000000
00000000
00011000
00000000
00000000
00000000
00100000
01000000
00100000
00000000
00000000
00000000
,
10010000
00000000
00000000
10010000
00000000
00000000
10010000
00000000
01000000
00100000
01000000
00100000
01000000
00000000
00001000
00010000
,
00001000
00000000
00000000
00010000
00000010
00000000
00000000
00000010
00000100
00000000
00000000
00000100
00000001
00000000
00000000
00000000
,
00000010
00000000
00000000
00000010
00000100
00000000
00000000
00000100
00010000
00000000
00000000
00010000
00001000
00000000
00000000
00000000
,
10000000
00000000
00000000
10000000
01000000
00000000
00000000
01000000
00100000
00000000
00000000
00100000
00010000
00000000
00000000
00000000
,
01000000
00000000
00100000
00000000
10000000
00100000
10000000
00000000
00001000
00000000
00010000
00000000
00000100
00000010
00000100
00000000
,
00000000
00000000
00000000
00001001
,
00001000
00000000
00000001
00000010
00000001
00000000
00000100
00000010
00000000
00000000
00001000
00010000
00001000
00000000
00010000
00100000
,
00000000
01000000
01000000
10000000
10000000
00100000
01000000
00010000
,
00100000
00000000
00001000
00010000
00000100
00000001
00000100
00010000
,
00000000
00000000
00000001
00000000
00000001
00000000
00001000
00000000
00001000
00000100
00000010
00000000
00000001
00000000
00000100
00000010
,
00000100
00000000
00000001
00000100
00000000
00000000
00000001
00001000
00000001
00000000
00010000
00000100
00000000
00000000
00010000
00000000
,
00001000
00100000
00100000
01000000
01000000
10000000
00010000
01000000
,
00001000
00000000
00000000
00000000
00010000
00000000
00000000
00000000
00000010
00000000
00000000
00000000
00000100
00000000
00000001
00000010
,
00000100
00000000
00000100
00000000
00010000
00000000
00010000
00000000
00001000
00010000
00001000
00000000
00001000
00000000
01000000
00000000
,
00100000
00000000
01000000
00010000
01000000
00000000
00001000
00010000
00000000
00000000
00000010
00000100
00000010
00000000
00000100
00000001
,
00000000
00000100
00000100
00000001
00000001
00000100
00001000
00000100
,
00000001
00000000
00010000
00001000
00001000
00100000
00100000
01000000
,
10000000
00000000
00000000
00000000
00010000
00000000
00000000
00000000
01000000
00100000
01000000
00000000
01000000
00000000
00100000
10000000
,
01000000
00010000
01000000
10000000
00010000
00001000
00000000
00000100
,
00000010
00000001
00001000
00000010
00010000
00001000
00010000
00001000
,
01000000
00000000
00100000
00000000
10000000
00000000
00000000
00000000
01000000
00000000
00100000
00000000
00010000
00000000
00001000
00010000
,
00001000
00000000
00001000
00000000
00010000
00000000
00010000
00000000
00000001
00000100
00000010
00000000
00000010
00000000
00010000
00000000
,
00020002
00000000
00000000
00000000
,
00000000
00000000
00000000
00000000
,
00000000
00000000
00030003
00000000
;

//---------------dance-single - ----------------
#NOTES:
     dance-single:
     :
     Beginner:
     2:
     0.106,0.153,0.133,0.000,0.000: // measure 1
0000
0000
0000
0000
,  // measure 2
0000
0000
0000
0000
,  // measure 3
0000
0000
0000
0000
,  // measure 4
0000
0000
0000
0000
,  // measure 5
1001
0000
0000
0000
,  // measure 6
0100
0000
0000
0000
,  // measure 7
0010
0000
0000
0000
,  // measure 8
0100
0000
0000
0000
,  // measure 9
1001
0000
0000
0000
,  // measure 10
0001
0000
0000
0000
,  // measure 11
0100
0000
0000
0000
,  // measure 12
0010
0000
0010
0000
,  // measure 13
0010
0000
0000
0000
,  // measure 14
1001
0000
0000
0000
,  // measure 15
1000
0000
0000
0000
,  // measure 16
1000
0000
0000
0000
,  // measure 17
1000
0000
0000
0000
,  // measure 18
1001
0000
0000
0000
,  // measure 19
0001
0000
0000
0000
,  // measure 20
0001
0000
0000
0000
,  // measure 21
0010
0000
0000
0000
,  // measure 22
0110
0000
0000
0000
,  // measure 23
1001
0000
0000
0000
,  // measure 24
0110
0000
0000
0000
,  // measure 25
1001
0000
0000
0000
,  // measure 26
0110
0000
0010
0000
,  // measure 27
0010
0000
0010
0000
,  // measure 28
0010
0000
1000
0000
,  // measure 29
0001
0000
0000
0000
,  // measure 30
0000
0000
0000
0000
,  // measure 31
1001
0000
1000
0000
,  // measure 32
0001
0000
1000
0000
,  // measure 33
0100
0000
0000
0000
,  // measure 34
0010
0000
0001
0000
,  // measure 35
0100
0000
0010
0000
,  // measure 36
0100
0000
0000
0000
,  // measure 37
0001
0000
1000
0000
,  // measure 38
0100
0000
0100
0000
,  // measure 39
1001
0000
0000
0000
,  // measure 40
0001
0000
0100
0000
,  // measure 41
0001
0000
0000
0000
,  // measure 42
1000
0000
0001
0000
,  // measure 43
0010
0000
0000
0000
,  // measure 44
0100
0000
0000
0000
,  // measure 45
1000
0000
0000
0000
,  // measure 46
0010
0000
0010
0000
,  // measure 47
0110
0000
0000
0000
;
