#TITLE:Hatcha Metcha Party;
#SUBTITLE:;
#ARTIST:kors k;
#TITLETRANSLIT:;
#SUBTITLETRANSLIT:;
#ARTISTTRANSLIT:;
#CREDIT:DigiMindAxel;
#BANNER:Hatcha Metcha Party.png;
#BACKGROUND:Hatcha Metcha Party-bg.png;
#LYRICSPATH:;
#CDTITLE:pop'n music.png;
#MUSIC:Hatcha Metcha Party.ogg;
#METERTYPE:DDR X;
#OFFSET:-10.516;
#SAMPLESTART:22.500;
#SAMPLELENGTH:12.000;
#SELECTABLE:YES;
#BPMS:0.000=200.000,232.000=100.000,248.000=200.000;
#STOPS:96.000=1.800
,135.000=1.200
;
#BGCHANGES:;

//---------------dance-single - ----------------
#NOTES:
     dance-single:
     :
     Easy:
     6:
     0.252,0.306,0.079,0.047,0.000:
0001
0000
0001
0000
,
1000
0000
1000
0000
,
0001
0000
0010
0000
,
0100
0000
1000
0000
,
0001
0000
0001
0000
,
1000
0000
1000
0000
,
0100
0000
0010
0000
,
0100
0000
0010
0000
,
2002
0000
0000
0000
,
0000
0000
3003
0000
,
0010
0010
0010
0000
,
0100
0100
0100
0000
,
0010
0010
0010
0000
,
0100
0100
0100
0000
,
0000
0110
0000
0000
,
0110
0000
1001
0000
,
0001
0000
0001
0000
,
0010
0100
1000
0000
,
0001
0001
0001
0000
,
1000
1000
1000
0000
,
0010
0010
0010
0000
,
0100
0100
0100
0000
,
0002
0000
0000
0000
,
0000
0000
0000
0000
,
1003
0000
1001
0000
,
0001
0000
0010
0000
,
0100
0000
1000
0000
,
0010
0000
0110
0000
,
0000
0110
0000
0000
,
0110
0000
0000
0000
,
0000
0000
0010
0000
,
0000
0100
0000
0000
,
0001
0000
0000
0010
,
0000
0000
0100
0000
,
1000
0001
1000
0000
,
0001
0010
0001
0000
,
1000
0100
1000
0000
,
0001
1000
0001
0000
,
0100
0010
0100
0000
,
0010
0100
0010
0000
,
1000
0001
1000
0001
,
2000
0000
0000
0000
,
3001
0010
0001
0000
,
0100
0010
0010
0010
,
1000
0001
1000
0100
,
1000
0000
0000
0000
,
0001
0100
0001
0000
,
0010
0100
1000
0010
,
0100
0001
0010
0000
,
0001
0001
0001
0001
,
1000
0100
1000
0100
,
1000
0001
1000
0000
,
0001
0010
0001
0010
,
0001
1000
0001
0000
,
0100
0010
0100
0010
,
0100
0010
0100
0010
,
1000
0001
1000
0001
,
2000
0000
0000
0000
,
3001
0000
0000
0000
,
0000
0000
0000
0000
,
0000
0000
0000
0000
,
0000
0000
0000
0000
,
1000
0000
0100
0000
,
1000
0000
0100
0000
,
0010
0000
0010
0000
,
0010
0000
0000
0000
,
0001
0000
0100
0000
,
0001
0000
0100
0000
,
0001
1000
0001
1000
,
0002
0000
0000
0000
,
1003
0000
1000
0000
,
0001
0010
0001
0000
,
0010
0000
0010
0000
,
0100
0010
0100
0000
,
1000
0000
1000
0000
,
0001
0010
0001
0000
,
1000
0000
1000
0000
,
0010
0100
0010
0000
,
0100
0001
0100
0001
,
0100
0001
0100
0001
,
1000
0001
1000
0001
,
1000
0001
1000
0000
,
0100
1000
0100
1000
,
0100
1000
0100
1000
,
0001
0000
0000
0001
0000
0000
1001
0000
,
0000
0000
0010
0010
,
0110
0000
0000
0000
;

//---------------dance-single - ----------------
#NOTES:
     dance-single:
     :
     Medium:
     10:
     0.453,0.579,0.483,0.111,0.000:
1000
0100
1000
0100
,
1000
0001
1000
0001
,
0010
0010
0100
0100
,
1000
0100
0010
0000
,
0001
0100
0001
0100
,
0001
1000
0001
1000
,
0001
0001
0100
0100
,
0010
1000
0010
0100
,
2002
0000
0000
0000
,
0000
0000
3003
0000
,
1001
0001
1001
0001
,
1001
0001
0110
0110
,
1010
1000
1010
1000
,
1010
0010
0110
0110
,
0000
0101
0101
0101
,
0101
0101
1001
0000
,
1100
0100
1100
0100
,
1001
0001
1001
0000
,
0001
0100
0001
0000
1000
0001
1000
0000
,
0100
1000
0100
0000
1001
0000
1001
0000
,
0010
0100
0010
0000
1000
0001
1000
0000
,
0001
0010
0001
0000
1001
0000
1001
0000
,
0200
0000
0000
0000
,
0000
0000
0000
0000
,
0310
0000
1002
0000
,
1003
0100
0000
0010
,
0100
1000
0001
0010
,
0001
0100
0020
0000
,
0130
0020
0000
0130
,
0020
0000
0030
2000
,
0000
0000
3001
1000
,
0001
1000
0100
1000
,
0001
0010
0100
2000
,
0000
0000
3001
0001
,
1001
0100
0010
0001
,
0110
0100
0010
0100
,
1001
0001
0010
0100
,
1001
0001
1000
0001
,
0101
0100
0110
0100
,
0101
0100
0110
0010
,
1001
1001
1100
1100
,
2002
0000
0000
3003
,
0001
0000
0010
0000
0001
1000
0001
0000
,
1000
1000
0001
0001
,
1000
0000
0010
0000
0100
0000
0001
0100
,
0002
0000
0000
0000
,
1003
0100
0010
0001
,
1000
0100
1000
0000
0100
1000
0100
0000
,
0010
0001
0010
0100
,
1000
0010
1000
0000
0001
0100
0001
0000
,
1000
0001
1000
0000
0100
1000
0100
0000
,
1000
0001
1000
0000
0001
0100
0001
0000
,
0010
0000
0100
0000
1000
0001
0100
0000
,
0001
0000
0100
0010
0100
0000
0110
0000
,
0001
1000
0001
1000
0001
1000
0001
0000
,
0100
0010
0100
0010
0100
0010
0100
0000
,
0001
0010
0100
1000
,
0002
0000
0000
0000
,
1003
0000
0000
0000
,
0001
0000
0000
0000
,
0010
0000
0000
0000
,
0100
0000
0000
0000
,
1000
0000
0001
0000
,
0010
0001
0010
0000
,
0001
0001
1000
1000
,
0001
0000
0010
0000
,
0100
1000
0100
0000
,
1000
1000
0001
0000
,
0010
0010
0001
0001
,
2000
0000
0000
3001
,
1001
1000
1100
1000
,
1001
1000
1100
1100
,
1001
0001
0101
0001
,
1001
0001
0101
0010
,
0110
0010
1010
0010
,
0110
1000
1001
1000
,
1010
1000
1001
1001
,
1100
0011
1001
0000
,
0001
1000
0001
0000
1000
0100
1000
0000
,
0100
1000
0100
0000
1000
0001
1000
0001
,
1000
0100
1000
0000
0010
0100
0010
0100
,
0001
1000
0001
0000
0010
0000
0100
0000
,
1000
0001
1000
0001
1000
0001
1000
0001
,
1000
0001
1000
0001
1000
0001
1000
0000
,
1001
0000
0000
1100
0000
0000
0010
0001
,
0010
0000
0000
0000
0100
0010
0100
0010
,
0001
0000
0000
0000
;

//---------------dance-single - ----------------
#NOTES:
     dance-single:
     :
     Hard:
     13:
     0.585,0.613,0.253,0.237,0.091:
1000
0002
1000
1003
,
0001
0010
0100
0010
,
0001
1000
0001
0000
0001
1000
0001
0000
,
0010
0100
1000
0001
0010
0000
0010
0000
,
0001
2000
0001
3001
,
1000
0010
0100
0010
,
1000
0001
1000
0000
1000
0001
1000
0000
,
0100
0010
0001
1000
0100
0000
0100
0000
,
2002
0000
0000
0000
,
0000
0000
3003
0000
,
1000
0100
1000
0100
1000
0001
1000
0001
,
1000
0100
1000
0100
0010
0000
0010
0000
,
0001
0100
0001
0100
0001
1000
0001
1000
,
0001
0010
0100
1000
0100
0000
0100
0000
,
0000
1010
0110
1010
,
0110
0000
0000
1010
0000
0000
0001
0000
0001
1000
0000
0000
,
0001
0010
0001
0010
0001
1000
0001
1000
,
0001
1000
0010
0100
0002
0000
0000
0000
,
0013
0001
0100
0010
0100
0001
0010
0001
,
0100
0010
0100
0001
1000
0000
1001
0000
,
1000
0100
0010
0100
1000
0001
0100
0001
,
1000
0100
0010
0100
1000
0000
1001
0000
,
0002
0000
0000
0000
,
0103
0000
0100
0000
,
0020
0030
0000
0000
0000
0000
0000
0000
0000
0000
0000
0000
1000
0000
0000
0000
0000
0000
0000
0000
0000
0000
0000
0000
1002
0000
0000
0000
0000
0000
0000
0000
0000
0000
0000
0000
0000
0000
0000
0000
0000
0000
0000
0000
0000
0000
0000
0000
,
0203
0302
0000
1003
,
0002
0000
0000
1003
0000
1000
0100
0000
0000
0010
0000
0000
,
0010
0001
0010
0001
0000
0000
0201
0000
0000
0000
0000
0000
,
0310
0000
1000
0002
0000
0000
0000
0000
0000
0013
0000
0001
,
2000
0000
3010
0200
,
0010
0010
0310
1010
,
0010
0110
0001
1001
,
1000
0000
0000
1100
0000
0010
0100
0000
0000
0001
0000
0000
,
0001
0000
0000
0000
1000
0000
0000
0000
0001
0000
0000
0000
1000
0000
0000
0000
0000
0000
0000
0000
0000
0000
0000
0000
1010
0000
0000
0000
0000
0000
0000
0000
0000
0000
0000
0000
0200
0300
0000
0000
0000
0000
0000
0000
0000
0000
0000
0000
,
0001
0010
0100
1000
0001
0000
0001
0000
,
1000
0100
0010
0001
1000
0000
1000
0000
,
0010
0100
0001
1000
0100
0000
0100
0000
,
0010
0001
0100
0010
1000
0000
1000
0000
,
0001
0010
0100
0000
0010
0001
1000
0000
,
0010
0100
0001
0000
0100
0001
1000
0000
,
0100
0010
0001
1000
0100
0100
0100
0100
,
2000
0000
0000
3000
,
1100
0000
1001
0000
1000
1000
1000
0000
,
0020
0230
0320
0230
,
0301
0000
1000
0100
0010
0001
0001
1000
,
2000
0000
0000
3000
,
1001
0000
0011
0000
0001
0100
0010
0000
,
0100
0100
0100
0000
0001
0001
0001
0000
,
1001
0000
1010
0000
0010
0100
0001
0000
,
1000
0100
0010
0001
0010
0100
1000
0000
,
0100
0010
0100
0010
0100
1000
0100
1000
,
0100
0010
0001
0100
0010
0100
0001
0000
,
0010
0100
0010
0100
1000
0010
0100
0001
,
0100
0000
0100
0100
0100
0000
1001
0000
,
0100
1000
0100
1000
0100
0001
0100
0001
,
0100
1000
0001
0010
0001
0010
0100
1000
,
0002
0203
0320
2030
,
3002
0000
0000
0000
,
1003
0000
1000
0000
1000
0000
0000
0001
0000
0001
0000
0001
1000
0000
0000
0000
,
0010
0000
0010
0000
0010
0000
0000
0100
0000
0100
0000
0100
0000
0000
0000
0000
,
0001
0000
0001
0000
0001
0000
0000
0010
0000
0010
0000
0010
0000
0000
0000
0000
,
0100
0000
0100
0000
0100
0000
0000
1000
0000
1000
0000
1000
0001
0000
0010
0000
,
0100
1000
0010
0000
,
0100
0100
0110
0000
,
0001
0001
1000
1000
,
0001
0010
0100
0000
,
0010
0001
0100
0000
,
0010
0010
0110
0000
,
1000
1000
0001
0001
,
0220
0000
0000
0330
,
1001
0000
0001
0100
1000
0000
0100
0001
,
0000
1000
0100
0010
0100
1000
0001
0000
,
1001
0000
0010
0001
0100
0010
1000
0001
,
0000
0001
0100
0010
0100
0010
1000
0000
,
1001
0000
1000
0100
0001
0000
0100
1000
,
0000
0001
1000
0100
1000
0000
1100
0000
,
1001
0000
0001
0100
0010
1000
0100
0010
,
0001
0001
1000
1000
0002
0000
0000
0000
,
1003
1000
1000
0010
0100
0001
1000
0100
,
0001
1000
0100
0010
1000
1000
0001
0001
,
1000
0010
0001
0010
0100
0001
1000
0100
,
0010
0100
1000
0001
0100
0000
0100
0000
,
0001
0001
0001
0010
1000
0001
0010
0100
,
0001
1000
0010
0100
1000
0100
0010
1000
,
1001
0000
0000
0011
0000
0000
0100
0100
,
0100
0000
0000
0000
0000
0000
0000
0000
1000
0000
0001
0000
1000
0001
1000
0001
,
1000
0000
0000
0000
;

//---------------dance-single - ----------------
#NOTES:
     dance-single:
     :
     Challenge:
     15:
     0.743,0.953,0.214,0.135,0.404:
1001
0000
1000
0001
0010
0000
0010
0000
,
0001
1000
0100
0010
0001
0000
0001
0000
,
1000
0100
0010
0000
0010
0001
1000
0000
,
0001
1000
0010
0100
0001
1000
0001
0000
,
1001
0000
0001
0010
0100
0000
0100
0000
,
1000
0001
0100
0010
1000
0000
1000
0000
,
0001
0010
0100
1000
0100
0010
0001
1000
,
0001
0100
0010
1000
0100
1000
0001
0000
,
2002
0000
0000
0000
,
0000
3003
0002
0000
,
1003
0000
0000
1000
0010
0000
0000
0010
1000
0000
0000
1000
0001
0000
0000
0001
,
1000
0000
0000
1000
0010
0000
0100
0000
0001
0000
0010
0000
0100
0000
0000
0000
,
1000
0000
0000
1000
0100
0000
0000
0100
1000
0000
0000
1000
0001
0000
0000
0001
,
0100
0000
0000
0100
0001
0000
0000
0001
1000
0000
0010
0000
0100
0000
0001
0000
,
0000
0000
0000
1001
0000
1000
0001
0000
1000
0100
0000
1000
,
0001
0000
1000
0100
1000
0001
0100
0000
0100
0010
0000
0010
,
0100
0000
0000
0001
1000
0000
0000
1000
0001
0000
0000
0001
0100
0000
0000
0100
,
0002
0000
2003
0000
3100
0100
0100
0000
,
1000
0000
0001
0100
0001
0000
1000
0001
1000
0000
0100
0000
0010
0000
0001
0100
,
0001
0000
1000
0001
1000
0000
0100
0000
0010
0000
0001
0000
1000
0000
0001
0000
,
0100
0000
0010
1000
0010
0000
1000
0001
1000
0000
0100
0000
0010
0000
0001
1000
,
0001
0000
1000
0100
1000
0000
0001
0000
0100
0000
0010
0000
0100
0000
0001
0000
,
1000
1000
1000
1000
1000
0000
1000
0000
,
0100
0000
0010
0001
0000
0001
0000
0000
,
2000
3000
0000
0000
0000
0000
0000
0000
0000
0000
0000
0000
0001
0000
0000
0000
0000
0000
0000
0000
0001
0000
0000
0000
1000
0000
0000
0000
0000
0000
0000
0000
0000
0000
0000
0000
1100
0000
0000
0000
0000
0000
0000
0000
0000
0000
0000
0000
,
0100
0000
0100
1000
0000
1000
0010
0000
0010
0100
0000
0100
,
0001
0000
0000
1000
0000
0010
0100
0000
0000
0001
0000
0000
,
0010
0100
1000
0001
0000
0000
0101
0000
0000
1001
0000
0000
,
0101
0000
0010
0100
0000
0000
1100
0000
0000
0110
0000
0001
,
1000
0000
0000
1100
0000
0000
1001
0000
0000
1000
0001
1000
,
0001
1000
0001
1000
0001
1000
0001
0000
0001
0010
0000
0010
,
0100
0000
0100
0010
0000
0010
0001
0000
0001
1000
0000
1000
,
0010
0000
0010
0100
0000
0001
1000
0000
0000
0100
0000
0000
,
1000
0000
0000
0000
0100
0000
0000
0000
0010
0000
0000
0000
0100
0000
0000
0000
0000
0000
0000
0000
0000
0000
0000
0000
1001
0000
0000
0000
0000
0000
0000
0000
0000
0000
0000
0000
2000
3000
0000
0000
0000
0000
0000
0000
0000
0000
0000
0000
,
0001
0100
1000
0100
0001
0010
0100
0000
,
1000
0010
0001
0010
1000
0100
0010
0000
,
0001
0100
1000
0100
0010
1000
0001
0000
,
1000
0010
0100
1000
0100
0001
1000
0000
,
0200
1000
1300
0000
0020
0100
0130
0000
,
0002
1000
1003
0000
0002
0100
0103
0000
,
0001
0001
1000
1000
0100
0100
0100
0100
,
2002
0000
0000
3003
,
1001
0000
0001
1000
0100
0001
0100
1000
,
0002
0000
0100
0100
0100
0000
0103
0000
,
0001
1000
0010
0001
0010
1000
1000
0001
,
1001
0000
0000
0000
1001
0000
0000
0000
0100
0010
0100
0010
0100
0000
0000
0000
,
1001
0000
1000
0001
0100
1000
0100
0001
,
1000
1000
0100
0100
1000
1000
0001
0001
,
1000
0001
0010
1000
0010
0001
0100
0010
,
1000
0100
0010
0001
1000
0100
0010
0000
,
0001
0001
1000
1000
0001
0100
1000
0100
,
0010
0000
1000
0000
0001
0000
0100
0000
0001
0100
0001
0000
1000
0100
1000
0000
,
0001
0100
1000
0100
0010
1000
0001
0100
,
0020
0000
0100
0100
0130
0000
0110
0000
,
1000
1000
0001
0001
1000
0010
0100
1000
,
0100
0000
0001
0000
1000
0001
1000
0000
0100
1000
0100
0000
1000
0000
0001
0000
,
0100
0001
0100
1000
0100
0001
1000
0100
,
0020
0000
0000
0000
,
0031
0000
0010
0000
0001
0000
0000
0100
0000
0100
0010
1000
0100
0010
0001
1000
,
0010
0000
0010
0000
0010
0000
0000
1000
0000
1000
0001
0010
0100
0010
0001
0000
,
0100
0000
0100
0010
0100
0000
0000
0001
0000
0001
1000
0010
0100
0001
1000
0010
,
0100
0010
0100
0010
0100
0000
0001
1000
0000
1000
0001
0010
0100
0010
0001
1000
,
1001
0000
1000
0010
0100
0000
0100
0000
,
0001
1000
0100
1000
0001
0000
1001
0000
,
0100
1000
0100
0000
0010
0001
0010
0000
,
0001
1000
0010
0001
0010
1000
0001
0000
,
1001
0000
1000
0100
0010
0000
0010
0000
,
0001
1000
0010
1000
0001
0000
1001
0000
,
0001
0000
0000
0000
1000
0001
1000
0001
1000
0000
0000
0000
0001
1000
0001
1000
,
0002
0000
0000
1003
,
1001
0000
0000
0000
0001
0100
0001
0000
1000
0000
0100
0000
0010
0000
0100
0000
,
0000
0000
1000
0000
0001
0000
0100
0001
0100
0000
0001
0000
1000
0000
0000
0000
,
0001
0000
1000
0000
0100
1000
0100
0000
1000
0000
0001
0000
0010
0000
0100
0000
,
0000
0000
0010
0000
0001
0000
1000
0000
0010
1000
0010
0000
1000
0001
1000
0000
,
0001
0000
0100
0000
0010
1000
0010
0000
0100
0000
0001
0000
0010
0000
0100
0000
,
0000
0000
0010
0000
0001
0000
1000
0001
1000
0000
0001
0000
0010
0000
0000
0000
,
0001
0000
1000
0000
0100
1000
0100
0000
1000
0000
0010
0000
0100
0000
0001
0000
,
1000
0000
1000
0000
0001
0000
0001
0000
1000
0000
0001
0100
0001
0000
0100
0000
,
0001
0001
0001
1000
1000
1000
0100
0100
,
1000
1000
0010
0010
1000
1000
0010
0010
,
1000
1000
1000
0001
0001
0001
0010
0010
,
0001
0001
0100
0100
0010
0100
0010
0000
,
1000
1000
1000
0001
0001
0001
1000
1000
,
0100
0000
0100
0000
0010
0000
0010
0000
0001
0000
1000
0010
1000
0010
0100
0000
,
0110
0000
0000
0101
0000
0000
1000
1000
,
1001
0000
0000
0000
0000
0000
0000
0000
1000
0000
0001
0000
1000
0001
1000
0001
,
0010
0000
0000
0000
;

//---------------dance-double - ----------------
#NOTES:
     dance-double:
     :
     Easy:
     6:
     0.254,0.306,0.087,0.047,0.000:
10000000
00000000
00010000
00000000
,
10000000
00000000
01000000
00000000
,
10000000
00000000
10000000
00000000
,
00010000
00000000
00010000
00000000
,
01000000
00100000
01000000
00000000
,
00001000
00000000
00010000
00000000
,
00000010
00000000
00000010
00000000
,
00000100
00000000
00000100
00000000
,
00000220
00000000
00000000
00000000
,
00000000
00000000
00000330
00000000
,
00001000
00001000
00001000
00000000
,
00000010
00000010
00000010
00000000
,
00000100
00000100
00000100
00000000
,
00000001
00000001
00000001
00000000
,
00000000
00001001
00000000
00000000
,
00001001
00000000
00010001
00000000
,
00010000
00000000
00010000
00000000
,
00001000
00010000
00001000
00000000
,
10000000
10000000
10000000
00000000
,
00010000
00010000
00010000
00000000
,
00100000
00100000
00100000
00000000
,
00010000
00010000
00010000
00000000
,
02000000
00000000
00000000
00000000
,
00000000
00000000
00000000
00000000
,
03100000
00000000
10000000
00000000
,
01000000
00000000
00100000
00000000
,
00001000
00000000
00010000
00000000
,
00001000
00000000
00011000
00000000
,
00000000
00011000
00000000
00000000
,
00011000
00000000
00000000
00000000
,
00000000
00000000
00000001
00000000
,
00000000
00000100
00000000
00000000
,
00000010
00000000
00000000
00010000
,
00000000
00000000
00001000
00000000
,
01000000
00010000
01000000
00000000
,
00010000
10000000
00010000
00000000
,
01000000
00100000
01000000
00000000
,
00001000
00100000
00001000
00000000
,
00010000
00001000
00010000
00000000
,
00001000
00010000
00001000
00000000
,
00010000
00000100
00000010
00000001
,
00000200
00000000
00000000
00000000
,
00000301
00001000
00000001
00000000
,
00010000
00001000
00001000
00001000
,
00010000
00001000
00100000
01000000
,
10000000
00000000
00000000
00000000
,
01000000
00100000
01000000
00000000
,
10000000
00100000
01000000
00001000
,
00001000
00010000
00000100
00000000
,
00001000
00001000
00001000
00001000
,
00000001
00000100
00000001
00000100
,
00000001
00010000
00001000
00000000
,
01000000
00100000
01000000
00100000
,
01000000
00001000
01000000
00000000
,
00010000
00100000
00010000
00100000
,
00001000
00010000
00001000
00010000
,
00000100
00000010
00000100
00000010
,
00000200
00000000
00000000
00000000
,
00000310
00000000
00000000
00000000
,
00000000
00000000
00000000
00000000
,
00000000
00000000
00000000
00000000
,
00000000
00000000
00000000
00000000
,
00000110
00000000
00000100
00000000
,
00000010
00000000
00000100
00000000
,
00000100
00000000
00000100
00000000
,
00000100
00000000
00000000
00000000
,
00001001
00000000
00000010
00000000
,
00000100
00000000
00000010
00000000
,
00010000
00001000
00010000
00001000
,
00020000
00000000
00000000
00000000
,
00031000
00000000
01000000
00000000
,
00100000
01000000
00100000
00000000
,
10000000
00000000
10000000
00000000
,
00001000
00010000
00001000
00000000
,
00010000
00000000
00010000
00000000
,
00000100
00001000
00000100
00000000
,
00001000
00000000
00001000
00000000
,
00000001
00001000
00000001
00000000
,
00010000
00001000
00010000
00001000
,
00010000
00001000
00010000
00001000
,
01000000
00010000
01000000
00010000
,
01000000
00010000
01000000
00000000
,
00010000
10000000
00010000
10000000
,
00010000
00100000
00001000
00010000
,
00001000
00000000
00000000
00001000
00000000
00000000
00011000
00000000
,
00000000
00000000
00000010
00000010
,
00000110
00000000
00000000
00000000
;

//---------------dance-double - ----------------
#NOTES:
     dance-double:
     :
     Medium:
     10:
     0.466,0.579,0.380,0.158,0.000:
10010000
00010000
10000000
01000000
,
10000000
00001000
00010000
00001000
,
00020000
00030100
00002000
00003001
,
00001000
00000100
00000010
00000000
,
00000001
00000100
00000001
00000100
,
00000001
00001000
00000001
00010000
,
00002000
01003000
00200000
01300000
,
00010000
10000000
01000000
00100000
,
00022000
00000000
00000000
00000000
,
00000000
00000000
00033000
00000000
,
00010010
00010000
00010010
00010000
,
00010010
00010000
00011000
00011000
,
01010000
01000000
01010000
01000000
,
01010000
01000000
01100000
01100000
,
00000000
00011000
00011000
00011000
,
00011000
00011000
00010001
00000000
,
00001100
00000100
00001100
00000100
,
00001001
00000001
00001001
00000000
,
00000001
00000100
00000001
00000000
00010000
00000001
00010000
00000000
,
00001000
00010000
00001000
00000000
01001000
00000000
01001000
00000000
,
10000000
01000000
10000000
00000000
01000000
00100000
01000000
00000000
,
00001000
00010000
00001000
00000000
00010010
00000000
00010010
00000000
,
00000020
00000000
00000000
00000000
,
00000000
00000000
00000000
00000000
,
00000030
00000000
00000210
00000000
,
00000301
00010000
00000000
00010000
,
00001000
01000000
00100000
10000000
,
01000000
00100000
00002000
00000000
,
00013000
00000020
00000000
00001030
,
00000002
00000000
00000003
00002002
,
00000000
00003003
00001001
00001000
,
00000010
00010000
00001000
00010000
,
00001000
00100000
01000000
10000000
,
00010000
01000000
01010000
00010000
,
10010000
01000000
00100000
00010000
,
00001000
00010000
00001000
00000000
00010000
00000100
00010000
00000000
,
00000110
00000010
00000100
00000001
,
00001000
00000100
00001000
00000000
00000100
00010000
00000100
00000000
,
00011000
00001000
01001000
00001000
,
00011000
00001000
01001000
01000000
,
00010000
10000000
00010000
00000000
10000000
01000000
10000000
00000000
,
20020000
00000000
00000000
30030000
,
01010000
00000000
01000000
00000000
00001000
00010000
00001000
00000000
,
00020000
00030100
00002000
00003001
,
00001000
00000000
00000100
00000000
00001000
00000000
00000010
00000100
,
00000020
00000000
00000000
00000000
,
00001030
00000010
00000100
00000010
,
00010000
00001000
00010000
00000000
00001000
00010000
00001000
00000000
,
01000000
00100000
10000000
00100000
,
10000000
00010000
10000000
00000000
00001000
00100000
00001000
00000000
,
00010000
00001000
00010000
00000000
00000100
00001000
00000100
00000000
,
00001000
00000001
00001000
00000000
00000001
00000100
00000001
00000000
,
00000010
00000000
00000100
00000000
00010000
00000100
00001000
00000000
,
00000100
00000000
00010000
00001000
00010000
00000000
00011000
00000000
,
01000000
00010000
01000000
00010000
01000000
00010000
01000000
00000000
,
00001000
10000000
00001000
10000000
00001000
10000000
00001000
00000000
,
10000000
01000000
00100000
00001000
,
00020000
00000000
00000000
00000000
,
00031000
00000000
00000000
00000000
,
00010000
00000000
00000000
00000000
,
00000010
00000000
00000000
00000000
,
00000100
00000000
00000000
00000000
,
00001001
00000000
00000001
00000000
,
00010000
00001000
00010000
00000000
,
00001000
00100000
01000000
10000000
,
00010000
00000000
00100000
00000000
,
00001000
00010000
00001000
00000000
,
00010000
00000100
00000010
00000000
,
00001001
00001000
00001001
00000001
,
00020000
00000000
00000000
00031000
,
01100000
00000000
10000000
00100000
10000000
00000000
01000000
00000000
,
00100000
00000000
00001000
10000000
00100000
10000000
00001000
00000000
,
00010000
00000000
00000010
00000100
00000001
00000010
00000001
00000000
,
00000010
00000000
00000100
00000000
00010000
00001000
00010000
00000000
,
00011000
00000000
00001000
00100000
00001000
00000000
00100000
00000000
,
01000000
00000000
10000000
00010000
00100000
00010000
00100000
00000000
,
10010000
00000000
00010000
00000000
01000000
00001000
01000000
00001000
,
00010000
00010000
00010100
00000000
,
00001000
00000001
00001000
00000001
00010000
00000000
00000100
00000000
,
00000010
00000100
00000010
00000000
00000001
00000100
00000001
00000100
,
00000001
00001000
00000001
00000000
00010000
00000100
00010000
00000100
,
00010000
00001000
00100000
00000000
00010000
00000000
10000000
00000000
,
01000000
10000000
01000000
10000000
00100000
01000000
00100000
01000000
,
00001000
01000000
00001000
01000000
00000100
00001000
00000100
00000000
,
00001100
00000000
00000000
00000101
00000000
00000000
00000100
00000010
,
00010000
00000000
00000000
00000000
00001000
00010000
00001000
01000000
,
00100000
00000000
00000000
00000000
;

//---------------dance-double - ----------------
#NOTES:
     dance-double:
     :
     Hard:
     13:
     0.600,0.613,0.309,0.230,0.095:
10010000
10000000
01000000
10000000
,
00001000
00100000
01000000
00100000
,
00001000
00010000
00001000
00000000
00001000
00010000
00001000
00000000
,
00010000
00000100
00000010
00000001
00000010
00000000
00000010
00000000
,
00001001
00000001
00000100
00000001
,
00010000
00001000
01000000
00100000
,
10000000
00010000
10000000
00000000
10000000
00010000
10000000
00000000
,
01000000
00100000
00001000
00010000
00001000
00000000
00001000
00000000
,
00022000
00000000
00000000
00000000
,
00000000
00000000
00033000
00000000
,
00000010
00000100
00000010
00000100
00000010
00000100
00000001
00000100
,
00000001
00001000
00000100
00001000
00000100
00000000
00000100
00000000
,
00010000
00001000
00010000
00001000
01000000
00010000
01000000
00010000
,
10000000
01000000
00100000
00001000
00010000
00000000
00010000
00000000
,
00000000
00011000
00010100
00011000
,
00010100
00000000
00000000
00011000
00000000
00000000
00010000
00000000
00010000
00000001
00000000
00000001
,
00000100
00000010
00000100
00000010
00010000
00000100
00010000
00000100
,
00010000
00001000
01000000
00100000
20000000
00000000
00000000
00000000
,
31000000
10000000
00100000
01000000
00100000
10000000
01000000
10000000
,
00100000
01000000
00100000
10000000
00001000
00000000
10001000
00000000
,
00001000
00010000
00000100
00010000
00001000
01000000
00010000
01000000
,
00001000
00010000
00000100
00010000
00001000
00000000
00011000
00000000
,
00020000
00000000
00000000
00000000
,
00030100
00000000
00000100
00000000
,
00000200
00000300
00000000
00000000
00000000
00000000
00000000
00000000
00000000
00000000
00000000
00000000
00001000
00000000
00000000
00000000
00000000
00000000
00000000
00000000
00000000
00000000
00000000
00000000
00002001
00000000
00000000
00000000
00000000
00000000
00000000
00000000
00000000
00000000
00000000
00000000
00000000
00000000
00000000
00000000
00000000
00000000
00000000
00000000
00000000
00000000
00000000
00000000
,
00003200
00020300
00000000
00032000
,
00203000
00000000
00000000
00310000
00000000
00010000
10000000
00000000
00000000
00001000
00000000
00000000
,
00001000
00100000
00001000
00100000
00000000
00000000
02100000
00000000
00000000
00000000
00000000
00000000
,
03100000
00000000
10000000
02000000
00000000
00000000
00000000
00000000
00000000
13000000
00000000
00001000
,
00200000
00000000
00301000
00020000
,
00001000
00001000
00031000
00011000
,
00010000
00010100
00000100
00000110
,
00000010
00000000
00000000
00000011
00000000
00000001
00010000
00000000
00000000
00001000
00000000
00000000
,
01000000
00000000
00000000
00000000
00100000
00000000
00000000
00000000
01000000
00000000
00000000
00000000
00100000
00000000
00000000
00000000
00000000
00000000
00000000
00000000
00000000
00000000
00000000
00000000
01100000
00000000
00000000
00000000
00000000
00000000
00000000
00000000
00000000
00000000
00000000
00000000
00002000
00003000
00000000
00000000
00000000
00000000
00000000
00000000
00000000
00000000
00000000
00000000
,
00010000
00000010
00000100
00000001
00000100
00000010
00010000
00000000
,
00000001
00000010
00000100
00001000
00000001
00000100
00000001
00000000
,
00010000
00001000
00100000
01000000
10000000
01000000
00100000
00000000
,
00010000
01000000
00100000
01000000
00001000
00010000
00001000
00000000
,
00010000
00000100
00000010
00000000
00000001
00000010
00000100
00000000
,
00010000
00001000
01000000
00000000
00100000
10000000
01000000
00000000
,
10000000
01000000
00100000
00001000
00010000
00010000
00010000
00010000
,
00002000
00000000
00000000
00003000
,
00010010
00000000
00000110
00000000
00000100
00000100
00000100
00000000
,
00000002
00000023
00000230
00002300
,
00013000
00000000
00001000
10000000
01000000
10000000
10000000
00001000
,
00020000
00000000
00000000
00030000
,
00011000
00000000
01001000
00000000
01000000
00010000
00100000
00000000
,
00010000
00010000
00010000
00000000
01000000
01000000
01000000
00000000
,
10010000
00000000
11000000
00000000
01000000
10000000
00010000
00000000
,
10000000
01000000
00100000
00001000
00010000
00001000
01000000
00000000
,
00100000
01000000
00100000
01000000
00001000
00010000
00001000
00010000
,
00000010
00000100
00000001
00000100
00000001
00001000
00000100
00000000
,
00010000
00001000
00010000
00001000
00100000
01000000
10000000
01000000
,
00100000
00000000
00001000
00001000
00001000
00000000
00011000
00000000
,
00001000
00010000
00001000
00010000
00000010
00000100
00000010
00000100
,
00000001
00001000
00000001
00010000
00001000
00100000
01000000
10000000
,
00020000
00000000
02030000
00000000
03002000
00000000
00013000
00010000
,
00000200
00000000
00000000
00000000
,
00001300
00000000
00000001
00000000
00001000
00000000
00000000
00000100
00000000
00000100
00000000
00000100
00010000
00000000
00000000
00000000
,
00001000
00000000
01000000
00000000
00001000
00000000
00000000
10000000
00000000
10000000
00000000
10000000
00000000
00000000
00000000
00000000
,
01000000
00000000
00100000
00000000
01000000
00000000
00000000
00100000
00000000
00100000
00000000
00100000
00000000
00000000
00000000
00000000
,
00001000
00000000
00100000
00000000
00001000
00000000
00000000
00010000
00000000
00010000
00000000
00010000
00000010
00000000
00000100
00000000
,
00000010
00001000
00000100
00000000
,
00010000
00010000
00011000
00000000
,
01000000
10010000
01000000
10010000
,
10000000
00100000
01000000
00000000
,
00100000
10000000
00001000
00000000
,
00010000
00010000
00011000
00000000
,
00000100
00001001
00000100
00001001
,
00000220
00000000
00000000
00000330
,
00001001
00000000
00000001
00001000
00000100
00000000
00010000
00001000
,
01000000
00100000
00010000
00100000
01000000
00001000
00010000
00000000
,
00011000
00000000
00001000
10000000
00100000
01000000
00001000
00010000
,
00000000
00010000
00000100
00000010
00000100
00010000
00001000
00000000
,
00011000
00000000
00010000
00000001
00000100
00000000
00000001
00000100
,
00000010
00000001
00000010
00000100
00000001
00000000
00001001
00000000
,
00001100
00000000
00000100
00010000
00001000
01000000
00100000
10000000
,
00010000
00010000
00100000
00100000
00002000
00000000
00000000
00000000
,
00013000
00010000
00010000
00000010
00000100
00000001
00001000
00000010
,
00000001
00000010
00000100
00000001
00010000
00010000
00001000
00001000
,
00100000
01000000
10000000
00100000
00010000
00100000
01000000
00010000
,
10000000
01000000
00100000
00001000
00020000
00000000
00031000
00000000
,
00010000
00010000
00010000
00000010
00000100
00000001
00000100
00001000
,
00000100
00000010
00001000
00000001
00000010
00000100
00010000
00001000
,
00011000
00000000
00000000
01100000
00000000
00000000
10000000
10000000
,
10010000
00000000
00000000
00000000
00000000
00000000
00000000
00000000
00100000
00000000
01000000
00000000
00001000
00010000
00001000
00010000
,
00001000
00000000
00000000
00000000
;

//---------------dance-double - ----------------
#NOTES:
     dance-double:
     :
     Challenge:
     15:
     0.741,0.953,0.206,0.111,0.404:
10010000
00000000
00010000
10000000
01000000
00000000
01000000
00000000
,
10000000
00100000
01000000
00001000
00010000
00000000
00010000
00000000
,
00000100
00000010
00000001
00000000
00000001
00001000
00000100
00000000
,
00010000
00000100
00000010
00000001
00000010
00000100
00010000
00000000
,
00011000
00000000
00001000
01000000
00100000
00000000
00100000
00000000
,
10000000
01000000
00100000
00010000
01000000
00000000
01000000
00000000
,
00001000
01000000
00100000
10000000
00100000
01000000
00001000
00010000
,
00000100
00001000
00000100
00000010
00000001
00010000
00001000
00000000
,
00022000
00000000
00000000
00000000
,
00000000
00033000
00002000
00000000
,
00103000
00000000
00000000
00100000
00010000
00000000
00000000
00010000
01000000
00000000
00000000
01000000
00100000
00000000
00000000
00100000
,
10000000
00000000
00000000
10000000
00010000
00000000
00100000
00000000
00001000
00000000
00010000
00000000
00000010
00000000
00000000
00000000
,
00001000
00000000
00000000
00001000
00000001
00000000
00000000
00000001
00000010
00000000
00000000
00000010
00000100
00000000
00000000
00000100
,
00001000
00000000
00000000
00001000
00000001
00000000
00000000
00000001
00000100
00000000
00000010
00000000
00010000
00000000
00001000
00000000
,
00000000
00000000
00000000
00011000
00000000
00001000
01000000
00000000
00100000
01000000
00000000
00001000
,
01000000
00000000
00100000
10000000
01000000
00100000
00010000
00000000
00001000
00100000
00000000
00100000
,
00001000
00000000
00000000
00010000
00000010
00000000
00000000
00000010
00000100
00000000
00000000
00000100
00000001
00000000
00000000
00000001
,
00002000
00003000
00002000
00003000
00000100
00000100
00000100
00000000
,
00001000
00000000
00000001
00000100
00000001
00000000
00010000
00000100
00010000
00000000
00000100
00000000
00000010
00000000
00000001
00000100
,
00000001
00000000
00010000
00000100
00010000
00000000
00001000
00000000
01000000
00000000
00100000
00000000
10000000
00000000
00100000
00000000
,
10000000
00000000
00001000
00010000
00001000
00000000
01000000
00010000
01000000
00000000
00100000
00000000
10000000
00000000
00001000
00010000
,
00001000
00000000
00010000
00000100
00010000
00000000
00000100
00000000
00000010
00000000
00000100
00000000
00010000
00000000
00000001
00000000
,
00001000
00001000
00001000
00001000
00001000
00000000
00001000
00000000
,
00000001
00000000
00000100
00000010
00000000
00000010
00000000
00000000
,
00020000
00030000
00000000
00000000
00000000
00000000
00000000
00000000
00000000
00000000
00000000
00000000
00001000
00000000
00000000
00000000
00000000
00000000
00000000
00000000
00001000
00000000
00000000
00000000
10000000
00000000
00000000
00000000
00000000
00000000
00000000
00000000
00000000
00000000
00000000
00000000
10010000
00000000
00000000
00000000
00000000
00000000
00000000
00000000
00000000
00000000
00000000
00000000
,
00010000
00000000
00010000
00100000
00000000
00100000
00001000
00000000
00001000
00010000
00000000
00010000
,
00000100
00000000
00000000
00001000
00000000
00001000
00000001
00000000
00000000
00000100
00000000
00000000
,
00000010
00010000
00001000
00010000
00000000
00000000
00011000
00000000
00000000
00001000
00000000
00000000
,
01001000
00000000
00100000
01000000
00000000
00000000
01100000
00000000
00000000
01001000
00000000
00100000
,
01000000
00000000
00000000
01001000
00000000
00000000
01100000
00000000
00000000
00010000
10000000
00010000
,
10000000
00010000
10000000
00010000
10000000
00010000
10000000
00000000
10000000
00100000
00000000
00100000
,
01000000
00000000
01000000
00001000
00000000
00001000
00010000
00000000
00010000
00000100
00000000
00000100
,
00000010
00000000
00000010
00000100
00000000
00001000
00000010
00000000
00000000
00000100
00000000
00000000
,
00000001
00000000
00000000
00000000
00000010
00000000
00000000
00000000
00000100
00000000
00000000
00000000
00010000
00000000
00000000
00000000
00000000
00000000
00000000
00000000
00000000
00000000
00000000
00000000
00011000
00000000
00000000
00000000
00000000
00000000
00000000
00000000
00000000
00000000
00000000
00000000
02002000
03003000
00000000
00000000
00000000
00000000
00000000
00000000
00000000
00000000
00000000
00000000
,
01000000
00100000
10000000
01000000
00010000
01000000
10000000
00000000
,
00100000
01000000
00010000
00100000
10000000
00100000
00010000
00000000
,
00100000
00001000
00010000
00000100
00000010
00000001
00001000
00000000
,
00000001
00000010
00000100
00010000
00001000
01000000
00100000
00000000
,
10000000
01000000
00100000
00000000
00100000
00001000
00010000
00000000
,
00010000
00000100
00000010
00000000
00000010
00000001
00001000
00000000
,
00000100
00000100
00010000
00010000
00001000
00001000
00001000
00001000
,
20002000
00000000
00000000
30003000
,
10000000
01000000
10000000
00001000
00100000
10000000
00100000
00001000
,
00020000
00000000
00001000
00001000
00001000
00000000
00031000
00000000
,
00010000
00000100
00000010
00000001
00001000
00000100
00000100
00010000
,
00011000
00000000
00000000
00000000
00011000
00000000
00000000
00000000
00001000
10000000
00001000
10000000
00001000
00000000
00000000
00000000
,
01000000
00100000
10000000
00100000
00010000
00100000
10000000
00001000
,
00010000
00010000
00001000
00001000
00010000
00010000
00000010
00000010
,
00001000
00000001
00000010
00001000
00000010
00000001
00000100
00000010
,
00010000
00001000
00100000
01000000
10000000
00010000
00100000
00000000
,
00010000
00010000
10000000
10000000
00010000
01000000
10000000
01000000
,
00100000
00000000
10000000
00000000
00001000
00000000
00010000
00000000
00000001
00000100
00000001
00000000
00001000
00000100
00001000
00000000
,
00000001
00000010
00000100
00000001
00000100
00001000
00000010
00010000
,
00002000
00000000
00010000
00010000
00013000
00000000
00011000
00000000
,
01000000
01000000
00100000
00100000
10000000
01000000
00010000
01000000
,
10000000
00000000
00001000
00000000
00100000
00001000
00100000
00000000
00001000
00010000
00001000
00000000
00010000
00000000
00000001
00000000
,
00000010
00000100
00001000
00100000
10000000
00100000
00001000
00010000
,
00002000
00000000
00000000
00000000
,
00013000
00000000
00000010
00000000
00000100
00000000
00000000
00000001
00000000
00000001
00000010
00000100
00000010
00000001
00000100
00000010
,
00010000
00000000
00010000
00000000
00010000
00000000
00000000
00001000
00000000
00001000
01000000
00100000
10000000
00100000
01000000
00000000
,
00010000
00000000
00010000
10000000
00010000
00000000
00000000
00100000
00000000
00100000
00001000
00010000
00000100
00000010
00000001
00001000
,
00000100
00001000
00000100
00001000
00000100
00000000
00010000
00001000
00000000
00001000
10000000
00100000
01000000
00010000
00100000
00001000
,
00101000
00000000
00001000
00010000
00000010
00000000
00000010
00000000
,
00001000
00000001
00000010
00000001
00010000
00000000
00011000
00000000
,
00001000
10000000
01000000
00000000
01000000
10000000
00001000
00000000
,
00100000
01000000
10000000
01000000
00100000
00001000
00010000
00000000
,
00011000
00000000
00001000
01000000
00100000
00000000
00100000
00000000
,
10000000
01000000
00100000
00001000
00010000
00000000
00010010
00000000
,
00000110
00000000
00000000
00000000
00000100
00000001
00000100
00000001
00000100
00000000
00000000
00000000
00000001
00001000
00000001
00001000
,
00000002
00000000
00000000
00001003
,
00000110
00000000
00000000
00000000
00000001
00000100
00000001
00000000
00000010
00000000
00000100
00000000
00001000
00000000
00000010
00000000
,
00000000
00000000
00010000
00000000
00001000
00000000
01000000
00100000
01000000
00000000
00010000
00000000
10000000
00000000
00000000
00000000
,
01000000
00000000
10000000
00000000
00010000
00100000
00010000
00000000
00100000
00000000
01000000
00000000
00001000
00000000
00010000
00000000
,
00000000
00000000
00001000
00000000
00010000
00000000
00000100
00000000
00000010
00000100
00000010
00000000
00000001
00000100
00000001
00000000
,
00010000
00000000
00001000
00000000
10000000
01000000
10000000
00000000
00010000
00000000
00100000
00000000
01000000
00000000
00100000
00000000
,
00000000
00000000
00001000
00000000
00010000
00000000
00000100
00000010
00000100
00000000
00001000
00000000
00000010
00000000
00000000
00000000
,
00000100
00000000
00000001
00000000
00010000
00001000
00010000
00000000
00001000
00000000
00100000
00000000
01000000
00000000
10000000
00000000
,
00010000
00000000
00010000
00000000
00100000
00000000
00100000
00000000
00001000
00000000
00010000
00000100
00010000
00000000
00000100
00000000
,
00000010
00000010
00000010
00000001
00000001
00000001
00001000
00001000
,
00000100
00000100
00010000
00010000
00001000
00001000
00100000
00100000
,
01000000
01000000
01000000
10000000
10000000
10000000
00100000
00100000
,
01000000
01000000
00001000
00001000
00010000
00001000
00010000
00000000
,
00000001
00000001
00000001
00001000
00001000
00001000
00000100
00000100
,
00010000
00000000
00010000
00000000
00001000
00000000
00001000
00000000
01000000
00000000
00100000
01000000
00100000
01000000
00100000
00000000
,
01010000
00000000
00000000
11000000
00000000
00000000
00001000
00001000
,
00011000
00000000
00000000
00000000
00000000
00000000
00000000
00000000
00000010
00000000
00000100
00000000
00000010
00000100
00000010
00000100
,
00000001
00000000
00000000
00000000
;

//---------------dance-single - ----------------
#NOTES:
     dance-single:
     :
     Beginner:
     3:
     0.142,0.238,0.095,0.000,0.000: // measure 1
0001
0000
0000
0000
,  // measure 2
0001
0000
0000
0000
,  // measure 3
1000
0000
0000
0000
,  // measure 4
1000
0000
0000
0000
,  // measure 5
0001
0000
0000
0000
,  // measure 6
0001
0000
0000
0000
,  // measure 7
0010
0000
0000
0000
,  // measure 8
0100
0000
0000
0000
,  // measure 9
1001
0000
0000
0000
,  // measure 10
0000
0000
0000
0000
,  // measure 11
0001
0000
0001
0000
,  // measure 12
0001
0000
0000
0000
,  // measure 13
1000
0000
1000
0000
,  // measure 14
1000
0000
0000
0000
,  // measure 15
0000
0100
0000
0000
,  // measure 16
0000
0000
0100
0000
,  // measure 17
0010
0000
0010
0000
,  // measure 18
0110
0000
0000
0000
,  // measure 19
1000
0000
0001
0000
,  // measure 20
1000
0000
0000
0000
,  // measure 21
0001
0000
1000
0000
,  // measure 22
0001
0000
0000
0000
,  // measure 23
1001
0000
0000
0000
,  // measure 24
0000
0000
0000
0000
,  // measure 25
0000
0000
0001
0000
,  // measure 26
0000
0000
0000
0000
,  // measure 27
0000
0000
0000
0000
,  // measure 28
0000
0000
0010
0000
,  // measure 29
0000
0100
0000
0000
,  // measure 30
1000
0000
0000
0000
,  // measure 31
0000
0000
0001
0000
,  // measure 32
0000
1000
0000
0000
,  // measure 33
0010
0000
0000
0100
,  // measure 34
0000
0000
0001
0000
,  // measure 35
1001
0000
0000
0000
,  // measure 36
1000
0000
0000
0000
,  // measure 37
0001
0000
0000
0000
,  // measure 38
1000
0000
0000
0000
,  // measure 39
0001
0000
0001
0000
,  // measure 40
0001
0000
1000
0000
,  // measure 41
1000
0000
0000
0000
,  // measure 42
1001
0000
0000
0000
,  // measure 43
0010
0000
0100
0000
,  // measure 44
0010
0000
0000
0000
,  // measure 45
1000
0000
0100
0000
,  // measure 46
1000
0000
0000
0000
,  // measure 47
0001
0000
1000
0000
,  // measure 48
0001
0000
0000
0000
,  // measure 49
0010
0000
0001
0000
,  // measure 50
0010
0000
0000
0000
,  // measure 51
0100
0000
1000
0000
,  // measure 52
0100
0000
1000
0000
,  // measure 53
0001
0000
1000
0000
,  // measure 54
0001
0000
0000
0000
,  // measure 55
0100
0000
0001
0000
,  // measure 56
0100
0000
0001
0000
,  // measure 57
1000
0000
0000
0000
,  // measure 58
1000
0000
0000
0000
,  // measure 59
1001
0000
0000
0000
,  // measure 60
0000
0000
0000
0000
,  // measure 61
0000
0000
0000
0000
,  // measure 62
0000
0000
0000
0000
,  // measure 63
1001
0000
0001
0000
,  // measure 64
0001
0000
0000
0000
,  // measure 65
1000
0000
1000
0000
,  // measure 66
1000
0000
0000
0000
,  // measure 67
0001
0000
0001
0000
,  // measure 68
0001
0000
0000
0000
,  // measure 69
1000
0000
1000
0000
,  // measure 70
1001
0000
0000
0000
,  // measure 71
0010
0000
0100
0000
,  // measure 72
0010
0000
0100
0000
,  // measure 73
0001
0000
0100
0000
,  // measure 74
0001
0000
0100
0000
,  // measure 75
0010
0000
1000
0000
,  // measure 76
0010
0000
1000
0000
,  // measure 77
0100
0000
0010
0000
,  // measure 78
0100
0000
0010
0000
,  // measure 79
0001
0000
0001
0000
,  // measure 80
0001
0000
0001
0000
,  // measure 81
1001
0000
1000
0000
,  // measure 82
1000
0000
1000
0000
,  // measure 83
1001
0000
0010
0000
,  // measure 84
0100
0000
0010
0000
,  // measure 85
0110
0000
0000
0000
,  // measure 86
0000
0000
0000
0000
,  // measure 87
1001
0000
0000
0000
;
