#TITLE:HIMITSUスパーク;
#SUBTITLE:;
#ARTIST:カラスは真っ白;
#TITLETRANSLIT:HIMITSU SPARK;
#SUBTITLETRANSLIT:;
#ARTISTTRANSLIT:KARASU WA MASSHIRO;
#CREDIT:DigiMindAxel;
#BANNER:HIMITSU SPARK.png;
#BACKGROUND:HIMITSU SPARK-bg.png;
#LYRICSPATH:HIMITSU SPARK.lrc;
#CDTITLE:DigiMindAxel original simfile.png;
#MUSIC:HIMITSU SPARK.ogg;
#METERTYPE:DDR X;
#OFFSET:-0.188;
#SAMPLESTART:59.900;
#SAMPLELENGTH:12.000;
#SELECTABLE:YES;
#BPMS:0.000=156.000;
#STOPS:188.000=0.385
;
#BGCHANGES:0.000=HIMITSU SPARK.avi=1.000=1=1=0,
99999=-nosongbg-=1.000=0=0=0 // don't automatically add -songbackground-
;

//---------------dance-single - ----------------
#NOTES:
     dance-single:
     :
     Easy:
     4:
     0.205,0.252,0.067,0.038,0.000:
0000
0000
0000
0000
,
0000
0000
0000
0000
,
0000
0000
0000
0000
,
0000
0000
0000
0000
,
0000
0000
0000
0000
,
1001
0000
0000
1000
,
0000
0100
0000
1000
,
1001
0000
0000
0000
0000
0000
0000
1001
,
0000
0000
0000
0000
,
0010
0000
0100
0000
,
0001
0000
0010
0000
,
0001
0000
1000
0000
,
0100
0000
0010
0000
,
0002
0000
0000
0000
,
1003
0000
0000
0000
,
0001
0000
0000
0000
,
1000
0000
0000
0000
,
0100
0000
0000
0000
,
0010
0000
0000
0000
,
0100
0000
0000
0000
,
1000
0000
0000
0000
,
0001
0000
0000
0000
,
2000
0000
0000
0000
,
3001
0000
0100
0000
,
0001
0000
0100
0000
,
0010
0000
0100
0000
,
0010
0000
0100
0000
,
0001
0000
1000
0000
,
0001
0000
1000
0000
,
0100
0000
1000
0000
,
0020
0000
0000
0000
,
0130
0000
0010
0000
,
1000
0000
0100
0000
,
0010
0000
0100
0000
,
1000
0000
0001
0000
,
0100
0000
0010
0000
,
0100
0000
0001
0000
,
1000
1000
1000
1000
,
0000
0000
1001
0000
,
0001
0001
0001
0000
,
1000
1000
1000
0000
,
0100
0010
0100
0000
,
1000
1000
1000
0000
,
0001
0001
0001
0000
,
0100
0100
0100
0000
,
0001
1000
0001
0000
,
1000
0000
0100
0010
,
0002
1003
0000
1001
,
0000
0001
0000
1000
,
0100
0010
0000
0001
,
1000
0001
0000
0010
,
0100
1000
0000
0010
,
0100
0010
0000
1000
,
0001
1000
0000
0100
,
1000
0010
0000
0100
,
0001
0100
0001
0000
,
1000
0100
1000
0100
,
0000
0010
0001
0100
,
0000
0010
0100
0001
,
1000
0100
0000
0010
,
0001
0010
0001
0100
,
0000
0100
0000
0000
0000
0000
0010
0000
,
0000
0010
0000
0000
0000
0000
1001
0000
,
1000
1000
1000
0001
,
0001
0001
0001
1000
,
1000
1000
1000
0001
,
0000
0110
0000
0000
0000
0000
0000
0000
;

//---------------dance-single - ----------------
#NOTES:
     dance-single:
     :
     Medium:
     8:
     0.367,0.504,0.419,0.076,0.000:
0000
0000
0000
0000
,
0000
0000
0000
0000
,
0000
0000
0000
0000
,
0000
0000
0000
0000
,
0000
0000
0000
0000
,
1001
0000
0000
1001
0000
0000
0001
0000
,
0010
0000
0000
0100
0000
0000
0100
0000
,
1001
0000
0000
1001
0000
0000
0000
0220
,
0000
0000
0000
0330
,
0010
0100
0010
0100
,
0001
0010
0001
0010
,
0001
1000
0001
1000
,
0100
1000
0100
1000
,
0020
0000
0000
0000
,
0130
0000
0000
0110
0000
0000
0000
0000
,
0100
0000
1000
0000
,
0010
0000
0100
0000
,
0001
0000
0010
0000
,
0100
0000
1000
0000
,
0001
0000
0100
0000
,
0010
0000
0100
0000
,
0001
0000
0000
0000
1000
0000
0000
1001
,
0000
0000
0000
0000
,
1000
0100
1000
0100
,
1000
0001
1000
0001
,
1000
0100
1000
0100
,
0010
0001
0010
0001
,
0100
0010
0100
0010
,
1000
0001
1000
0001
,
0100
0000
0001
0000
0100
0000
0001
1000
,
0000
0000
0000
0000
,
1001
0000
0010
0000
0100
0000
0000
1100
,
0000
0100
1000
0100
,
0010
0000
0100
0000
1000
0000
0000
1001
,
0000
0001
0010
0001
,
1000
0000
0100
0000
0010
0000
0000
0110
,
0000
0100
0010
1000
,
0110
0000
0010
0000
0010
0100
0010
0100
,
0000
0001
1000
0001
1000
0000
0000
0000
,
1001
1001
1100
1100
,
1001
1001
0101
0000
,
0010
0100
0010
0000
1000
0000
0000
1001
,
0000
0000
0001
0000
0010
0100
1000
0000
,
1001
1001
1100
1100
,
1001
1001
0101
0000
,
0001
1000
0100
0000
0010
0000
0000
0011
,
0000
0000
0000
0001
0100
0010
0100
0000
,
0110
0000
1001
0000
0000
1001
0000
0000
,
0001
0000
0100
0010
1000
0000
0100
0000
,
0010
0000
0001
0000
0000
0101
0000
0000
,
0100
0000
0010
1000
0100
0000
0110
0000
,
0110
1001
1001
0101
,
0101
0000
1001
0000
0000
0000
0100
1000
,
0100
0000
1000
0000
0010
0100
0000
0000
,
0000
0001
0000
1000
0100
1000
0001
0000
,
0010
0000
0100
0000
1000
0002
0000
0000
,
1000
1003
0001
2000
,
3200
0000
0320
0000
0000
0031
0100
0010
,
0100
0002
0000
0000
1003
0000
1001
0000
,
1000
0100
1000
0010
0100
0001
0000
0000
,
1000
0100
1000
0000
0010
0000
0110
0000
,
0000
0110
0000
0000
0000
0000
0101
0000
,
0000
0101
0000
0000
0000
0000
1000
0100
,
1000
0000
0100
0000
0010
0000
0001
0100
,
0001
0000
0100
0000
0010
0000
1000
0001
,
1000
0000
0100
0000
0010
0000
0001
0001
,
0001
1000
0000
0000
0000
0000
0000
0000
;

//---------------dance-single - ----------------
#NOTES:
     dance-single:
     :
     Hard:
     11:
     0.518,0.504,0.324,0.038,0.224:
0000
0000
0000
0000
,
0000
0000
0000
0000
,
0000
0000
0000
0000
,
0000
0000
0000
0000
,
0000
0000
0000
0000
,
1001
0000
0000
1001
0000
0000
1001
0000
0000
0000
0000
0000
0100
0000
0001
0000
,
0000
1000
0001
1000
0000
0100
0010
0000
,
1001
0000
0000
1001
0000
0000
1001
0000
0000
0000
0010
0000
0100
0000
0020
0000
,
0000
0000
0000
0130
,
0001
0000
0010
0000
0100
0000
0000
1000
0000
0010
0000
0100
0000
0010
0000
0000
,
1000
0000
0100
0000
0010
0000
0000
0001
0000
1000
0000
0010
0000
1000
0000
0000
,
0100
0000
0010
0000
0001
0000
0000
0100
0000
0010
0000
0100
0000
0001
0000
0000
,
1000
0000
0100
0000
0010
0000
0000
0100
0000
1000
0000
0010
0000
0100
0000
0000
,
0002
1000
1000
1000
,
1003
0000
0000
0001
0000
0000
1001
0000
0000
0000
0000
0000
0000
0000
0000
0000
,
1000
0000
0100
0000
1000
0000
0010
0100
,
0000
0001
0010
0000
0100
0000
0100
0000
,
1001
0000
0010
0000
0001
0000
0010
0100
,
0000
1000
0100
0000
0010
0000
0010
0000
,
0001
0000
0100
0000
0001
0000
1000
0100
,
0000
0010
0100
0000
1000
0000
1000
0000
,
0010
0000
0000
0000
0100
0000
0000
0000
0001
0000
0000
0000
1000
0001
1000
0002
,
0000
0000
0000
1003
,
0001
0100
0001
0100
0001
0000
1000
0100
,
0000
0010
0100
0000
1000
0000
1000
0000
,
0010
0100
0010
0100
0010
0000
1000
0100
,
0000
0010
0100
0000
1000
0000
1000
0000
,
0001
0010
0001
0010
0001
0000
0100
0010
,
0000
0100
0001
0000
1000
0000
1000
0000
,
0100
0000
0010
0000
0100
0000
0010
0000
0100
0000
0000
0000
1000
0001
1000
0002
,
0000
0000
0000
1003
,
0001
0100
0010
0100
0001
1000
0000
1001
,
0000
0001
0100
0000
0001
0100
0010
0000
,
1000
0100
1000
0001
0010
0100
0000
0110
,
0000
1000
0100
0000
1000
0100
0010
0000
,
0001
1000
0010
1000
0001
0010
0000
0011
,
0000
0001
1000
0000
0001
1000
0010
0000
,
1001
0000
1000
0001
1000
0001
1000
1001
,
0000
0100
0010
0001
1001
0000
0000
0000
,
0001
0000
0100
0000
0001
0000
1000
0000
0100
0000
0000
0100
0000
0000
0110
0000
,
0000
0000
0010
1000
0100
0000
0010
0000
,
0001
0000
0100
0000
0001
0000
0010
0000
0100
0000
0000
0100
0000
0000
0110
0000
,
0000
0000
1000
0100
0010
0100
1000
0000
,
0010
0000
0100
0000
0010
0000
1000
0000
0001
0000
0000
0001
0000
0000
1001
0000
,
0000
0000
0100
0001
1000
0000
0100
0000
,
0010
0000
0001
0000
1000
0000
0100
0000
1000
0000
0000
1000
0000
0000
1001
0000
,
0000
0000
0001
0100
0010
0100
0001
1000
,
1001
0000
0000
0000
0110
0000
0000
0110
0000
0000
1001
0000
0000
0000
1000
0000
,
0100
0000
1000
0100
0010
0000
0001
0100
,
0001
0000
1000
0000
0100
0000
0000
1000
0000
0000
1001
0000
0000
0000
0000
0000
,
0100
0001
1000
0001
0100
0000
0001
1000
,
0001
0000
0010
0000
0100
0000
0000
1000
0000
0000
1001
0000
0000
0000
0000
0000
,
0001
0010
0100
0010
0001
0000
1000
0010
,
1000
0000
0100
0000
0010
0000
0000
0001
0000
0000
1001
0000
0000
0000
1000
0000
,
0010
1000
0010
0100
0001
0000
0010
0100
,
0010
0000
0001
0100
0000
0101
0000
0001
,
1000
0000
0001
1000
0100
1000
0001
0010
,
1000
0010
0001
1000
0000
1001
0000
0001
,
0100
0000
0001
0100
0010
1000
0100
0010
,
0100
0000
1000
0000
0001
0000
0000
0001
0000
0000
1001
0000
0000
0000
1000
0000
,
0100
0000
0000
0000
1000
0000
0100
0000
0010
0000
0000
0000
0101
0000
0000
0101
,
0000
0000
1001
0000
0000
0000
1000
0000
0001
0000
0000
0000
1001
0000
0000
1001
,
0000
1100
0000
0100
1000
0000
0010
1000
,
0001
0000
0000
0010
0000
0100
0000
0010
0000
0001
0000
0000
0100
0000
0001
0000
,
0010
0000
0000
0001
0000
0010
0000
0100
0000
0010
0000
0000
0001
0000
1000
0000
,
0010
0000
0000
1000
0000
0001
0000
0010
0000
0001
0000
0000
0100
0000
0100
0000
,
0100
0000
0010
0100
0000
0000
0000
0000
0000
0000
0000
0000
0000
0000
0000
0000
;

//---------------dance-single - ----------------
#NOTES:
     dance-single:
     :
     Challenge:
     13:
     0.639,0.662,0.505,0.038,0.329:
0000
0000
0000
0000
,
0000
0000
0000
0000
,
0000
0000
0000
0000
,
0000
0000
0000
0000
,
0000
0000
0000
0000
,
1001
0000
0000
1001
0000
0000
1100
0000
0000
0000
1000
0000
0001
0000
0010
0000
,
0001
0000
0100
0000
0001
0000
1000
0000
0000
0000
1000
0000
0010
0100
0010
0000
,
0110
0000
0000
0110
0000
0000
1001
0000
0000
0000
1000
0000
0001
0000
0201
0000
,
0000
0000
0000
0000
0000
0010
0310
0000
,
1000
0000
0100
0000
1000
0010
0000
0100
0000
0100
0000
0001
0000
0001
1000
0000
,
0001
0000
0010
0000
0001
0100
0000
0010
0000
0010
0000
1000
0000
1000
0001
0000
,
0010
0000
0100
0000
0010
0001
0000
0100
0000
0100
0000
0001
0000
0001
1000
0000
,
0100
0000
0010
0000
0100
1000
0000
0001
0000
0001
0000
0100
0000
0100
0010
0000
,
2000
0100
0100
3100
,
1100
0000
0000
1100
0000
0000
1001
0000
0000
0000
0000
0000
0000
0000
0000
0000
,
1000
0000
0100
0000
0001
0000
0100
1000
,
0000
0010
0100
0001
0010
0100
0010
0000
,
0001
0000
0010
0000
1000
0000
0010
0001
,
0000
0100
0010
1000
0100
0010
0100
0000
,
1000
0000
0010
0000
0001
0000
0010
1000
,
0000
0001
1000
0100
1000
0010
0100
0000
,
0001
0000
0000
0000
0010
0000
0000
0000
0100
0000
0000
0000
1000
0010
1000
0002
,
0000
0000
1000
0000
0000
1000
0000
0000
1003
0000
0000
0000
1001
0000
0000
0000
,
0001
0100
0010
0100
0001
0000
1000
0001
,
0000
0010
0100
1000
0010
0100
0010
0000
,
1000
0100
0010
0100
1000
0000
0001
0100
,
0000
0001
1000
0100
0010
0001
0100
0000
,
0010
1000
0100
1000
0010
0000
1000
0001
,
0000
1000
0001
0010
0100
0010
0001
0000
,
0100
0000
0001
0000
0010
0000
0001
0000
0100
0000
0000
0000
0001
0100
0001
2000
,
0000
0000
0001
0000
0000
0001
0000
0000
3001
0000
0000
0000
1001
0000
0000
0000
,
1000
0000
0010
0000
1000
0000
0001
0000
0010
0000
0100
1000
0100
0000
1001
0000
,
0000
0001
1000
0010
0100
0010
1000
0000
,
0001
0000
0010
0000
0001
0000
1000
0000
0010
0000
0100
0001
0100
0000
1001
0000
,
0000
1000
0001
0010
0100
0010
0001
0000
,
0010
0000
0100
0000
1000
0000
0100
0000
0010
0000
0001
1000
0001
0000
0110
0000
,
0000
0010
0100
0010
1000
0001
0010
0000
,
1001
0000
1000
1000
0001
0001
1000
1100
,
0000
0010
0001
0100
0110
0000
0000
0000
,
1001
0000
0000
0001
0000
0000
0100
0000
0110
0000
0000
0110
0000
0000
1000
0000
,
0001
0010
1000
0010
0001
1000
0100
0000
,
1000
0000
0001
0000
1000
0000
0100
0000
0110
0000
0000
0110
0000
0000
1001
0000
,
0000
1000
0001
0100
1000
0100
0001
0000
,
1001
0000
0000
0001
0000
0000
0100
0000
0110
0000
0000
0110
0000
0000
1001
0000
,
0001
0010
0100
0010
0001
1000
0010
0000
,
1000
0000
0001
0000
0010
0000
0100
0000
1100
0000
0000
1100
0000
0000
0110
0000
,
0000
0000
0010
0000
0100
0000
1000
0000
0001
1000
0001
0000
1000
0010
1000
0000
,
1010
0000
0000
0000
0011
0000
0000
0011
0000
0000
1001
0000
0000
0000
1000
0000
,
0001
0010
0100
0010
0001
0000
0110
0100
,
0001
0000
0010
0000
0100
0000
0000
1000
0000
0000
1010
0000
0000
0000
0010
0000
,
0100
0000
0001
0000
1000
0000
0100
0000
0010
0000
0001
0100
0001
0000
0000
1000
,
0000
0000
0100
0000
0110
0000
0000
0110
0000
0000
1001
0000
1000
0000
0001
0000
,
0010
0100
0010
0001
1000
0000
0110
0010
,
1000
0000
0100
0000
0010
0000
0000
0001
0000
0000
0101
0000
0000
0000
0100
0000
,
0001
1000
0100
1000
0100
0010
0001
0100
,
0010
0000
0100
0000
0001
0000
1000
0001
1000
0000
1001
0000
0000
0000
0001
0000
,
1000
0100
0010
0001
1000
0000
0010
0100
,
0010
0000
1000
0000
0001
0000
0010
0001
0010
0000
1001
0000
0000
0000
1000
0000
,
0001
0010
0100
1000
0001
0000
0100
0001
,
1000
0000
0100
0000
0101
0000
0000
0101
0000
0000
1001
0000
0000
0000
0100
0000
,
0001
0000
1000
0000
0100
0000
0010
0000
0100
0000
0000
0000
1010
0000
0000
0110
,
0000
0000
1010
0000
0000
0000
0010
0000
0100
0000
0000
0000
0101
0000
0000
0110
,
0000
0101
0000
0100
0010
0000
1000
1000
,
0001
0100
0001
0100
0000
0010
0000
1000
0000
0010
0100
0000
0001
0000
0001
0000
,
0010
0001
0010
0001
0000
0100
0000
0010
0000
1000
0100
0000
0010
0000
0010
0000
,
0001
0100
0001
0100
0000
0010
0000
1000
0000
0100
0010
0000
0001
0000
0001
0000
,
0100
0001
0100
0001
0000
0000
0000
0000
0000
0000
0000
0000
0000
0000
0000
0000
;

//---------------dance-double - ----------------
#NOTES:
     dance-double:
     :
     Easy:
     5:
     0.227,0.252,0.076,0.076,0.000:
00000000
00000000
00000000
00000000
,
00000000
00000000
00000000
00000000
,
00000000
00000000
00000000
00000000
,
00000000
00000000
00000000
00000000
,
00000000
00000000
00000000
00000000
,
20020000
00000000
30030000
10000000
,
00000000
00000000
00000000
00010000
00000000
00000000
01000000
00000000
,
02200000
00000000
00000000
00000000
03300000
00000000
00000000
01100000
,
00000000
00000000
00000000
00000000
,
01000000
00000000
10000000
00000000
,
00100000
00000000
01000000
00000000
,
00001000
00000000
00100000
00000000
,
00001000
00000000
00010000
00000000
,
00000200
00000000
00000000
00000000
,
00000310
00000000
00000000
00000000
,
00001000
00000000
00000000
00000000
,
00000100
00000000
00000000
00000000
,
00000010
00000000
00000000
00000000
,
00000001
00000000
00000000
00000000
,
00000010
00000000
00000000
00000000
,
00000100
00000000
00000000
00000000
,
00010000
00000000
00000000
00000000
,
00002000
00000000
00000000
00000000
,
00013000
00000000
00010000
00000000
,
00100000
00000000
00100000
00000000
,
01000000
00000000
01000000
00000000
,
10000000
00000000
10000000
00000000
,
00100000
00000000
00100000
00000000
,
01000000
00000000
01000000
00000000
,
00001000
00000000
00001000
00000000
,
00020000
00000000
00000000
00000000
,
00031000
00010000
00001000
00000000
,
00010000
00000010
00010000
00000000
,
00000100
00000010
00000100
00000000
,
00001000
00000001
00000010
00000000
,
00000100
00010000
00001000
00000000
,
01000000
00100000
01000000
00000000
,
10010000
00010000
00010000
00010000
,
00000000
01000000
01100000
00000000
,
00100000
00100000
00100000
00000000
,
01000000
01000000
01000000
00000000
,
00010000
10000000
01000000
00100000
,
00001000
00001000
00001000
00000000
,
00010000
00010000
00010000
00000000
,
00000010
00000010
00000010
00000000
,
00000100
00000001
00000010
00000100
,
00010000
00000000
00001000
01000000
,
00200000
01300000
00000000
01100000
,
00000000
00100000
00000000
01000000
,
00010000
10000000
01000000
00100000
,
00100000
00100000
00000000
00001000
,
00010000
00000010
00000000
00000100
,
00000001
00000010
00000000
00000100
,
00001000
00010000
00100000
01000000
,
01000000
01000000
00000000
10000000
,
00100000
10000000
00001000
00000000
,
00010000
00000100
00000010
00000100
,
00000000
00001000
00000001
00000010
,
00000000
00000100
00010000
00001000
,
01000000
00100000
00000000
10000000
,
01000000
00100000
00010000
01000000
,
00000000
01000000
00000000
00000000
00000000
00000000
00001000
00000000
,
00000000
00001000
00000000
00000000
00000000
00000000
00011000
00000000
,
00010000
00001000
00010000
00000100
,
00000010
00000100
00000010
00000001
,
00000100
00000001
00000100
00000001
,
00000000
00001001
00000000
00000000
00000000
00000000
00000000
00000000
;

//---------------dance-double - ----------------
#NOTES:
     dance-double:
     :
     Medium:
     8:
     0.385,0.535,0.419,0.048,0.000:
00000000
00000000
00000000
00000000
,
00000000
00000000
00000000
00000000
,
00000000
00000000
00000000
00000000
,
00000000
00000000
00000000
00000000
,
00000000
00000000
00000000
00000000
,
10010000
00000000
00000000
10010000
00000000
00000000
00100000
00000000
,
00000000
10000000
00000000
00010000
00000000
00000000
00010000
00000000
,
10010000
00000000
00000000
10010000
00000000
00000000
00000000
20020000
,
00000000
00000000
00000000
30030000
,
10000000
01000000
00100000
00100000
,
00001000
00010000
00000010
00000010
,
00000100
00000001
00000010
00000100
,
00000100
00001000
00010000
01000000
,
00200000
00000000
00000000
00000000
,
01300000
00000000
00000000
01100000
00000000
00000000
00000000
00000000
,
00100000
00000000
01000000
00000000
,
00100000
00000000
01000000
00000000
,
00001000
00000000
00010000
00000000
,
00001000
00000000
00010000
00000000
,
00000100
00000000
00000010
00000000
,
00000100
00000000
00000010
00000000
,
00000001
00000000
00000000
00000000
00000100
00000000
00000000
00000110
,
00000000
00000000
00000000
00000000
,
00010000
00001000
00010000
00001000
,
01000000
00100000
01000000
00100000
,
10000000
01000000
10000000
01000000
,
00100000
00001000
00100000
00001000
,
00010000
00000010
00010000
00000010
,
00001000
00000001
00001000
00000001
,
00000010
00000000
00000100
00000000
00000010
00000000
00000100
00001000
,
00000000
00000000
00000000
00000000
,
01000000
00100000
01000000
00000000
00010000
00000000
00000000
10010000
,
00000000
10000000
01000000
00100000
,
00001000
00000000
00010000
00001000
00010000
00000000
00000000
00011000
,
00000000
00010000
00001000
00000100
,
00000010
00000000
00000001
00001000
00000001
00000000
00000000
00001001
,
00000000
00001000
00000100
00010000
,
00011000
00000000
00001000
00010000
00001000
00010000
00001000
00100000
,
00000000
01000000
10000000
01000000
10000000
00000000
00000000
00000000
,
11000000
11000000
10010000
10010000
,
01001000
01001000
00011000
00000000
,
00001000
00010000
00001000
00010000
00000010
00000000
00000000
00000110
,
00000000
00000000
00000010
00000100
00000010
00000100
00000001
00000000
,
00000101
00000101
00010001
00010001
,
00011000
00011000
00110000
00000000
,
01000000
10000000
01000000
10000000
00100000
00000000
00000000
01100000
,
00000000
00000000
00000000
00100000
01000000
00010000
10000000
00000000
,
10010000
00000000
01100000
00000000
00000000
01100000
00000000
00000000
,
00100000
01000000
00100000
10000000
01000000
00000000
00100000
00000000
,
00001000
00000000
00010000
00000000
00000000
00011000
00000000
00000000
,
00001000
00010000
00000010
00000100
00000010
00000000
00000110
00000000
,
00000110
00000101
00000101
00010001
,
00010001
00000000
00011000
00000000
00000000
00000000
00001000
00010000
,
00001000
00010000
00100000
00000000
01000000
00100000
00000000
00000000
,
00000000
00010000
10000000
00010000
00100000
01000000
10000000
00000000
,
00010000
00000000
01000000
00010000
01000000
00002000
00000000
00000000
,
00010000
00000000
00013000
00000000
00100100
00000000
00000010
00000001
,
00000010
00000001
00000100
00000000
00000000
00000001
00000010
00000100
,
00010000
00002000
00000000
00000000
00013000
00000000
00011000
00000000
,
00001000
00100000
00001000
00100000
01000000
10000000
00000000
00000000
,
01000000
00100000
01000000
00000000
10000000
00000000
10010000
00000000
,
00000000
10010000
00000000
00000000
00000000
00000000
00101000
00000000
,
00000000
00101000
00000000
00000000
00000000
00000000
00001000
00010000
,
00000010
00000000
00000010
00000000
00000010
00000000
00000100
00000001
,
00001000
00000100
00001000
00000000
00001000
00000000
00000100
00010000
,
00000100
00010000
00100000
00000000
00100000
00000000
01000000
01000000
,
01000000
00100000
00000000
00000000
00000000
00000000
00000000
00000000
;

//---------------dance-double - ----------------
#NOTES:
     dance-double:
     :
     Hard:
     11:
     0.521,0.504,0.333,0.038,0.229:
00000000
00000000
00000000
00000000
,
00000000
00000000
00000000
00000000
,
00000000
00000000
00000000
00000000
,
00000000
00000000
00000000
00000000
,
00000000
00000000
00000000
00000000
,
10010000
00000000
00000000
10010000
00000000
00000000
10010000
00000000
00000000
00000000
00000000
00000000
10000000
00000000
00010000
00000000
,
00000000
10000000
00010000
01000000
00000000
00001000
00010000
00000000
,
00011000
00000000
00000000
00011000
00000000
00000000
00011000
00000000
00000000
00000000
00010000
00000000
00000010
00000000
00020000
00000000
,
00000000
00000000
00000000
00030001
,
00000100
00000000
00000001
00000000
00000100
00000000
00000000
00000001
00000000
00000010
00000000
00000100
00000000
00001000
00000000
00000000
,
00000010
00000000
00000100
00000000
00000010
00000000
00000000
00010000
00000000
00001000
00000000
01000000
00000000
00100000
00000000
00000000
,
10000000
00000000
00010000
00000000
10000000
00000000
00000000
00100000
00000000
10000000
00000000
00010000
00000000
00100000
00000000
00000000
,
00010000
00000000
00001000
00000000
00010000
00000000
00000000
00001000
00000000
00000010
00000000
00000100
00000000
00000010
00000000
00000000
,
00002000
00000001
00000001
00000001
,
00003001
00000000
00000000
00001001
00000000
00000000
00001001
00000000
00000000
00000000
00000000
00000000
00000000
00000000
00000000
00000000
,
00000010
00000000
00000001
00000000
00000010
00000000
00000001
00000010
,
00000000
00000100
00010000
00000000
00001000
00000000
00010000
00000000
,
00011000
00000000
00001000
00000000
01000000
00000000
00001000
01000000
,
00000000
00100000
01000000
00000000
00010000
00000000
00100000
00000000
,
01000000
00000000
10000000
00000000
01000000
00000000
10000000
01000000
,
00000000
00100000
01000000
00000000
10000000
00000000
00010000
00000000
,
01000000
00000000
00000000
00000000
00010000
00000000
00000000
00000000
00100000
00000000
00000000
00000000
00001000
00010000
00001000
00020000
,
00000000
00000000
00000000
00031000
,
00010000
00000010
00010000
00000010
00010000
00000000
00000100
00000010
,
00000000
00000001
00000010
00000000
00000100
00000000
00001000
00000000
,
00010000
00001000
00010000
00001000
00010000
00000000
00100000
01000000
,
00000000
10000000
00010000
00000000
00100000
00000000
01000000
00000000
,
00100000
00001000
00100000
00001000
00100000
00000000
00001000
00010000
,
00000000
00000100
00000010
00000000
00000001
00000000
00000010
00000000
,
00000001
00000000
00001000
00000000
00000001
00000000
00001000
00000000
00000001
00000000
00000000
00000000
00010000
00001000
00010000
00002000
,
00000000
00000000
00000000
00013000
,
00001000
01000000
00001000
01000000
00100000
10000000
00000000
10010000
,
00000000
00010000
10000000
00000000
00010000
10000000
01000000
00000000
,
00100000
00001000
01000000
00100000
01000000
00001000
00000000
01001000
,
00000000
01000000
00100000
00000000
10000000
01000000
00100000
00000000
,
00001000
01000000
00100000
01000000
00001000
01000000
00000000
01001000
,
00000000
00001000
00010000
00000000
00000100
00000010
00000001
00000000
,
00001001
00000000
00001000
00000001
00001000
00000001
00001000
00001001
,
00000000
00000001
00000010
00000100
00000110
00000000
00000000
00000000
,
00010000
00000000
00001000
00000000
00100000
00000000
01000000
00000000
10000000
00000000
00000000
10000000
00000000
00000000
11000000
00000000
,
00000000
00000000
01000000
10000000
00010000
00000000
01000000
00000000
,
00001000
00000000
00010000
00000000
00000100
00000000
00000010
00000000
00000001
00000000
00000000
00000001
00000000
00000000
00000011
00000000
,
00000000
00000000
00000100
00000010
00010000
00000100
00010000
00000000
,
00001000
00000000
00100000
00000000
01000000
00000000
10000000
00000000
00100000
00000000
00000000
00100000
00000000
00000000
01100000
00000000
,
00000000
00000000
00100000
01000000
10000000
00000000
00100000
00000000
,
01000000
00000000
00010000
00000000
00001000
00000000
00000010
00000000
00000100
00000000
00000000
00000100
00000000
00000000
00000110
00000000
,
00000000
00000000
00000100
00000010
00000001
00000010
00000100
00010000
,
00011000
00000000
00000000
00000000
01001000
00000000
00000000
01001000
00000000
00000000
01100000
00000000
00000000
00000000
01000000
00000000
,
00100000
00000000
10000000
01000000
00100000
00000000
00010000
01000000
,
00001000
00000000
00010000
00000000
00001000
00000000
00000000
00001000
00000000
00000000
00011000
00000000
00000000
00000000
00000000
00000000
,
00010000
00000100
00000010
00000100
00010000
00000000
00000001
00000100
,
00000001
00000000
00000010
00000000
00000100
00000000
00000000
00000100
00000000
00000000
00001100
00000000
00000000
00000000
00000000
00000000
,
00010000
00001000
00100000
01000000
00100000
00000000
00010000
01000000
,
00010000
00000000
00100000
00000000
01000000
00000000
00000000
01000000
00000000
00000000
11000000
00000000
00000000
00000000
10000000
00000000
,
00010000
01000000
00010000
00100000
00001000
00000000
00010000
00001000
,
00010000
00000000
00000100
00000010
00000000
00000110
00000000
00000100
,
00000001
00000000
00000010
00000100
00000010
00000001
00000100
00000010
,
00010000
00001000
00100000
01000000
00000000
01100000
00000000
01000000
,
10000000
00000000
01000000
00100000
00010000
01000000
00001000
10000000
,
00001000
00000000
00010000
00000000
00001000
00000000
00000000
00001000
00000000
00000000
00011000
00000000
00000000
00000000
00010000
00000000
,
00000010
00000000
00000000
00000000
00000100
00000000
00000001
00000000
00000010
00000000
00000000
00000000
00000011
00000000
00000000
00000011
,
00000000
00000000
00001001
00000000
00000000
00000000
00001000
00000000
00000100
00000000
00000000
00000000
00011000
00000000
00000000
00011000
,
00000000
01001000
00000000
01000000
00100000
00000000
10000000
01000000
,
00100000
00000000
00000000
00010000
00000000
01000000
00000000
00001000
00000000
00010000
00000000
00000000
00000100
00000000
00000010
00000000
,
00000001
00000000
00000000
00000100
00000000
00000001
00000000
00000010
00000000
00000100
00000000
00000000
00010000
00000000
00001000
00000000
,
00100000
00000000
00000000
00010000
00000000
10000000
00000000
00010000
00000000
00100000
00000000
00000000
00001000
00000000
00001000
00000000
,
00010000
00001000
00010000
00001000
00000000
00000000
00000000
00000000
00000000
00000000
00000000
00000000
00000000
00000000
00000000
00000000
;

//---------------dance-double - ----------------
#NOTES:
     dance-double:
     :
     Challenge:
     13:
     0.623,0.662,0.438,0.038,0.319:
00000000
00000000
00000000
00000000
,
00000000
00000000
00000000
00000000
,
00000000
00000000
00000000
00000000
,
00000000
00000000
00000000
00000000
,
00000000
00000000
00000000
00000000
,
10010000
00000000
00000000
10010000
00000000
00000000
01010000
00000000
00000000
00000000
01000000
00000000
00001000
00000000
00100000
00000000
,
00001000
00000000
01000000
00000000
00010000
00000000
00001000
00000000
00000000
00000000
00000010
00000000
00000100
00000010
00000100
00000000
,
00000110
00000000
00000000
00000110
00000000
00000000
00000101
00000000
00000000
00000000
00000001
00000000
00010000
00000000
00012000
00000000
,
00000000
00000000
00000000
00000000
00000000
00010000
00013000
00000000
,
01000000
00000000
00100000
00000000
01000000
00010000
00000000
01000000
00000000
01000000
00000000
00010000
00000000
00010000
10000000
00000000
,
01000000
00000000
00100000
00000000
01000000
10000000
00000000
00100000
00000000
00100000
00000000
10000000
00000000
10000000
00001000
00000000
,
00100000
00000000
00001000
00000000
00010000
00000010
00000000
00000100
00000000
00000100
00000000
00000001
00000000
00000001
00001000
00000000
,
00000100
00000000
00000010
00000000
00000100
00010000
00000000
00001000
00000000
00001000
00000000
01000000
00000000
01000000
00100000
00000000
,
20000000
00010000
00010000
30010000
,
10010000
00000000
00000000
10010000
00000000
00000000
01100000
00000000
00000000
00000000
00000000
00000000
00000000
00000000
00000000
00000000
,
10000000
00000000
01000000
00000000
00100000
00000000
00010000
00001000
,
00000000
00000010
00000100
00000001
00000010
00000100
00000010
00000000
,
00000001
00000000
00000100
00000000
00000010
00000000
00010000
00001000
,
00000000
01000000
00100000
10000000
01000000
00100000
01000000
00000000
,
10000000
00000000
00100000
00000000
01000000
00000000
00001000
00010000
,
00000000
00000100
00000010
00000001
00000010
00000100
00000010
00000000
,
00000001
00000000
00000000
00000000
00000100
00000000
00000000
00000000
00000010
00000000
00000000
00000000
00010000
00001000
00010000
00002000
,
00000000
00000000
00003000
00011000
,
00001000
01000000
00100000
01000000
00001000
00000000
00100000
01000000
,
00000000
10000000
01000000
00100000
00010000
01000000
00010000
00000000
,
10000000
01000000
00100000
01000000
10000000
00000000
00001000
01000000
,
00000000
00001000
00010000
00000100
00000010
00000001
00000100
00000000
,
00000010
00001000
00000001
00001000
00000010
00000000
00001000
00010000
,
00000000
01000000
00100000
10000000
01000000
00100000
00010000
00000000
,
10000000
00000000
00001000
00000000
00100000
00000000
00001000
00000000
10000000
00000000
00000000
00000000
00001000
00010000
00001000
00020000
,
00000000
00000000
00030000
00011000
,
00010000
00000000
00000010
00000000
00010000
00000000
00000100
00000000
00000010
00000000
00000001
00000100
00000001
00000000
00001001
00000000
,
00000000
00001000
00000010
00010000
00001000
00100000
01000000
00000000
,
10000000
00000000
01000000
00000000
10000000
00000000
00010000
00000000
01000000
00000000
00100000
10000000
00100000
00000000
10010000
00000000
,
00000000
10000000
00001000
00100000
01000000
00100000
00001000
00000000
,
00010000
00000000
00000010
00000000
00000100
00000000
00000010
00000000
00010000
00000000
00000100
00000010
00000100
00000000
00001001
00000000
,
00000000
00000001
00001000
00000001
00000010
00000100
00010000
00000000
,
00011000
00000000
00001000
00001000
00100000
00100000
01000000
01100000
,
00000000
10000000
01000000
00100000
01100000
00000000
00000000
00000000
,
10010000
00000000
00000000
01000000
00000000
00000000
00100000
00000000
00011000
00000000
00000000
00011000
00000000
00000000
00010000
00000000
,
00000100
00000001
00000100
00010000
00000010
00000100
00000010
00000000
,
00000100
00000000
00000001
00000000
00000010
00000000
00000100
00000000
00010000
00000000
00000000
00001000
00000000
00000000
00011000
00000000
,
00000000
00001000
00100000
10000000
00100000
00001000
01000000
00000000
,
10010000
00000000
00000000
01000000
00000000
00000000
00100000
00000000
00011000
00000000
00000000
00011000
00000000
00000000
00010000
00000000
,
00000010
00000001
00000010
00010000
00000100
00000010
00000001
00000000
,
00000100
00000000
00000001
00000000
00000100
00000000
00000010
00000000
00001000
00000000
00000000
00010000
00000000
00000000
00011000
00000000
,
00000000
00000000
00100000
00000000
01000000
00000000
10000000
00000000
00010000
01000000
00010000
00000000
10000000
00010000
10000000
00000000
,
10010000
00000000
00000000
00000000
10010000
00000000
00000000
10010000
00000000
00000000
01001000
00000000
00000000
00000000
00001000
00000000
,
00010000
00000100
00000010
00000100
00010000
00000000
00000110
00000100
,
00000001
00000000
00000010
00000000
00000100
00000000
00000000
00010000
00000000
00000000
00011000
00000000
00000000
00000000
00001000
00000000
,
01000000
00000000
00010000
00000000
10000000
00000000
01000000
00000000
00100000
00000000
00010000
01000000
00010000
00000000
00000000
00100000
,
00000000
00000000
00001000
00000000
00010010
00000000
00000000
00010010
00000000
00000000
00000110
00000000
00000100
00000000
00000001
00000000
,
00000010
00000100
00000010
00000001
00010000
00000000
00011000
00001000
,
10000000
00000000
01000000
00000000
00100000
00000000
00000000
00001000
00000000
00000000
00011000
00000000
00000000
00000000
00010000
00000000
,
00001000
10000000
01000000
00100000
01000000
10000000
00001000
01000000
,
00100000
00000000
01000000
00000000
00001000
00000000
00010000
00001000
00010000
00000000
00010010
00000000
00000000
00000000
00000010
00000000
,
00000100
00000001
00000010
00001000
00000010
00000000
00000001
00000100
,
00000001
00000000
00000010
00000000
00000100
00000000
00010000
00001000
00010000
00000000
00011000
00000000
00000000
00000000
01000000
00000000
,
00100000
10000000
01000000
00100000
00010000
00000000
01000000
00010000
,
10000000
00000000
01000000
00000000
00100000
00000000
00000000
00001000
00000000
00000000
00011000
00000000
00000000
00000000
00001000
00000000
,
00010000
00000000
00000100
00000000
00000010
00000000
00000001
00000000
00000100
00000000
00000000
00000000
00000101
00000000
00000000
00001001
,
00000000
00000000
00001100
00000000
00000000
00000000
00010000
00000000
00001000
00000000
01000000
00000000
01100000
00000000
00000000
11000000
,
00000000
01100000
00000000
00100000
01000000
00000000
00001000
00001000
,
00010000
00000100
00010000
00000100
00000000
00000010
00000000
00000001
00000000
00000100
00000001
00000000
00010000
00000000
00010000
00000000
,
00001000
01000000
00001000
01000000
00000000
00100000
00000000
10000000
00000000
00010000
00100000
00000000
00001000
00000000
00001000
00000000
,
00010000
00000100
00010000
00000100
00000000
00000010
00000000
00000001
00000000
00001000
00000010
00000000
00010000
00000000
00010000
00000000
,
00001000
00010000
00001000
00010000
00000000
00000000
00000000
00000000
00000000
00000000
00000000
00000000
00000000
00000000
00000000
00000000
;

//---------------dance-single - ----------------
#NOTES:
     dance-single:
     :
     Beginner:
     2:
     0.099,0.157,0.076,0.000,0.000: // measure 1
0000
0000
0000
0000
,  // measure 2
0000
0000
0000
0000
,  // measure 3
0000
0000
0000
0000
,  // measure 4
0000
0000
0000
0000
,  // measure 5
0000
0000
0000
0000
,  // measure 6
1000
0000
0000
0000
,  // measure 7
0000
0000
0000
0000
,  // measure 8
0001
0000
0000
0000
,  // measure 9
0000
0000
0000
0000
,  // measure 10
0100
0000
0000
0000
,  // measure 11
0100
0000
0000
0000
,  // measure 12
0100
0000
0000
0000
,  // measure 13
0100
0000
0000
0000
,  // measure 14
0110
0000
0000
0000
,  // measure 15
0000
0000
0000
0000
,  // measure 16
0010
0000
0000
0000
,  // measure 17
0100
0000
0000
0000
,  // measure 18
0010
0000
0000
0000
,  // measure 19
0100
0000
0000
0000
,  // measure 20
0001
0000
0000
0000
,  // measure 21
0010
0000
0000
0000
,  // measure 22
0001
0000
0000
0000
,  // measure 23
1000
0000
0000
0000
,  // measure 24
0010
0000
0000
0000
,  // measure 25
1000
0000
0000
0000
,  // measure 26
0010
0000
0000
0000
,  // measure 27
1000
0000
0000
0000
,  // measure 28
0001
0000
0000
0000
,  // measure 29
0010
0000
0000
0000
,  // measure 30
0001
0000
0000
0000
,  // measure 31
0010
0000
0000
0000
,  // measure 32
0100
0000
0000
0000
,  // measure 33
0010
0000
0000
0000
,  // measure 34
0100
0000
0000
0000
,  // measure 35
1000
0000
0000
0000
,  // measure 36
0100
0000
0000
0000
,  // measure 37
1000
0000
0000
0000
,  // measure 38
0010
0000
0000
0000
,  // measure 39
0000
0000
0000
0000
,  // measure 40
0110
0000
0100
0000
,  // measure 41
0100
0000
0000
0000
,  // measure 42
0110
0000
0010
0000
,  // measure 43
0010
0000
0000
0000
,  // measure 44
1001
0000
1000
0000
,  // measure 45
1000
0000
0000
0000
,  // measure 46
1001
0000
0001
0000
,  // measure 47
0001
0000
0000
0000
,  // measure 48
0110
0000
0000
0010
,  // measure 49
0000
0000
0000
0100
,  // measure 50
0000
0100
0000
0100
,  // measure 51
0000
0000
0000
0001
,  // measure 52
0000
0001
0000
0001
,  // measure 53
0000
0000
0000
1000
,  // measure 54
0000
1000
0000
1000
,  // measure 55
0000
0000
0000
0010
,  // measure 56
0000
0000
0000
0100
,  // measure 57
0000
0000
0000
0001
,  // measure 58
0000
0000
0000
0100
,  // measure 59
0000
0000
0000
0010
,  // measure 60
0000
0000
1000
0000
,  // measure 61
0000
0000
0000
1001
,  // measure 62
0000
0000
0000
1001
,  // measure 63
0000
0000
0000
0001
,  // measure 64
0000
0000
0000
0010
,  // measure 65
0000
0000
0000
0100
,  // measure 66
0000
0000
0000
1000
;
