#TITLE:ハレ晴レユカイ;
#SUBTITLE:(DJ Bouche J-HAPPY HARDCORE Mix);
#ARTIST:Remixed by DJ Bouche;
#TITLETRANSLIT:HARE HARE YUKAI;
#SUBTITLETRANSLIT:;
#ARTISTTRANSLIT:;
#CREDIT:DigiMindAxel;
#BANNER:HARE HARE YUKAI (DJ Bouche J-HAPPY HARDCORE Mix).png;
#BACKGROUND:HARE HARE YUKAI (DJ Bouche J-HAPPY HARDCORE Mix)-bg.png;
#LYRICSPATH:HARE HARE YUKAI (DJ Bouche J-HAPPY HARDCORE Mix).lrc;
#CDTITLE:DigiMindAxel original simfile.png;
#MUSIC:HARE HARE YUKAI (DJ Bouche J-HAPPY HARDCORE Mix).ogg;
#METERTYPE:DDR X;
#OFFSET:-5.596;
#SAMPLESTART:29.614;
#SAMPLELENGTH:12.000;
#SELECTABLE:YES;
#BPMS:0.000=172.000;
#STOPS:;
#BGCHANGES:-17.000=HARE HARE YUKAI (DJ Bouche J-HAPPY HARDCORE Mix).avi=1.000=1=1=0,
99999=-nosongbg-=1.000=0=0=0 // don't automatically add -songbackground-
;

//---------------dance-single - ----------------
#NOTES:
     dance-single:
     :
     Easy:
     4:
     0.254,0.296,0.287,0.057,0.000: // measure 1
0000
0000
0000
0000
,  // measure 2
0000
1001
0000
1000
,  // measure 3
0000
1000
0000
0010
,  // measure 4
0000
0010
0000
1000
,  // measure 5
0000
0001
1001
0000
,  // measure 6
1001
0000
0100
0000
,  // measure 7
0100
0000
0010
0000
,  // measure 8
0010
0000
1000
0000
,  // measure 9
0001
0010
0100
1000
,  // measure 10
0100
0020
0000
0000
,  // measure 11
0031
0000
0010
0000
,  // measure 12
0001
0000
0010
0000
,  // measure 13
0100
0000
1000
0000
,  // measure 14
0100
0000
1001
0000
,  // measure 15
1001
0000
1001
0000
,  // measure 16
0100
0020
0000
0000
,  // measure 17
0000
0130
0000
0000
0000
0000
0110
0000
,  // measure 18
0000
0001
0000
0100
,  // measure 19
0000
0001
0000
1000
,  // measure 20
0000
0100
0000
1000
,  // measure 21
0000
0100
0000
1000
,  // measure 22
0000
0001
0010
0100
,  // measure 23
1000
0100
0010
0001
,  // measure 24
1000
0100
0010
0001
,  // measure 25
0000
2002
0000
0000
0000
0000
0000
0000
,  // measure 26
3003
1000
0010
1000
,  // measure 27
0000
0001
0000
0010
,  // measure 28
0000
0001
0010
0001
,  // measure 29
0000
0010
0000
0100
,  // measure 30
0000
1000
0100
0010
,  // measure 31
0001
0010
0100
1000
,  // measure 32
0001
1001
0000
1001
,  // measure 33
0000
1001
0000
0000
,  // measure 34
0000
1001
1000
0010
,  // measure 35
0100
0001
0100
0010
,  // measure 36
1000
0001
0010
0100
,  // measure 37
1000
1001
0000
0000
,  // measure 38
0000
1001
0000
0000
1001
0000
0000
0000
,  // measure 39
1001
0000
1001
1001
,  // measure 40
0010
0000
0000
0010
0000
0000
0000
0110
,  // measure 41
0000
0000
0000
0100
0000
0000
0000
0010
,  // measure 42
0000
1000
0000
1001
0000
0000
0000
0000
;

//---------------dance-single - ----------------
#NOTES:
     dance-single:
     :
     Medium:
     7:
     0.413,0.385,0.301,0.129,0.000:
0000
1001
0000
0001
0000
0001
0000
0001
,
1000
0100
0000
0000
1000
0000
0001
0000
,
1000
0001
0100
0010
,
0100
0010
1000
0010
,
1000
0001
1001
1000
,
1001
1001
0010
0100
,
0010
1000
0100
0010
,
0001
0100
1000
0100
,
0001
2002
0000
0000
,
3003
0220
0000
0330
,
0010
0001
0100
0001
,
0010
0100
1000
0010
,
1000
0010
1000
0100
,
0010
0001
1001
1000
,
1001
0001
1001
0100
,
0010
0000
2002
0000
0000
0000
0000
3003
,
0000
0110
0000
0100
0000
0100
0100
0000
,
0000
0000
0001
0100
0001
0100
0010
0000
,
1000
0010
0100
0001
,
0001
0000
1000
0100
1000
0100
0010
0000
,
0001
0010
0100
1000
,
0001
1000
0100
0001
,
0100
1000
0010
0001
,
0010
0000
1000
0001
1000
0001
1000
0100
,
1000
0000
0000
1001
0000
1001
0000
1001
,
0000
0000
0001
1000
0001
1000
0100
0000
,
1000
0100
0010
0001
,
1000
0000
0001
0100
0001
0100
0010
0000
,
1000
0010
0100
0001
,
1000
0100
1000
0001
1000
0000
0001
0000
,
1000
0000
0001
0010
0001
1000
0001
0000
,
1000
1001
0001
0001
,
0001
1000
0100
0000
0000
0000
1000
0000
,
1000
0000
1001
0000
1000
0010
0000
1000
,
0001
0000
0010
0000
0100
0010
0000
0001
,
0100
0000
0010
0000
1000
0100
0000
2000
,
0000
3001
0000
0000
,
0000
1001
0000
1010
0000
0000
0000
0101
,
0000
0000
0000
0010
0100
0010
1000
0000
,
0002
0000
0000
2000
0000
3003
0000
0001
,
0000
0001
0100
0010
0000
1000
0001
0010
,
0000
0011
0000
1001
0000
0000
0000
0000
;

//---------------dance-single - ----------------
#NOTES:
     dance-single:
     :
     Hard:
     11:
     0.598,0.652,0.444,0.129,0.036:
0000
1001
0000
1001
0000
1001
0000
1000
,
0010
0100
0110
0000
0100
0001
0100
0001
,
1000
0000
0100
0000
0010
0100
1000
0001
,
0000
1000
0100
0000
0001
0100
1000
0001
,
0000
1000
0010
0100
0101
0000
0100
0010
,
1010
0000
1001
0000
1000
0100
1000
0100
,
0010
0000
0000
0000
0100
0000
1000
0000
0010
0000
0100
0000
0001
0000
0000
1000
,
0000
0001
0100
0000
1000
0100
0001
0000
,
1001
0000
0001
0000
1000
0000
0100
0000
0001
0000
0100
0000
1000
0001
1000
0001
,
1000
0001
1000
0001
2000
0000
0000
0000
3020
0000
0000
0000
0130
0000
0001
0000
,
1000
0100
0010
0001
1000
0000
0001
1000
,
0100
0010
0001
0000
1000
0010
0100
0000
,
0001
0100
0000
1000
0000
0100
0001
1000
,
0001
1000
0010
0100
0110
0000
0100
0001
,
0101
0000
1000
0100
1100
0000
0010
0000
,
1001
0000
0120
0000
0000
0000
0130
0001
,
1000
1100
0000
1100
0000
1100
1001
0000
,
0000
0000
1000
0010
1000
0001
0010
0001
,
1000
0100
0000
0001
0000
0100
0000
1000
,
0100
0010
0001
0100
0001
1000
0100
1000
,
0001
0100
0000
1000
0000
0100
0000
0001
,
1000
0001
1000
0100
0001
0100
1000
0010
,
0100
0001
1000
0010
0001
0010
1000
0100
,
0010
0001
0100
0100
0001
0001
1000
1000
,
0010
0100
0000
1001
0000
1001
0000
1001
,
0000
0000
1000
0100
0010
0100
1000
0001
,
0010
0100
0000
0001
0000
0100
0000
1000
,
0100
0010
0001
0100
0010
0100
0001
1000
,
0010
0100
0000
1000
0000
0100
0000
0001
,
1000
0001
1000
0010
0001
0010
1000
0001
,
0010
0100
1000
0010
0001
0010
1000
0001
,
0100
0010
0110
0000
0110
0000
1001
1000
,
0001
0010
0100
0000
0000
0000
1000
0000
,
1000
0000
1000
0001
0010
0001
1000
0001
,
0010
0001
1000
0100
0010
0002
0000
2003
,
0000
3001
1000
0010
1000
0001
1000
0010
,
1000
0001
0020
0000
0000
0000
0000
0030
,
0000
1001
0000
0100
0110
0000
0000
0100
,
0110
0000
0000
0100
0100
0001
1001
0000
,
0022
0000
0030
2000
0000
3003
0000
1001
,
0000
0001
0100
1000
0000
0001
0010
1000
,
0000
1001
0000
0110
0000
0000
0000
0000
;

//---------------dance-single - ----------------
#NOTES:
     dance-single:
     :
     Beginner:
     2:
     0.137,0.205,0.100,0.000,0.000:
0000
0000
0000
0000
,
1000
0000
1000
0000
,
1000
0000
1000
0000
,
0001
0000
0001
0000
,
0000
0000
0000
0000
,
0100
0000
0100
0000
,
0100
0000
0100
0000
,
0010
0000
0010
0000
,
0000
0000
0000
1001
,
0000
0000
0000
0000
,
0001
0000
1000
0000
,
0001
0000
1000
0000
,
0001
0000
0000
0000
,
1001
0000
1001
0000
,
1001
0000
0000
0000
,
0100
0000
0000
0000
,
0000
0110
0000
1000
,
0000
0100
0000
1000
,
0000
0000
0000
0001
,
0000
0010
0000
0001
,
0000
0000
0000
1000
,
0000
0001
0000
1000
,
0000
0001
0000
0100
,
0000
0010
0000
0000
,
0000
0000
0000
1000
,
0000
0001
0000
1000
,
0000
0001
0000
0010
,
0000
0100
0000
0010
,
0000
0000
0000
0001
,
0000
0100
0000
0001
,
0000
0100
0000
0010
,
0000
0010
0000
1001
,
0000
0000
0000
0100
,
0000
0100
0000
0010
,
0000
0010
0000
1000
,
0000
1000
0000
0000
,
0000
0000
0000
0000
,
0001
0000
1000
0000
,
0001
0000
0100
0000
,
0000
0000
0000
0000
,
0000
0000
0000
0000
0000
0000
0000
1001
;

//---------------dance-double - ----------------
#NOTES:
     dance-double:
     :
     Medium:
     7:
     0.424,0.415,0.258,0.115,0.000:
00000000
10010000
00000000
00010000
00000000
00010000
00000000
00010000
,
10000000
01000000
00000000
00000000
10000000
00000000
00100000
00000000
,
01000000
00100000
10000000
01000000
,
00100000
00001000
00010000
00001000
,
00010000
00000010
00000110
00000100
,
00000110
00001001
00000001
00000100
,
00000001
00000000
00000100
00000000
00000010
00000000
00010000
00001000
,
00010000
00001000
01000000
00100000
,
01000000
01200000
01000000
01000000
,
01300000
20020000
00000000
30030000
,
00010000
00100000
00001000
00100000
,
00010000
01000000
00100000
10000000
,
00100000
01000000
00001000
00010000
,
00000010
00000100
00000110
00000100
,
00000110
00000000
00000100
00000000
00000110
00000000
00001000
00000001
,
00001000
00000000
00002002
00000000
00000000
00000000
00000000
00003003
,
00000000
00000110
00000000
00000010
00000000
00010000
00001000
00000000
,
00000000
00000000
10000000
00100000
10000000
00100000
01000000
00000000
,
00001000
00010000
00000010
00000100
,
00000010
00000000
00001000
00000100
00001000
00000100
00000010
00000000
,
00000100
00010000
00001000
01000000
,
00100000
00000000
10000000
01000000
10000000
00000000
00010000
00100000
,
00010000
00000000
01000000
00100000
01000000
00000000
00001000
00010000
,
00001000
00000000
00010000
00000100
00010000
00000100
00010000
00000100
,
00001000
00000000
00000000
00000001
00000000
00000001
00000000
00000001
,
00000000
00000000
00010000
00000100
00010000
00000100
00001000
00000000
,
00000100
00010000
00001000
00100000
,
00010000
00000000
00100000
00001000
00100000
00001000
00010000
00000000
,
00000100
00001000
00000010
00000100
,
00000001
00000010
00000001
00000010
00000100
00000000
00010000
00000000
,
00001000
00000000
10000000
01000000
10000000
01000000
00100000
00000000
,
00010000
10010000
10000000
10000000
,
00001000
00010000
00001000
00000000
00000000
00000000
00010000
00000000
,
00010000
00000000
00011000
00000000
00000001
00000100
00000000
00000001
,
00001000
00000000
00000100
00000000
00000010
00000100
00000000
00010000
,
00001000
00000000
00010000
00000000
00001000
01000000
00000000
00200000
,
00000000
01300000
00000000
00000000
,
00000000
10010000
00000000
01100000
00000000
00000000
00000000
01100000
,
00000000
00000000
00000000
00100000
01000000
00001000
00010000
00000000
,
00002000
00000000
00000000
00020000
00000000
00033000
00000000
00001000
,
00000000
00001000
00010000
00000010
00000000
00000100
00000001
00010000
,
00000000
00011000
00000000
00011000
00000000
00000000
00000000
00000000
;

//---------------dance-double - ----------------
#NOTES:
     dance-double:
     :
     Hard:
     11:
     0.583,0.593,0.415,0.057,0.036:
00000000
00011000
00000000
00011000
00000000
00011000
00000000
00001000
,
01000000
00100000
01100000
00000000
01000000
10000000
00100000
01000000
,
00100000
00000000
10000000
00000000
00001000
01000000
00100000
01000000
,
00000000
00001000
01000000
00000000
00100000
01000000
00001000
00010000
,
00000000
00001000
00010000
00000100
00000110
00000000
00000010
00000001
,
00001001
00000000
00001001
00000000
00000010
00000001
00000010
00000001
,
00001000
00000000
00000000
00000000
00000100
00000000
00010000
00000000
00000100
00000000
00010000
00000000
00001000
00000000
00000000
01000000
,
00000000
00100000
10000000
00000000
00100000
10000000
00001000
00000000
,
10000000
00000000
01000000
00000000
00001000
00000000
01000000
00000000
10000000
00000000
00001000
00000000
00010000
00001000
00010000
00001000
,
00010000
00001000
00010000
00001000
00010000
00000000
00000000
00000000
00011000
00000000
00000000
00000000
00001000
00000000
01000000
00000000
,
00001000
01000000
00100000
10000000
01000000
00000000
10000000
01000000
,
00100000
00001000
00010000
00000000
00000100
00010000
00001000
00000000
,
00010000
00000001
00000000
00000010
00000000
00000100
00000010
00000001
,
00000010
00000001
00001000
00000010
00001010
00000000
00000010
00000100
,
00000110
00000000
00010000
00001000
00011000
00000000
01000000
00000000
,
01100000
00000000
01200000
00000000
00000000
00000000
10300000
00001000
,
00010000
00011000
00000000
00011000
00000000
00011000
00010100
00000000
,
00000000
00000000
00001000
00000010
00001000
00000001
00000010
00000001
,
00010000
00001000
00000000
01000000
00000000
00100000
00000000
10000000
,
01000000
00100000
01000000
10000000
00001000
10000000
01000000
10000000
,
00001000
01000000
00000000
00001000
00000000
00010000
00000000
00000010
,
00000100
00000010
00001000
00000100
00000001
00000100
00010000
00001000
,
10000000
01000000
00010000
01000000
10000000
00001000
00010000
00001000
,
01000000
00100000
10000000
10000000
01000000
01000000
00001000
00001000
,
00000010
00000100
00000000
00000100
00000000
00000100
00000000
00000100
,
00000000
00000000
00000001
00000010
00000100
00000010
00000001
00010000
,
00001000
00010000
00000000
00001000
00000000
01000000
00000000
00001000
,
10000000
00100000
10000000
00001000
10000000
01000000
00100000
00001000
,
00010000
00001000
00000000
00010000
00000000
00010000
00000000
00010000
,
00000001
00001000
00000001
00000100
00001000
00000100
00000001
00010000
,
00001000
01000000
00010000
01000000
10000000
01000000
00010000
10000000
,
00001000
00010000
00011000
00000000
00011000
00000000
00011000
00010000
,
00000001
00000100
00000010
00000000
00000000
00000000
00010000
00000000
,
00010000
00000000
00010000
00000001
00000100
00000001
00010000
00001000
,
00010000
00001000
10000000
01000000
00100000
01100000
00000000
01100000
,
00000000
00100000
10000000
00001000
10000000
00100000
10000000
00001000
,
00010000
00000010
00000200
00000000
00000000
00000000
00000000
00000300
,
00000000
00000110
00000000
00010000
00011000
00000000
00000000
00001000
,
00011000
00000000
00000000
00010000
00010000
00001000
01001000
00000000
,
02001000
00000000
00000000
03002000
00000000
00000000
00003000
10001000
,
00000000
10000000
01000000
00001000
00000000
00000010
00000100
00000001
,
00000000
00010000
00000000
00011000
00000000
00000000
00000000
00000000
;

//---------------dance-double - ----------------
#NOTES:
     dance-double:
     :
     Easy:
     4:
     0.250,0.296,0.258,0.057,0.000:
00000000
00000000
00000000
00000000
,
10010000
00000000
10000000
00000000
,
10000000
00000000
00001000
00000000
,
00001000
00000000
01000000
00000000
,
00001000
00011000
00000000
00011000
,
00000000
00010000
00000000
00010000
,
00000000
00000001
00000000
00000001
,
00000000
00000010
00000000
00000100
,
00000010
00000100
00000010
00010000
,
00002000
00000000
00000000
00013000
,
00000000
00001000
00000000
00010000
,
00000000
00001000
00000000
01000000
,
00000000
00100000
00000000
01000000
,
00000000
01100000
00000000
01100000
,
00000000
01100000
00000000
10000000
,
00002000
00000000
00000000
00000000
00000000
00000000
00000000
00013000
,
00000000
00000000
00011000
00000000
,
00010000
00000000
00000100
00000000
,
00010000
00000000
00000001
00000000
,
00000100
00000000
00000001
00000000
,
00001000
00000000
00000001
00000000
,
00000010
00000001
00000010
00000001
,
00010000
00001000
00010000
00001000
,
00010000
00000010
00000100
00000000
,
00000000
00000220
00000000
00000000
00000000
00000000
00000000
00000000
,
00000330
00000010
00000100
00000010
,
00000000
00010000
00000000
00001000
,
00000000
00010000
00001000
00010000
,
00000000
00001000
00000000
10000000
,
00000000
01000000
10000000
01000000
,
10000000
00001000
00010000
00001000
,
00010000
00001000
00000000
00001000
,
00000000
00011000
00000000
00000000
,
00000000
00011000
00010000
00001000
,
00010000
00000001
00001000
00000001
,
00001000
00000010
00010000
00001000
,
00010000
00011000
00000000
00000000
,
00000000
10010000
00000000
00000000
10010000
00000000
00000000
00000000
,
10010000
00000000
10010000
10010000
,
10000000
00000000
00000000
00001000
00000000
00000000
00000000
00011000
,
00000000
00000000
00000000
00010000
00000000
00000000
00000000
00000010
,
00000000
00000100
00000000
00000110
00000000
00000000
00000000
00000000
;
