#TITLE:Going Global;
#SUBTITLE:;
#ARTIST:Moir & Mac;
#TITLETRANSLIT:;
#SUBTITLETRANSLIT:;
#ARTISTTRANSLIT:;
#CREDIT:DigiMindAxel;
#BANNER:Going Global.png;
#BACKGROUND:Going Global-bg.png;
#LYRICSPATH:;
#CDTITLE:beatmania.png;
#MUSIC:Going Global.ogg;
#METERTYPE:DDR X;
#OFFSET:-9.198;
#SAMPLESTART:44.751;
#SAMPLELENGTH:12.000;
#SELECTABLE:YES;
#BPMS:0.000=135.000;
#STOPS:;
#BGCHANGES:;

//---------------dance-single - ----------------
#NOTES:
     dance-single:
     :
     Beginner:
     3:
     0.133,0.204,0.226,0.000,0.000:
0001
0000
1000
0000
,
0001
0000
1000
0000
,
0001
0000
1000
0000
,
0010
0000
0010
0000
,
1001
0000
0000
0000
,
0000
0000
0000
0000
,
0010
0000
0000
0000
,
0000
0000
0000
0000
,
0100
0000
0000
0000
,
0000
0000
0000
0000
,
0010
0000
0000
0000
,
0000
0000
0000
0000
,
1000
0000
1000
0000
,
0001
0000
0000
0000
,
0001
0000
0001
0000
,
1000
0000
0000
0000
,
1001
0000
0000
0000
,
0110
0000
0000
0000
,
0001
0000
1000
0000
,
1001
0000
0000
0000
,
1001
0000
0001
0000
,
1000
0000
0100
0000
,
0010
0000
0001
0000
,
1000
0000
0100
0000
,
1000
0000
0010
0000
,
0100
0000
0001
0000
,
0100
0000
0010
0000
,
1000
0000
1000
0000
,
0000
1001
0000
1001
,
0000
0110
0000
0110
,
0000
1001
0000
1001
,
0000
0110
0000
0110
,
0000
1001
0000
1001
,
0000
0110
0000
0110
,
0010
0000
0010
0000
,
0010
0000
0010
0000
,
1001
0000
0000
0000
;

//---------------dance-single - ----------------
#NOTES:
     dance-single:
     :
     Medium:
     8:
     0.338,0.397,0.314,0.075,0.000:
0001
0010
0100
1000
,
0100
0010
0001
1001
,
0001
0010
0100
1000
,
1001
1001
0110
0110
,
2001
0010
0000
0000
,
0000
0010
0000
3000
,
0002
0100
0000
0000
,
0000
0100
0000
0003
,
2000
0100
0000
0000
,
0000
0100
0000
3000
,
0002
0010
0000
0000
,
0000
0010
0000
0003
,
1000
0100
0010
0001
,
0010
0000
0100
0000
1000
0001
1000
0001
,
1000
0010
0100
0001
,
0100
0000
0010
0000
1000
0001
1000
0000
,
1001
0010
1000
0010
,
1001
0100
0001
0100
,
1001
1000
0011
0001
,
1100
0000
0000
0000
1000
0001
1000
0001
,
1000
0000
0100
1000
0100
0000
0010
0001
,
0010
0000
0001
0100
0001
1000
0100
1000
,
0100
0000
1000
0010
1000
0000
0001
0010
,
0001
0000
0010
0100
0010
0001
0010
0001
,
0010
0000
0001
1000
0001
0000
0100
0001
,
0100
0000
0010
1000
0010
1000
0001
1000
,
0001
0000
0010
0100
0010
0000
0001
0100
,
0001
0100
0010
0100
0010
0100
0001
0000
,
0100
0000
0101
0000
0100
0000
0001
0001
,
1000
0000
1100
0000
1000
0000
0001
0001
,
1000
0000
1001
0000
0001
0000
1000
1000
,
0100
0000
1100
0000
0100
0000
1000
1000
,
0010
0000
0110
0000
0100
0001
0010
0010
,
0010
0000
1001
0000
0001
0010
0100
0100
,
0100
1001
1001
1001
,
1010
1010
0101
0101
,
2002
0000
0000
0000
,
0000
3003
0000
0000
0000
0000
0000
0000
;

//---------------dance-single - ----------------
#NOTES:
     dance-single:
     :
     Hard:
     11:
     0.508,0.560,0.302,0.113,0.245: // measure 1
0110
0000
0000
0000
1000
0000
0000
0000
0001
0000
0000
0000
1000
0000
0001
0010
,  // measure 2
0001
0000
0010
0000
0100
0000
1000
1000
,  // measure 3
0001
0000
0100
0000
0010
0000
0100
0001
,  // measure 4
1000
1000
0100
0100
1000
1000
0100
0100
,  // measure 5
0010
0000
0000
0000
0001
0000
0000
0001
0000
0000
0000
0000
0010
0000
0000
0010
,  // measure 6
0000
0000
0000
0000
0100
0000
0000
0100
0000
0000
1000
0000
0001
0000
0001
0000
,  // measure 7
1000
0000
0000
0000
0100
0000
0000
0100
0000
0000
0000
0000
0010
0000
0000
0010
,  // measure 8
0000
0000
0000
0000
0100
0000
0000
0100
0000
0000
1000
0000
0001
0000
0001
0000
,  // measure 9
0100
0000
0000
0000
0010
0000
1000
0010
0000
0000
0000
0000
0010
0000
1000
0010
,  // measure 10
0000
0000
0000
0000
0010
0000
1000
0010
0000
0000
1000
0000
0001
0000
0001
0000
,  // measure 11
1000
0000
0000
0000
0100
0000
1000
0100
0000
0000
0000
0000
0100
0000
1000
0100
,  // measure 12
0000
0000
0000
0000
0100
0000
1000
0100
0000
0100
1000
0000
0001
0000
0001
0000
,  // measure 13
0100
0000
0010
0000
0100
0000
0001
1000
0000
0000
0010
0000
0100
0000
0001
1000
,  // measure 14
0000
0000
0010
0000
0100
0000
0001
1000
0000
1000
0001
0000
0010
0000
0010
0000
,  // measure 15
0001
0000
1000
0000
0100
0000
0010
0100
0000
0000
1000
0000
0100
0000
0010
0100
,  // measure 16
0000
0000
1000
0000
0100
0000
0010
0100
0000
0100
0010
0000
0001
0000
0001
0000
,  // measure 17
2001
0100
0001
3100
,  // measure 18
1002
0100
1000
0103
,  // measure 19
0002
1000
1003
0000
0200
1000
1300
0000
,  // measure 20
0002
0010
0013
0001
0100
0100
0100
0100
,  // measure 21
0001
0000
0010
0000
1000
0000
0010
0001
0000
0000
0010
0000
1000
0000
0010
0001
,  // measure 22
0000
0000
0010
0000
1000
0000
0010
0001
0000
0000
1000
0000
0001
0000
0001
0000
,  // measure 23
1000
0000
0001
0000
0100
0000
1000
0100
0000
0000
0001
0000
0100
0000
1000
0100
,  // measure 24
0000
0000
0001
0000
0100
0000
1000
0100
0000
0000
0001
0000
1000
0000
1000
0000
,  // measure 25
0001
0000
1000
0000
0010
0000
0001
0010
0000
0000
1000
0000
0010
0000
0001
0010
,  // measure 26
0000
0000
1000
0000
0010
0000
0001
0010
0000
0000
1000
0000
0001
0000
0001
0000
,  // measure 27
1000
0000
0001
0000
0010
0000
1000
0010
0000
0000
0001
0000
0010
0000
1000
0010
,  // measure 28
0000
0000
0001
0000
0010
0000
1000
0010
0000
0000
0001
1000
0001
0000
1000
0000
,  // measure 29
0100
0000
0010
0000
0110
0000
0000
0001
1000
0000
0100
0000
1100
0000
1100
0000
,  // measure 30
0010
0000
0100
0000
0110
0000
0000
1000
0001
0000
0010
0000
0011
0000
0011
0000
,  // measure 31
0100
0000
0010
0000
0110
0000
0000
1000
0001
0000
0100
0000
0101
0000
0101
0000
,  // measure 32
1000
0000
0001
0000
1001
0000
0000
0001
1000
0000
0010
0000
1010
0000
1010
0000
,  // measure 33
1002
1000
1000
0000
1003
0010
0001
0010
,  // measure 34
2001
0001
0001
0000
3001
0100
1000
0100
,  // measure 35
1001
0000
0010
0001
0110
0000
0100
1000
,  // measure 36
0110
0000
1010
0000
0011
0000
1001
1000
,  // measure 37
2002
0000
0000
0000
,  // measure 38
0000
3003
0000
0000
0000
0000
0000
0000
;

//---------------dance-single - ----------------
#NOTES:
     dance-single:
     :
     Easy:
     5:
     0.239,0.397,0.327,0.239,0.000:
0002
0000
0103
0000
,
0210
0000
0301
1001
,
2000
0000
3100
0000
,
1001
1001
1001
1001
,
0002
0000
0000
0000
,
0000
0000
0000
0000
,
2003
0000
0000
0000
,
0000
0000
0000
0000
,
3020
0000
0000
0000
,
0000
0000
0000
0000
,
0230
0000
0000
0000
,
0000
0000
0000
0000
,
0301
0010
0000
0100
,
0010
0100
0000
1000
,
0001
0100
0000
0010
,
0100
0010
0000
1000
,
2002
0000
0000
3003
,
0220
0000
0000
0330
,
2002
3003
2002
3003
,
2002
3003
0110
0110
,
0001
0010
0001
0010
,
0100
1000
0100
1000
,
0100
0010
0100
0010
,
0100
1000
0010
1000
,
0100
0010
0001
0010
,
0100
0010
0001
0010
,
0100
1000
0001
1000
,
0100
0010
0001
0100
,
0010
0110
0000
0110
,
0000
1001
0000
1001
,
0000
0110
0000
0110
,
0000
1001
0000
1001
,
0000
0110
0000
0110
,
0000
1001
0000
1001
,
0001
0010
0100
1000
,
0001
0001
1000
1000
,
2002
0000
0000
0000
,
0000
3003
0000
0000
0000
0000
0000
0000
;

//---------------dance-double - ----------------
#NOTES:
     dance-double:
     :
     Easy:
     6:
     0.212,0.303,0.264,0.075,0.000:
10000000
01000000
10000000
00000000
,
01000000
00100000
01000000
01100000
,
00100000
01000000
00100000
00000000
,
10000000
01000000
00100000
00010000
,
00002000
00000000
00000000
00000000
,
00000000
00000000
00000000
00000000
,
00023000
00000000
00000000
00000000
,
00000000
00000000
00000000
00000000
,
00030200
00000000
00000000
00000000
,
00000000
00000000
00000000
00000000
,
00000320
00000000
00000000
00000000
,
00000000
00000000
00000000
00000000
,
00000031
00000000
00000100
00000000
,
00000010
00000000
00001000
00000000
,
00000001
00000000
00010000
00000000
,
00001000
00000000
00100000
00000000
,
01100000
00000000
01000000
00000000
,
10010000
00000000
00010000
00000000
,
10010000
10000000
10010000
10000000
,
10010000
00000000
01100000
01100000
,
01000000
00001000
01000000
00001000
,
00010000
00001000
00010000
00001000
,
00000010
00000100
00000010
00000100
,
00000001
00000010
00000001
00010000
,
00010000
00001000
01000000
00001000
,
01000000
00100000
01000000
00100000
,
01000000
00010000
00100000
00010000
,
00100000
00001000
00010000
00001000
,
00001000
00011000
00000000
00011000
,
00000000
00010001
00000000
00010001
,
00000000
00000110
00000000
00000110
,
00000000
00010001
00000000
00010001
,
00000000
00011000
00000000
00011000
,
00000000
10001000
00000000
10001000
,
00001000
00100000
01000000
10000000
,
00001000
00001000
00010000
00010000
,
00022000
00000000
00000000
00000000
,
00000000
00033000
00000000
00000000
00000000
00000000
00000000
00000000
;

//---------------dance-double - ----------------
#NOTES:
     dance-double:
     :
     Medium:
     8:
     0.338,0.397,0.314,0.075,0.000:
10000000
00010000
00100000
01000000
,
00100000
00010000
10000000
10010000
,
00010000
00100000
00001000
00010000
,
00011000
00011000
00010001
00010001
,
00000102
00000100
00000000
00000000
,
00000000
00000100
00000000
00000003
,
00002000
00000100
00000000
00000000
,
00000000
00000100
00000000
00003000
,
00000200
00010000
00000000
00000000
,
00000000
00010000
00000000
00000300
,
00020000
00001000
00000000
00000000
,
00000000
00001000
00000000
00030000
,
00001000
01000000
00100000
01000000
,
00001000
00000000
00010000
00000000
00000100
00000010
00000100
00000010
,
00000100
00010000
00001000
00100000
,
01000000
00000000
00100000
00000000
00001000
00010000
00001000
00000000
,
00011000
00000100
00000010
00000100
,
00011000
00100000
01000000
00100000
,
00011000
00010000
00010010
00000010
,
00000110
00000000
00000000
00000000
00000010
00000100
00000010
00000100
,
00000010
00000000
00001000
00000100
00010000
00000000
00010000
00001000
,
00010000
00000000
00010000
00001000
01000000
00100000
01000000
00100000
,
01000000
00000000
00010000
00100000
00010000
00000000
00010000
10000000
,
00001000
00000000
00001000
00010000
00000010
00000100
00000010
00000100
,
00000010
00000000
00001000
00000001
00001000
00000000
00001000
00000010
,
00010000
00000000
00010000
00001000
00010000
00100000
01000000
00100000
,
01000000
00000000
10000000
00100000
10000000
00000000
10000000
00001000
,
00010000
00000000
00010000
00001000
00010000
00000010
00000100
00000001
,
00000100
00000000
00000110
00000000
00000100
00000000
00000001
00000001
,
00010000
00000000
00011000
00000000
00010000
00000000
00001000
00001000
,
10000000
00000000
10010000
00000000
00010000
00000000
10000000
10000000
,
01000000
00000000
11000000
00000000
01000000
00000000
10000000
10000000
,
00001000
00000000
00101000
00000000
00001000
00010000
00000010
00000010
,
00000010
00000000
00000110
00000000
00000010
00000100
00010000
00010000
,
00010000
00011000
00011000
00011000
,
01001000
01001000
01100000
01100000
,
20020000
00000000
00000000
00000000
,
00000000
30030000
00000000
00000000
00000000
00000000
00000000
00000000
;

//---------------dance-double - ----------------
#NOTES:
     dance-double:
     :
     Hard:
     11:
     0.517,0.560,0.277,0.025,0.258:
01100000
00000000
00000000
00000000
00100000
00000000
00000000
00000000
01000000
00000000
00000000
00000000
00100000
00000000
10000000
00001000
,
10000000
00000000
01000000
00000000
00100000
00000000
00001000
00001000
,
00010000
00000000
00000010
00000000
00000100
00000000
00000001
00001000
,
00000100
00000100
00000010
00000010
00000100
00000100
00000010
00000010
,
00000001
00000000
00000000
00000000
00000100
00000000
00000000
00000100
00000000
00000000
00000000
00000000
00000010
00000000
00000000
00000010
,
00000000
00000000
00000000
00000000
00010000
00000000
00000000
00010000
00000000
00000000
00001000
00000000
10000000
00000000
10000000
00000000
,
00100000
00000000
00000000
00000000
01000000
00000000
00000000
01000000
00000000
00000000
00000000
00000000
00001000
00000000
00000000
00001000
,
00000000
00000000
00000000
00000000
00010000
00000000
00000000
00010000
00000000
00000000
00000100
00000000
00000010
00000000
00000010
00000000
,
00000001
00000000
00000000
00000000
00000100
00000000
00000010
00000100
00000000
00000000
00000000
00000000
00000010
00000000
00000100
00000010
,
00000000
00000000
00000000
00000000
00010000
00000000
00001000
00010000
00000000
00000000
00001000
00000000
01000000
00000000
01000000
00000000
,
00100000
00000000
00000000
00000000
10000000
00000000
00010000
10000000
00000000
00000000
00000000
00000000
00010000
00000000
10000000
00010000
,
00000000
00000000
00000000
00000000
01000000
00000000
00001000
00010000
00000000
00010000
00001000
00000000
00010000
00000000
00010000
00000000
,
00000100
00000000
00000010
00000000
00000100
00000000
00001000
00000001
00000000
00000000
00000010
00000000
00000100
00000000
00001000
00000001
,
00000000
00000000
00000010
00000000
00000100
00000000
00010000
00001000
00000000
00001000
00010000
00000000
00001000
00000000
00001000
00000000
,
00100000
00000000
01000000
00000000
10000000
00000000
00010000
10000000
00000000
00000000
01000000
00000000
10000000
00000000
00010000
10000000
,
00000000
00000000
00001000
00000000
00010000
00000000
00000010
00000100
00000000
00000100
00000010
00000000
00000100
00000000
00000100
00000000
,
00000001
00000100
00001000
00000100
00000001
00001000
00000001
00010000
,
00001000
00100000
10000000
00100000
00001000
01000000
00001000
01000000
,
00001000
00001000
00010000
00000010
00000100
00000100
00000001
00000000
,
00000010
00000010
00000100
00010000
00001000
00001000
00001000
00001000
,
10000000
00000000
00100000
00000000
10000000
00000000
01000000
00100000
00000000
00000000
00010000
00000000
10000000
00000000
01000000
00100000
,
00000000
00000000
00010000
00000000
10000000
00000000
01000000
00100000
00000000
00000000
00001000
00000000
00010000
00000000
00010000
00000000
,
00000001
00000000
00000100
00000000
00000010
00000000
00000100
00000001
00000000
00000000
00000100
00000000
00000010
00000000
00000100
00000001
,
00000000
00000000
00000100
00000000
00000010
00000000
00000100
00000001
00000000
00000000
00010000
00000000
00001000
00000000
00001000
00000000
,
00100000
00000000
01000000
00000000
10000000
00000000
00010000
10000000
00000000
00000000
01000000
00000000
10000000
00000000
00010000
10000000
,
00000000
00000000
01000000
00000000
10000000
00000000
00010000
10000000
00000000
00000000
00001000
00000000
00010000
00000000
00010000
00000000
,
00000010
00000000
00000100
00000000
00000010
00000000
00001000
00000001
00000000
00000000
00000100
00000000
00000010
00000000
00001000
00000001
,
00000000
00000000
00000100
00000000
00000010
00000000
00001000
00000001
00000000
00000000
00010000
00000100
00010000
00000000
00001000
00000000
,
00001000
00000000
01000000
00000000
01100000
00000000
00000000
00100000
10000000
00000000
01000000
00000000
11000000
00000000
11000000
00000000
,
00100000
00000000
01000000
00000000
01100000
00000000
00000000
01000000
00001000
00000000
00010000
00000000
00011000
00000000
00011000
00000000
,
00001000
00000000
00000010
00000000
00000110
00000000
00000000
00000100
00001000
00000000
00000001
00000000
00000101
00000000
00000101
00000000
,
00000100
00000000
00000010
00000000
00000110
00000000
00000000
00000100
00001000
00000000
00010000
00000000
00011000
00000000
00011000
00000000
,
00001000
00000000
00100000
00000000
01100000
00000000
00000000
01000000
10000000
00000000
00010000
00000000
00110000
00000000
00110000
00000000
,
00100000
00000000
00001000
00000000
00011000
00000000
00000000
00010000
00000010
00000000
00000100
00000000
00000110
00000000
00000110
00000000
,
00000011
00000000
00001000
00000010
00010010
00000000
00001000
01000000
,
00100000
00100000
01000000
01000000
00100000
00100000
01000000
01000000
,
20020000
00000000
00000000
00000000
,
00000000
30030000
00000000
00000000
00000000
00000000
00000000
00000000
;
