#TITLE:GEO SONG;
#SUBTITLE:;
#ARTIST:world sequence feat.Sana;
#TITLETRANSLIT:;
#SUBTITLETRANSLIT:;
#ARTISTTRANSLIT:;
#CREDIT:DigiMindAxel;
#BANNER:GEO SONG.png;
#BACKGROUND:GEO SONG-bg.png;
#LYRICSPATH:GEO SONG.lrc;
#CDTITLE:pop'n music.png;
#MUSIC:GEO SONG.ogg;
#METERTYPE:DDR X;
#OFFSET:-3.114;
#SAMPLESTART:62.761;
#SAMPLELENGTH:12.000;
#SELECTABLE:YES;
#BPMS:0.000=88.000;
#STOPS:;
#BGCHANGES:;

//---------------dance-single - ----------------
#NOTES:
     dance-single:
     :
     Easy:
     2:
     0.108,0.120,0.009,0.112,0.000: // measure 1
0000
0000
0000
0000
,  // measure 2
1000
0000
0001
0000
,  // measure 3
1000
0000
0100
0000
,  // measure 4
0010
0000
0100
0000
,  // measure 5
1000
0000
0001
0001
,  // measure 6
1000
0000
0100
0000
,  // measure 7
0010
0000
0100
0000
,  // measure 8
1000
0000
0001
0000
,  // measure 9
0100
0000
0001
0000
,  // measure 10
1000
0000
0100
0000
,  // measure 11
0010
0000
0100
0000
,  // measure 12
1000
0000
0001
0000
,  // measure 13
0100
0000
0001
0000
,  // measure 14
2000
0000
3000
0000
,  // measure 15
0002
0000
0003
0000
,  // measure 16
2000
0000
3000
0000
,  // measure 17
0002
0000
1003
0000
,  // measure 18
0200
0000
1300
0000
,  // measure 19
0020
0000
0130
0000
,  // measure 20
0002
0000
0013
0000
,  // measure 21
0002
0000
2003
0000
,  // measure 22
3000
0000
0000
0000
,  // measure 23
0001
0000
1000
0000
,  // measure 24
0100
0000
0010
0001
,  // measure 25
0100
0000
0010
0000
,  // measure 26
1000
0000
0100
0000
,  // measure 27
1000
0001
0100
0000
,  // measure 28
0010
0000
1000
0100
,  // measure 29
0010
0000
0001
0000
,  // measure 30
0100
0000
0010
0010
,  // measure 31
0200
0000
0000
0300
,  // measure 32
0020
0000
0000
0030
,  // measure 33
1000
0000
0100
0000
,  // measure 34
0010
0000
0001
0000
,  // measure 35
0010
0000
0100
0000
,  // measure 36
1000
0000
0001
1000
,  // measure 37
0100
0000
0010
0000
,  // measure 38
0001
0000
0100
0000
,  // measure 39
0220
0000
0000
0000
,  // measure 40
0000
0000
0000
0000
,  // measure 41
0330
0000
0000
0000
;

//---------------dance-single - ----------------
#NOTES:
     dance-single:
     :
     Medium:
     6:
     0.219,0.207,0.017,0.095,0.000:
0000
0000
0000
0000
,
1000
0100
1000
0010
,
0100
0001
1000
1000
,
0001
0000
0010
0000
0100
0000
1000
0002
,
0000
1000
1000
1000
,
1003
1000
1000
0001
,
1000
1000
1000
0001
,
0010
0010
0010
0001
,
0010
0010
0010
0001
,
0100
0100
0100
0010
,
1000
1000
1000
0100
,
0010
0010
0010
0001
,
0100
0100
0100
0010
,
2000
0100
0100
3100
,
0020
0001
0001
0031
,
0200
0010
0010
0310
,
1001
0000
0000
1000
0001
0000
0100
0001
,
2000
0100
0100
3100
,
0020
0001
0001
0031
,
0200
0010
0010
0310
,
2000
0001
0001
3001
,
1000
0100
0010
0001
1000
0000
0000
0000
,
0001
0100
0001
1000
0000
0000
0100
1000
,
0010
0010
0100
0100
,
0001
0010
0100
1000
0000
0000
0000
0002
,
0000
0000
0000
1003
0000
0000
0001
1000
,
0100
0010
0001
1000
0000
0000
0010
0100
,
0010
0100
0001
0000
1000
0000
1000
0000
,
0001
0100
0010
0100
0000
0001
1000
0100
,
0000
0000
0000
0000
1000
0100
0010
0001
,
1000
1000
0001
0001
,
1000
1000
0010
0010
,
0000
0100
0000
0100
0000
0100
0100
0100
,
0000
0001
0000
0001
0000
0001
0001
0001
,
0000
1000
0000
1000
0000
1000
1000
1000
,
0000
0100
0000
0100
0000
0100
0100
0100
,
0000
0010
0000
0010
0000
0010
0010
0010
,
0000
0001
0000
0001
0000
0001
0001
0001
,
2002
0000
0000
0000
,
0000
0000
0000
0000
,
3003
0000
0000
0000
;

//---------------dance-single - ----------------
#NOTES:
     dance-single:
     :
     Hard:
     8:
     0.366,0.361,0.232,0.120,0.103:
0000
0000
0000
0000
0000
0000
0000
0001
,
1000
0100
0010
0001
0000
0000
0100
0010
,
1000
1000
0001
0001
0010
0100
0000
1000
,
0010
1000
1000
0001
0000
0001
0100
2000
,
0000
3100
0101
0110
,
1001
0000
0000
0010
0100
0010
0001
0100
,
1000
0000
0000
0100
0001
0100
1000
0100
,
0010
0000
0001
0010
1000
0010
0000
0001
,
2000
0000
3001
1000
0100
0010
0001
0000
,
1001
0000
0000
1000
0010
0001
0010
1000
,
0001
0000
0000
1000
0100
0001
0100
1000
,
0010
0000
0100
0001
2000
0000
3100
0010
,
0002
0000
0000
1000
1003
0000
0010
0100
,
0020
0000
1000
0000
1030
0001
0010
0200
,
0000
0000
1000
0000
1300
0001
0010
0100
,
1100
0000
0000
1000
0010
0100
0010
1000
,
0002
0000
0000
0010
0013
0001
1000
0010
,
0100
0001
0100
0001
0010
1000
0010
1000
,
0010
0001
0010
0001
0000
0010
0100
0010
,
0100
1000
0001
0010
1000
0010
0001
1000
,
0001
0000
0100
0000
1000
0000
0100
0000
0001
0000
1000
0000
0001
0000
1000
0010
,
1000
0001
0010
0100
1000
0001
0010
0100
1000
0000
0000
0000
1000
0000
0000
0000
,
1001
0000
0001
0100
0001
0000
2000
0000
0000
0000
0000
0000
3001
0000
1000
0100
,
1000
0000
0001
0100
0001
0000
0010
0000
0100
0000
0100
0000
1000
0000
1000
0000
,
0001
0000
0100
0001
0100
0000
0020
0000
0000
0000
1030
0000
0100
0000
0020
0000
,
0000
0000
0031
0000
1000
0000
0100
0000
1000
0000
0010
0000
0100
0000
0001
1000
,
0001
0000
1000
0000
0010
0000
0210
0000
0000
0000
0000
0000
0301
0000
1000
0100
,
1000
0000
0001
0100
0010
0000
1000
0000
0100
0000
0010
0000
0010
0000
0001
1000
,
0001
0000
1000
0100
1000
0000
1001
0000
0000
0000
0010
0000
0100
0000
0002
0000
,
0000
1000
1003
0001
0010
1000
0010
0001
,
0100
0000
0010
0100
0010
0000
0000
0000
1000
0000
0001
0010
0001
0000
0010
0000
,
0100
0000
1000
0010
1000
0000
0000
0000
0001
0000
0100
0010
0100
0000
0001
0000
,
1000
0000
1100
0000
0000
0000
1100
0000
0000
0000
1000
0001
0100
0000
0101
0000
,
0000
0000
0110
0000
0000
0000
0110
0000
0000
0000
0100
1000
0001
0000
1001
0000
,
0000
0000
0101
0000
0000
0000
0101
0000
0000
0000
0100
0010
0001
0000
1001
0000
,
0000
0000
1100
0000
0000
0000
1100
0000
0000
0000
1000
0001
0100
0000
0101
0000
,
0000
0000
1001
0000
0000
0000
1001
0000
0000
0000
0001
0010
0100
0000
1100
0000
,
0000
0000
0110
0000
0000
0000
0110
0000
0000
0000
0010
0001
0100
0000
0110
0000
,
2200
0000
0000
0000
,
0000
0000
0000
0000
,
3300
0000
0000
0000
;

//---------------dance-double - ----------------
#NOTES:
     dance-double:
     :
     Easy:
     3:
     0.122,0.155,0.009,0.146,0.000:
00000000
00000000
00000000
00000000
,
10000000
00000000
01000000
00000000
,
10000000
00000000
00100000
01000000
,
00010000
00000000
00100000
00000000
,
00001000
00000000
00010000
00001000
,
00010000
00000000
00000100
00000000
,
00000010
00000000
00000001
00000000
,
00000010
00000000
00000100
00000000
,
00001000
00000001
00001000
00000000
,
00000100
00000000
00010000
00000000
,
00001000
00000000
00100000
00000000
,
01000000
00000000
10000000
00010000
,
20000000
00000000
30010000
00000000
,
02000000
00000000
03000000
00000000
,
00200000
00000000
00300000
00000000
,
00020000
00000000
00030000
00000000
,
00002000
00000000
00003100
00000000
,
00000020
00000000
00000031
00000000
,
00020000
00000000
00030010
00000000
,
00002000
00000000
00013000
00000000
,
00200000
00000000
02300000
00000000
,
13000000
10000000
10000000
00000000
,
01000000
00000000
00100000
00000000
,
00010000
00000000
10000000
00010000
,
00001000
00000000
00000100
00000000
,
00000010
00000000
00000001
00000000
,
00000100
00000001
00010000
00000000
,
00001000
00010000
00001000
00010000
,
00100000
00000000
01000000
00000000
,
10000000
00000000
00100000
01000000
,
00200000
00000000
00000000
00300000
,
02000000
00000000
00000000
03000000
,
00010000
00000000
00001000
00000000
,
00000010
00000000
00000100
00000000
,
00000010
00000000
00010000
00000000
,
00001000
00000000
00100000
01000000
,
20000000
00000000
30200000
00000000
,
02300000
00000000
03001000
00000000
,
00022000
00000000
00000000
00000000
,
00000000
00000000
00000000
00000000
,
00033000
00000000
00000000
00000000
;

//---------------dance-double - ----------------
#NOTES:
     dance-double:
     :
     Medium:
     6:
     0.225,0.224,0.086,0.060,0.000:
00000000
00000000
00000000
00000000
00000000
00000000
00000000
10000000
,
00010000
00000000
10000000
00010000
00000000
00000000
10000000
00000000
,
00100000
00000000
01000000
00000000
00001000
00010000
00000000
00000100
,
00000010
00000000
00000100
00000010
00000000
00000001
00001000
00000002
,
00000000
00001000
00001000
00001000
,
00001003
00000001
00001000
00000001
,
00010000
00001000
00010000
00001000
,
00100000
01000000
00100000
01000000
,
10000000
00100000
10000000
00100000
,
10000000
00010000
10000000
00010000
,
00001000
00010000
00001000
00010000
,
00000100
00000010
00000100
00000010
,
00000001
00000100
00000001
00000100
,
00000002
00010000
00010000
00010003
,
00002000
00010000
00010000
00013000
,
02000000
00100000
00100000
03100000
,
10010000
00000000
00000000
10000000
00010000
00000000
00100000
00000000
,
01000000
11000000
01000000
11000000
,
00001000
01001000
00001000
01001000
,
00010000
00011000
00010000
00011000
,
00000010
00000110
00000010
00000110
,
00000100
00000010
00000001
00001000
00000100
00000000
00000000
00000000
,
00010000
00001000
00010000
00001000
00000000
00000000
00100000
01000000
,
10000000
10000000
00010000
00010000
,
01000000
00100000
01000000
00100000
00000000
00000000
00000000
20000000
,
00000000
00000000
00000000
30001000
00000000
00000000
01000000
00100000
,
01000000
00001000
00010000
00001000
00000000
00000000
00010000
00000100
,
00000010
00000001
00000001
00001000
,
00000010
00000100
00000001
00000010
00000000
00000001
00000010
00000100
,
00000000
00000000
00000000
00000000
00001000
00010000
01000000
00100000
,
01000000
01000000
00100000
00100000
,
01000000
01000000
00001000
00001000
,
00000000
00010000
00000000
00010000
00000000
00010000
00001000
00010000
,
00000000
00000010
00000000
00000010
00000000
00000010
00000100
00000010
,
00000000
00001000
00000000
00001000
00000000
00001000
00010000
00001000
,
00000000
00100000
00000000
00100000
00000000
00100000
01000000
00100000
,
00000000
10000000
00000000
10000000
00000000
10000000
00010000
10000000
,
00000000
00001000
00000000
00001000
00000000
00001000
00010000
00001000
,
00022000
00000000
00000000
00000000
,
00000000
00000000
00000000
00000000
,
00033000
00000000
00000000
00000000
;

//---------------dance-double - ----------------
#NOTES:
     dance-double:
     :
     Hard:
     8:
     0.363,0.379,0.155,0.129,0.103:
00000000
00000000
00000000
00000000
00000000
00000000
00000000
10000000
,
00001000
00100000
01000000
00100000
00000000
00000000
00001000
00010000
,
00000100
00000100
00000010
00000010
00000001
00001000
00000000
00000100
,
00000010
00000001
00000001
00010000
00000000
00010000
00001000
00200000
,
00000000
01300000
11000000
10010000
,
01100000
00000000
00000000
00100000
10000000
01000000
00001000
01000000
,
10000000
00000000
00000000
00100000
01000000
00001000
00100000
00010000
,
00001000
00000000
00000010
00000100
00000001
00000001
00000000
00010000
,
00000020
00000000
00001030
00010000
00100000
01000000
00100000
00000000
,
10010000
00000000
00000000
10000000
00100000
00001000
00100000
10000000
,
00010000
00000000
00000000
00001000
00000010
00000100
00000001
00000001
,
00010000
00000000
00001000
00100000
02000000
00000000
03100000
00010000
,
20000000
00000000
00000000
00001000
30001000
00000000
01000000
00100000
,
02000000
00000000
00010000
00000000
03010000
00100000
01000000
00200000
,
00000000
00000000
00001000
00000000
00301000
00010000
00000100
00000010
,
00000110
00000000
00000000
00000100
00000001
00000010
00001000
00000010
,
00000002
00000000
00000000
00001000
00001003
00000001
00000010
00000100
,
00010100
00010100
01001000
01001000
,
11000000
00000000
11000000
00000000
10010000
00010000
10000000
01000000
,
00101000
00101000
00000010
00000010
,
00000011
00000000
00000000
00000000
00000011
00000000
00000001
00000000
00000100
00000000
00000010
00000000
00010000
00000000
00001000
00010000
,
00001000
10000000
01000000
00100000
00001000
10000000
01000000
00100000
00001000
00000000
00000000
00000000
01000000
00000000
00000000
00000000
,
01100000
00000000
00100000
10000000
01000000
00000000
02000000
00000000
00000000
00000000
00000000
00000000
03000000
00000000
10000000
00010000
,
10000000
00000000
00001000
00100000
00001000
00000000
00010000
00000000
00000100
00000000
00000001
00000000
00000100
00000000
00001000
00000000
,
00010000
00000000
00100000
01000000
10000000
00000000
20000000
00000000
00000000
00000000
30100000
00000000
01000000
00000000
00002000
00000000
,
00000000
00000000
00013000
00000000
00001000
00000000
00000100
00000000
00000010
00000000
00000000
00000000
00000001
00000000
00000100
00000001
,
00000010
00000000
00000100
00000000
00010000
00000000
00020000
00000000
00000000
00000000
00000000
00000000
00031000
00000000
10000000
00010000
,
10000000
00000000
01000000
10000000
01000000
00000000
00100000
00000000
00010000
00000000
00001000
00000000
00000010
00000000
00000100
00000010
,
00000100
00000000
00000001
00000010
00000100
00000000
00000200
00000000
00000000
00000000
00010300
00000000
00001000
00000000
00200000
00000000
,
00000000
01000000
01300000
10000000
00010000
01000000
10000000
01000000
,
00010000
00000000
10000000
00010000
10000000
00000000
00000000
00000000
00001000
00000000
00010000
00000010
00000100
00000000
00000001
00000000
,
00000001
00000000
00000010
00000100
00001000
00000000
00000000
00000000
00010000
00000000
01000000
00100000
10000000
00000000
10000000
00000000
,
00010000
00000000
01000000
00000000
00100000
00000000
01000000
00000000
00010000
00000000
00100000
01000000
10000000
00000000
10000000
00000000
,
00001000
00000000
00010000
00000000
00000010
00000000
00010000
00000000
00001000
00000000
00010000
00000100
00000010
00000000
00000010
00000000
,
00000001
00000000
00000100
00000000
00000010
00000000
00000100
00000000
00000001
00000000
00000010
00000100
00010000
00000000
00010000
00000000
,
00001000
00000000
10000000
00000000
01000000
00000000
10000000
00000000
00001000
00000000
10000000
00100000
01000000
00000000
01000000
00000000
,
00100000
00000000
01000000
00000000
00001000
00000000
00010000
00000000
00001000
00000000
01000000
00100000
10000000
00000000
10000000
00000000
,
01000000
00000000
00100000
00000000
01000000
00000000
10000000
00000000
00010000
00000000
01000000
00001000
00010000
00000000
00010000
00000000
,
00020200
00000000
00000000
00000000
,
00000000
00000000
00000000
00000000
,
00030300
00000000
00000000
00000000
;

//---------------dance-single - ----------------
#NOTES:
     dance-single:
     :
     Beginner:
     1:
     0.041,0.065,0.017,0.000,0.000: // measure 1
0000
0000
0000
0000
,  // measure 2
1000
0000
0000
0000
,  // measure 3
0000
0000
0000
0000
,  // measure 4
0100
0000
0000
0000
,  // measure 5
0000
0000
0000
0000
,  // measure 6
0010
0000
0000
0000
,  // measure 7
0001
0000
0000
0000
,  // measure 8
0010
0000
0000
0000
,  // measure 9
0001
0000
0000
0000
,  // measure 10
0100
0000
0000
0000
,  // measure 11
0010
0000
0000
0000
,  // measure 12
0100
0000
0000
0000
,  // measure 13
0010
0000
0000
0000
,  // measure 14
1000
0000
0000
0000
,  // measure 15
0000
0000
0000
0000
,  // measure 16
1000
0000
0000
0000
,  // measure 17
0000
0000
0000
0000
,  // measure 18
1001
0000
0000
0000
,  // measure 19
0000
0000
0000
0000
,  // measure 20
0001
0000
0000
0000
,  // measure 21
0000
0000
0000
0000
,  // measure 22
0000
0000
0000
0000
,  // measure 23
0010
0000
0000
0000
,  // measure 24
0100
0000
0000
0000
,  // measure 25
0010
0000
0000
0001
,  // measure 26
0000
0000
0000
0000
,  // measure 27
1000
0000
0000
0000
,  // measure 28
0001
0000
0000
0000
,  // measure 29
1000
0000
0000
0100
,  // measure 30
0000
0000
0000
0000
,  // measure 31
0010
0000
0000
0000
,  // measure 32
0001
0000
0000
0000
,  // measure 33
0100
0000
0000
0000
,  // measure 34
0010
0000
0000
0000
,  // measure 35
0100
0000
0000
0000
,  // measure 36
0010
0000
0000
0000
,  // measure 37
1000
0000
0000
0000
,  // measure 38
0001
0000
0000
0000
,  // measure 39
1001
0000
0000
0000
;
