#TITLE:激烈で華麗なる日々;
#SUBTITLE:;
#ARTIST:神前暁;
#TITLETRANSLIT:GEKIRETSU DE KAREINARU HIBI;
#SUBTITLETRANSLIT:;
#ARTISTTRANSLIT:SATORU KOUSAKI;
#CREDIT:DigiMindAxel;
#BANNER:GEKIRETSU DE KAREINARU HIBI.png;
#BACKGROUND:GEKIRETSU DE KAREINARU HIBI-bg.png;
#LYRICSPATH:;
#CDTITLE:DigiMindAxel original simfile.png;
#MUSIC:GEKIRETSU DE KAREINARU HIBI.ogg;
#METERTYPE:DDR X;
#OFFSET:-5.918;
#SAMPLESTART:31.822;
#SAMPLELENGTH:12.000;
#SELECTABLE:YES;
#BPMS:0.000=185.000;
#STOPS:;
#BGCHANGES:;

//---------------dance-single - ----------------
#NOTES:
     dance-single:
     :
     Easy:
     6:
     0.309,0.393,0.243,0.192,0.000:
0001
0000
1000
0000
,
0001
0000
1000
0000
,
0010
0000
0100
0000
,
0100
0000
0000
0000
,
0001
1000
0001
0000
,
0010
0100
1000
0000
,
0010
0100
0001
0010
,
0001
2000
0000
3000
,
1001
0001
0010
0001
,
1000
0000
0010
0100
,
0001
0010
0001
0010
,
0001
0000
1000
0000
,
1002
0000
1003
0000
,
0020
0000
0130
0000
,
0002
0000
0103
0000
,
0002
0000
1003
0001
,
2000
0000
3100
0000
,
0020
0000
0031
0000
,
2000
0000
3001
0000
,
0110
0000
0000
0000
,
0100
0010
0100
0010
,
1000
0001
1000
0000
,
0001
1000
0001
1000
,
0100
2000
0000
3000
,
0001
1000
0001
0010
,
0001
0010
0100
0000
,
1000
0001
1000
0001
,
0010
0000
1001
0000
,
1001
0000
0001
0000
,
0010
0000
0001
0000
,
0010
0000
0100
0000
,
1000
0000
0100
0000
,
1000
0000
0010
0000
,
0100
0000
0010
0000
,
0100
0000
0001
0000
,
2000
0000
0000
0000
,
3001
0000
1001
0000
,
1001
0000
0000
0000
,
0110
0000
0110
0000
,
0110
0000
0000
0000
,
1001
0000
1001
0000
,
1001
0000
0000
0000
,
0110
0000
0110
0000
,
0110
0000
0000
0000
,
0002
0000
0000
1003
0000
0000
0000
0000
,
0000
0000
2000
0000
0000
3001
0000
0000
,
0002
0000
0000
1003
0000
0000
0000
0000
,
0000
0000
0020
0000
0000
0130
0000
0000
,
0200
0000
0000
0310
0000
0000
0000
0000
,
0000
0000
0002
0000
0000
1003
0000
0000
,
2000
0000
0000
3001
0000
0000
0000
0000
,
0220
0000
0000
0330
,
0110
0000
0100
0000
,
0010
0000
1000
0000
,
0100
0000
0010
0000
,
0001
0000
1000
0000
,
0010
0000
0100
0000
,
0001
0000
1000
0000
,
0001
0000
0010
0000
,
0100
0000
1000
0000
,
1001
0001
0010
0001
,
0100
0010
0100
0001
,
1000
0100
1000
0100
,
1000
0001
1000
0001
,
0100
0001
0100
0001
,
1000
0010
1000
0010
,
1000
0001
1000
0001
,
1000
1001
1000
1001
,
1000
1001
0001
0100
,
0110
0000
0000
0000
,
0000
0000
0001
1001
;

//---------------dance-single - ----------------
#NOTES:
     dance-single:
     :
     Hard:
     11:
     0.641,0.644,0.526,0.637,0.035:
1001
0000
1000
0000
1000
0100
0010
0000
,
0011
0000
0001
0000
0001
0100
0010
0000
,
0110
0000
0100
0000
0100
0001
0010
0000
,
0010
0000
0000
0000
0000
0000
0000
0000
0001
0000
0000
1000
0001
0000
0001
0000
,
1000
0000
1010
0000
0110
0000
0001
0010
,
0100
1000
0000
1000
0000
0001
0100
0010
,
1000
0000
1000
0000
1000
0001
0000
0001
,
0000
0000
0011
0000
0000
1100
0000
0000
,
1001
0000
0101
0000
0110
0000
1000
0010
,
0100
0001
0000
0001
0000
1000
0100
0010
,
0001
0000
0001
0000
0001
1000
0000
1000
,
0000
0000
0010
0100
0001
0100
0010
1000
,
0100
0000
1000
0100
0010
0001
1000
0020
,
0000
0000
1030
0001
0010
0100
0000
1000
,
0000
1000
0001
0010
0100
0010
0000
0001
,
0000
0001
1000
0010
0100
0001
1000
0100
,
1000
0000
0001
0010
0100
0010
0001
0200
,
0000
0000
0301
1000
0010
0100
0000
0001
,
0000
0001
1000
0100
0010
0100
0000
1000
,
0000
1000
0002
0000
0000
0000
0003
0000
,
1001
0000
0011
0000
0110
0000
1000
0100
,
0010
0001
0000
0011
0000
0001
0100
0010
,
1000
0000
1010
0000
0010
0100
0000
0100
,
0000
0000
0101
0000
0000
1010
0000
0000
,
1001
0000
1100
0000
0110
0000
0001
0010
,
0100
1000
0000
1100
0000
1000
0010
0100
,
0001
0000
0101
0000
0010
0100
0000
0100
,
0000
0000
0001
0010
0100
1000
0001
0100
,
0001
0000
0201
0000
0000
0320
0000
0000
,
1030
0000
1002
0000
0000
0023
0000
0000
,
0130
0000
2100
0000
0000
3002
0000
0000
,
0103
0000
0120
0000
0000
2030
0000
0000
,
3001
0000
0021
0000
0000
0230
0000
0000
,
0310
0000
0102
0000
0000
2003
0000
0000
,
3100
0000
0012
0000
0000
2003
0000
0000
,
3010
0000
0000
1000
0001
0000
0010
0000
0100
0000
1000
0000
0001
0000
0000
0000
,
0202
0303
0220
0330
,
0202
0000
0303
0000
1000
0001
0100
0000
,
2020
3030
0220
0330
,
2020
0000
3030
0000
0001
0010
0100
0000
,
2002
3003
0022
0033
,
2002
0000
3003
0000
1000
0100
0010
0000
,
2002
3003
0022
0033
,
2002
0000
3003
0001
0010
0001
0010
0001
,
2000
0010
0000
3002
0000
0000
1003
0000
,
0001
0000
0020
0100
0000
2030
0000
3010
,
0200
0001
0000
0302
0000
0000
1003
0000
,
0100
0000
0020
0001
0000
0032
0000
0103
,
0020
1000
0000
2030
0000
0000
3001
0000
,
1000
0000
0200
0010
0000
0302
0000
0103
,
0020
1000
0000
2030
0000
0000
3001
0000
,
1000
0000
0000
0001
0100
0000
0010
0000
1000
0000
0100
0000
0010
0000
0000
0000
,
0102
1000
0100
1003
,
2100
0000
0000
0001
0000
0001
0000
3001
,
0200
0010
0001
0310
,
1002
0000
0000
0010
0000
0010
0000
0013
,
0200
1000
0010
1300
,
2001
0000
0000
0010
0000
0010
0000
3010
,
0200
0001
0010
0301
,
1002
0000
0000
0010
0000
0010
0000
0013
,
0100
0000
1000
0100
0001
0100
1000
0010
,
0100
0000
0100
0001
0000
0001
0000
0001
,
1000
0000
0001
0010
0100
0010
0001
1000
,
0100
0000
0100
1000
0000
1000
0000
1000
,
0001
0000
1000
0100
0010
0001
1000
0010
,
0100
0000
0100
0001
0000
0001
0000
0001
,
1000
0000
0001
0010
1000
0010
0001
0100
,
0101
0100
0101
0100
,
0101
0000
0000
0000
0101
0000
0000
0000
0001
1000
0001
1000
0001
1000
0001
1000
,
0001
0000
0000
0000
,
0000
0000
1001
0110
;

//---------------dance-single - ----------------
#NOTES:
     dance-single:
     :
     Challenge:
     14:
     0.732,0.715,0.465,0.071,0.187:
1001
0000
0000
0000
1000
0000
0000
1000
0010
0000
0100
0000
0010
0000
0000
0000
,
0100
0000
0000
0000
0001
0000
0000
0001
1000
0000
0100
0000
1000
0000
0000
0000
,
1001
0000
0000
0000
0001
0000
0000
0001
0100
0000
0010
0000
0100
0000
0000
0000
,
0100
0000
0000
0000
0000
0000
0000
0000
0001
0000
0000
0001
1000
0000
0100
0000
,
0010
0000
0011
0000
0110
0000
0100
1000
,
0010
0100
0000
0110
0000
0010
0100
0001
,
0010
0000
0011
0000
0100
0010
0000
0110
,
0000
0000
2000
0010
3000
0002
1000
0003
,
1001
0000
0011
0000
0110
0000
0010
0100
,
0001
0010
0000
0011
0000
0001
1000
0100
,
0010
0000
0110
0000
0100
0001
0000
0101
,
0000
0000
0001
0100
1000
0100
0001
0010
,
0100
0000
0100
1000
0010
0001
0010
1000
,
0100
0000
0100
1000
0010
0100
0002
0100
,
0000
0103
0001
0010
1000
0010
0002
0100
,
0000
0103
0001
0010
1000
0010
0001
1000
,
0100
0000
0100
1000
0010
0001
0010
1000
,
0100
0000
0100
0010
0001
1000
0020
0100
,
0000
0130
0001
0010
1000
0010
0001
1000
,
0100
0000
0000
0100
1000
0000
0010
0000
0100
0000
0001
0000
0010
0000
0000
0000
,
0011
0000
0110
0000
1100
0000
0100
1000
,
0010
0100
0000
0110
0000
0010
0001
0010
,
0100
0000
0110
0000
0010
1000
0000
1010
,
0000
0000
0200
0010
0300
0002
1000
0003
,
1001
0000
1010
0000
0101
0000
0100
0001
,
1000
0010
0000
1010
0000
0010
1000
0100
,
0010
0000
0110
0000
0010
0001
0000
0011
,
0000
0000
0001
1000
0010
0001
0010
1000
,
0001
0000
0100
0010
0001
0010
0100
0001
,
1000
0000
0010
0100
1000
0100
0010
1000
,
0001
0000
0010
0100
0001
0100
0010
0001
,
1000
0000
0100
0010
1000
0010
0100
1000
,
1001
0000
0001
1000
0100
0001
0100
1000
,
0001
0000
1000
0001
0010
1000
0010
0001
,
1000
0000
0001
1000
0100
0001
0100
1000
,
0001
0100
0000
0100
0001
0000
1000
0000
0100
1000
0000
1000
0100
0000
0000
0000
,
1100
0001
0110
0001
,
1100
0000
0000
0000
1000
0000
0000
0001
0100
0000
0001
0000
0001
0000
0000
0000
,
0101
1000
0110
1000
,
0101
0000
0000
0000
0001
0000
0000
1000
0100
0000
1000
0000
0001
1000
0001
1000
,
0001
1000
0110
1000
,
1001
0000
0000
0000
0001
0000
0000
1000
0010
0000
0100
0000
0100
0000
0000
0000
,
1001
0001
1010
0001
,
1001
0000
0000
0000
1000
0000
0001
1000
0001
1000
0001
1000
0001
1000
0001
1000
,
0001
0010
0001
1000
0000
1000
0001
0010
,
0001
0000
1000
0001
0000
0001
1000
0010
,
1000
0000
0100
0010
0000
0010
0100
1000
,
0001
0000
0010
0001
0000
0001
1000
0010
,
0100
0000
0001
1000
0000
1000
0001
0010
,
0001
0000
0010
0100
0000
0100
1000
0001
,
0100
0000
0001
1000
0000
1000
0100
1000
,
0001
0100
0000
0100
0001
0000
0010
0000
0100
1000
0000
1000
0100
0000
0000
0000
,
1001
0000
0000
0000
1000
0000
0000
1000
0001
0000
0010
0000
0100
0000
0000
0000
,
1100
0000
0000
0000
1000
0000
0000
1000
0001
0000
0010
0000
0100
0000
1000
0000
,
0001
0000
0000
0000
0010
0000
0000
0010
0001
0000
1000
0000
0100
0000
0000
0000
,
1001
0000
0000
0000
0001
0000
0000
0001
1000
0000
0100
0000
0010
0000
0001
0000
,
0100
0000
0000
0000
0010
0000
0000
0010
1000
0000
0100
0000
1000
0000
0000
0000
,
0100
0000
0000
0100
1000
0000
0001
0000
0100
0000
0010
0000
1000
0000
0000
0000
,
0001
0000
0000
0001
1000
0000
0100
0000
0010
0000
0000
0000
0100
0000
0000
0100
,
1000
0010
0100
0001
1000
0100
0010
0100
,
1000
0000
0001
0001
1000
0100
0001
0100
,
1000
1000
0001
0010
1000
0010
1000
0010
,
0001
0000
1000
1000
0001
0010
1000
0010
,
0001
1000
1000
0100
0001
0100
0001
0100
,
1000
0000
0001
0001
1000
0010
0001
0010
,
1000
0001
0001
0100
1000
0100
1000
0100
,
0001
0000
1000
1000
0001
0010
1000
0010
,
0011
0000
0000
0001
1000
0000
0000
0000
0011
0000
0000
0001
1000
0000
0000
0000
,
1100
0000
0000
0000
1100
0000
0000
0000
1000
0001
1000
0001
1000
0001
1000
0001
,
1000
0010
0000
0100
0000
0001
0000
0001
,
0000
0010
0100
1000
1001
0000
0011
0000
;

//---------------dance-single - ----------------
#NOTES:
     dance-single:
     :
     Medium:
     8:
     0.455,0.465,0.364,0.131,0.000:
1000
0010
0100
0010
,
1000
0001
0010
0001
,
1001
1000
0010
0100
,
0001
0000
0100
0100
,
0110
0010
0100
0001
,
1000
0100
0000
0100
0000
0100
1000
0000
,
0010
0000
1000
0000
0010
0100
0000
0001
,
0000
0000
1001
0000
0000
1001
0000
0000
,
0001
0100
0010
1000
,
0100
0010
0000
0010
0000
0010
0100
0000
,
1000
0000
0001
0000
1001
0000
0000
1001
,
0000
1000
0010
0100
,
1001
0010
0100
0020
,
0000
0031
0100
0010
,
0100
0001
1000
0001
,
0020
0000
0031
1000
,
1001
0001
0100
0020
,
0000
1030
0100
0010
,
0001
1000
0010
0100
,
0220
0000
0000
0330
,
1001
0000
0001
0000
1000
0000
0001
0100
,
0000
0100
0000
0100
0001
0000
1000
0000
,
1010
0000
0101
0000
0001
1000
0000
1001
,
0000
0000
0011
0000
0000
1100
0000
0000
,
1000
1000
0001
0001
,
0100
0001
0000
0001
0000
0001
1000
0000
,
1100
0000
0011
0000
0001
1000
0000
1001
,
0000
0100
0100
0100
,
0110
1000
0010
0100
,
0010
1000
0100
1000
,
0010
0100
0001
0010
,
0001
0100
0010
1000
,
1001
0010
0100
0010
,
1000
0001
0010
0100
,
1000
0100
0010
0001
,
2000
0000
0000
0000
,
3001
0000
0101
0000
,
1001
0000
0100
0000
,
1100
0000
1001
0000
,
1100
0000
1000
0000
,
1001
0000
0101
0000
,
1001
0000
0001
0000
,
0011
0000
1001
0000
,
0011
0000
0000
0100
0010
0100
0010
0100
,
0002
0000
0000
1003
0000
0000
0001
0000
,
1000
0000
0200
0000
0000
0310
0000
0001
,
0200
0000
0000
0301
0000
0000
1000
0000
,
0001
0000
0200
0000
0000
0301
0000
1000
,
0002
0000
0000
1003
0000
0000
0001
0000
,
1000
0000
0200
0000
0000
1300
0000
0001
,
2000
0000
0000
3001
0000
0000
1000
0000
,
0001
0001
1000
1000
,
1001
0000
0001
0000
1000
0010
0100
0000
,
0010
0100
0001
0000
1000
0000
0001
1000
,
0001
0000
1000
0000
0001
0010
0100
0000
,
0010
0100
1000
0000
0001
0000
1000
0001
,
1000
0000
0001
0000
1000
0010
0100
0000
,
0010
0100
0001
0000
1000
0000
0001
1000
,
0001
0000
1000
0000
0001
0010
0100
0000
,
0010
0100
1000
0000
0001
0000
1000
0001
,
1000
0001
0100
0001
,
0100
0010
1000
0100
,
0001
0100
1000
0100
,
0010
0100
1000
0010
,
0001
0010
1000
0001
,
1000
0001
0100
0010
,
1000
0001
1000
0001
,
1001
0000
1001
0000
,
1001
0000
0001
0000
1000
0001
1000
0001
,
0100
0000
0000
0000
,
0000
0000
0100
1010
;

//---------------dance-single - ----------------
#NOTES:
     dance-single:
     :
     Beginner:
     3:
     0.115,0.179,0.172,0.000,0.000:
0001
0000
0000
0000
,
1000
0000
0000
0000
,
0001
0000
0000
0000
,
0000
0000
0000
0000
,
1001
0000
0000
0000
,
1000
0000
0000
0000
,
0010
0000
0000
0000
,
0100
0000
0000
0000
,
0001
0000
0000
0000
,
0100
0000
0000
0000
,
0010
0000
0000
0000
,
1000
0000
0000
0000
,
1001
0000
0000
0000
,
0000
0000
0000
0000
,
0001
0000
0000
0000
,
0000
0000
0000
0000
,
1001
0000
0000
0000
,
0000
0000
0000
0000
,
1000
0000
0000
0000
,
0000
0000
0000
0000
,
1001
0000
0000
0000
,
0001
0000
0000
0000
,
0010
0000
0000
0000
,
0100
0000
0000
0000
,
0010
0000
0000
0000
,
0001
0000
0000
0000
,
1000
0000
0000
0000
,
0000
0000
0000
0000
,
0110
0000
0000
0000
,
0100
0000
0000
0000
,
0010
0000
0000
0000
,
0100
0000
0000
0000
,
1001
0000
0000
0000
,
0001
0000
0000
0000
,
1000
0000
0000
0000
,
0001
0000
0000
0000
,
1001
0000
0000
0000
,
0000
0000
0000
0000
,
0110
0000
0000
0000
,
0000
0000
0000
0000
,
1001
0000
0000
0000
,
0000
0000
0000
0000
,
0110
0000
0000
0000
,
0000
0000
0000
0000
,
1001
0000
0000
0000
,
1000
0000
0000
0000
,
0001
0000
0000
0000
,
1000
0000
0000
0000
,
0001
0000
0000
0000
,
0010
0000
0000
0000
,
0100
0000
0000
0000
,
1000
0000
0000
0000
,
1001
0000
0000
0000
,
0001
0000
0000
0000
,
1001
0000
0000
0000
,
1000
0000
0000
0000
,
1001
0000
0000
0000
,
0001
0000
0000
0000
,
0110
0000
0000
0000
,
1000
0000
0000
0000
,
1001
0000
0000
0000
,
0001
0000
0000
0000
,
1000
0000
0000
0000
,
0001
0000
0000
0000
,
0010
0000
0000
0000
,
0100
0000
0000
0000
,
1000
0000
0000
0000
,
0001
0000
0001
0000
,
0001
0000
0000
0000
,
1001
0000
0000
0000
,
0000
0000
1000
0001
;

//---------------dance-double - ----------------
#NOTES:
     dance-double:
     :
     Easy:
     6:
     0.303,0.393,0.212,0.192,0.000:
00010000
00000000
10000000
00000000
,
00010000
00000000
10000000
00000000
,
00001000
00000000
00010000
00000000
,
00010000
00000000
00000000
00000000
,
00000010
00000100
00000010
00000000
,
00001000
00000100
00000010
00000000
,
00000001
00001000
00000100
00000010
,
00000100
00020000
00000000
00030000
,
00001000
00010000
00001000
00000000
,
00100000
01000000
10000000
00000000
,
00010000
10000000
00100000
01000000
,
00100000
00000000
00010000
00000000
,
20010000
00000000
30010000
00000000
,
02000000
00000000
03100000
00000000
,
20000000
00000000
30010000
00000000
,
02000000
00000000
03100000
10000000
,
00002000
00000000
00013000
00000000
,
00000020
00000000
00000130
00000000
,
00000002
00000000
00001003
00000000
,
00001001
00000000
00000000
00000000
,
00001000
00000100
00001000
00000100
,
00010000
00000010
00010000
00000000
,
00001000
00010000
00001000
01000000
,
00100000
02000000
00000000
03000000
,
00010000
10000000
00010000
00100000
,
00001000
00100000
00001000
00000000
,
00010000
00000010
00010000
00000010
,
00000100
00000000
00000001
00000000
,
00000001
00000000
00000010
00000000
,
00000100
00000000
00010000
00000000
,
00001000
00000000
01000000
00000000
,
00100000
00000000
10000000
00000000
,
01000000
00000000
00100000
00000000
,
00001000
00000000
00010000
00000000
,
00000100
00000000
00000010
00000000
,
00000002
00000000
00000000
00000000
,
00001003
00000000
00001001
00000000
,
00001001
00000000
00000000
00000000
,
00011000
00000000
00011000
00000000
,
00011000
00000000
00000000
00000000
,
10010000
00000000
10010000
00000000
,
10010000
00000000
00000000
00000000
,
01100000
00000000
01100000
00000000
,
01100000
00000000
00000000
00000000
,
00002000
00000000
00000000
00013000
00000000
00000000
00000000
00000000
,
00000000
00000000
00002000
00000000
00000000
00013000
00000000
00000000
,
00000020
00000000
00000000
00000130
00000000
00000000
00000000
00000000
,
00000000
00000000
00000020
00000000
00000000
00000130
00000000
00000000
,
00000002
00000000
00000000
00001003
00000000
00000000
00000000
00000000
,
00000000
00000000
00000002
00000000
00000000
00001003
00000000
00000000
,
00020000
00000000
00000000
00031000
00000000
00000000
00000000
00000000
,
00022000
00000000
00000000
00033000
,
00011000
00000000
00010000
00000000
,
00001000
00000000
01000000
00000000
,
00100000
00000000
10000000
00000000
,
00100000
00000000
01000000
00000000
,
00001000
00000000
00010000
00000000
,
00001000
00000000
00010000
00000000
,
00000010
00000000
00000100
00000000
,
00000001
00000000
00001000
00000000
,
00001001
00000001
00000100
00000001
,
00001000
00000100
00001000
00000010
,
00010000
00001000
00010000
00001000
,
00010000
00001000
00100000
00001000
,
10000000
01000000
10000000
01000000
,
00100000
01000000
00100000
00001000
,
01000000
00001000
01000000
00001000
,
00010000
00011000
00010000
00010001
,
00000001
00001001
00000010
00000100
,
00000110
00000000
00000000
00000000
,
00000000
00000000
00010000
00011000
;

//---------------dance-double - ----------------
#NOTES:
     dance-double:
     :
     Medium:
     8:
     0.448,0.465,0.354,0.131,0.000:
10000000
00010000
00100000
00010000
,
10000000
00001000
00010000
00001000
,
00011000
00010000
00000100
00000010
,
00000001
00000000
00010000
00010000
,
00011000
00001000
00010000
00000010
,
00000100
00000001
00000000
00000001
00000000
00000001
00000100
00000000
,
00000010
00000000
00010000
00000000
00001000
00010000
00000000
00001000
,
00000000
00000000
01001000
00000000
00000000
01001000
00000000
00000000
,
01000000
00010000
00100000
01000000
,
10000000
00010000
00000000
00010000
00000000
00010000
10000000
00000000
,
00100000
00000000
01000000
00000000
00011000
00000000
00000000
00011000
,
00000000
00010000
00000010
00000100
,
00001001
00000010
00000100
00000020
,
00000000
00000031
00010000
00000010
,
00010000
00001000
00010000
01000000
,
00200000
00000000
00000000
00300000
,
10010000
00010000
01000000
00002000
,
00000000
00013000
00000100
00000010
,
00000001
00010000
00000100
00010000
,
00022000
00000000
00000000
00033000
,
00011000
00000000
00001000
00000000
00100000
00000000
01000000
00100000
,
00000000
00100000
00000000
00100000
01000000
00000000
10000000
00000000
,
10010000
00000000
00110000
00000000
00000000
00001000
00000000
00011000
,
00000000
00000000
00000110
00000000
00000000
00000110
00000000
00000000
,
00000001
00001000
00000010
00000100
,
00000010
00010000
00000000
00010000
00000000
00010000
00000010
00000000
,
00010010
00000000
00011000
00000000
00000000
01000000
00000000
01100000
,
00000000
10000000
00010000
10000000
,
10010000
00010000
10000000
01000000
,
10000000
00100000
01000000
00100000
,
10000000
00001000
00010000
00001000
,
00010000
00000010
00000010
00000100
,
00000110
00000010
00000100
00000010
,
00001000
00000001
00000010
00000100
,
00001000
00010000
01000000
00100000
,
20000000
00000000
00000000
00000000
,
30001000
00000000
00011000
00000000
,
00010100
00000000
00000001
00000000
,
00000011
00000000
00010001
00000000
,
00011000
00000000
00010000
00000000
,
00110000
00000000
01100000
00000000
,
10010000
00000000
10000000
00000000
,
10100000
00000000
01100000
00000000
,
01100000
00000000
00000000
01000000
00001000
00010000
00001000
00010000
,
00002000
00000000
00000000
00013000
00000000
00000000
00000010
00000000
,
00000100
00000000
00000002
00000000
00000000
00001003
00000000
00000100
,
00020000
00000000
00000000
00031000
00000000
00000000
00100000
00000000
,
01000000
00000000
20000000
00000000
00000000
30100000
00000000
01000000
,
00002000
00000000
00000000
00013000
00000000
00000000
00000100
00000000
,
00000010
00000000
00000002
00000000
00000000
00001003
00000000
00000100
,
00020000
00000000
00000000
00031000
00000000
00000000
01000000
00000000
,
00100000
00100000
10000000
10000000
,
10010000
00000000
00010000
00000000
00100000
01000000
10000000
00000000
,
00010000
01000000
00001000
00000000
00010000
00000000
00000010
00001000
,
00000100
00000000
00001000
00000000
00000100
00000010
00000001
00000000
,
00000100
00000010
00010000
00000000
00001000
00000000
00100000
01000000
,
10000000
00000000
00010000
00000000
10000000
01000000
10000000
00000000
,
01000000
10000000
00010000
00000000
00100000
00000000
00001000
00010000
,
00001000
00000000
00010000
00000000
00000100
00000010
00000001
00000000
,
00001000
00000100
00000010
00000000
00010000
00000000
00001000
01000000
,
00001000
01000000
00100000
01000000
,
00010000
10000000
01000000
00010000
,
01000000
10000000
00001000
00010000
,
00000010
00000100
00000001
00000010
,
00000100
00000010
00000001
00010000
,
00001000
01000000
00100000
10000000
,
01000000
00010000
01000000
10000000
,
00001000
00000000
00011000
00000000
,
00011000
00000000
00010000
00000000
00000010
00000100
00000001
00000010
,
00000100
00000000
00000000
00000000
,
00000000
00000000
00010000
00011000
;

//---------------dance-double - ----------------
#NOTES:
     dance-double:
     :
     Hard:
     12:
     0.645,0.644,0.556,0.637,0.035:
00001001
00000000
00000001
00000000
00000001
00000100
00000010
00000000
,
00010010
00000000
00010000
00000000
00010000
00001000
01000000
00000000
,
01100000
00000000
00100000
00000000
00100000
10000000
01000000
00000000
,
01000000
00000000
00000000
00000000
00000000
00000000
00000000
00000000
10000000
00000000
00000000
00010000
10000000
00000000
10000000
00000000
,
00001000
00000000
00011000
00000000
00010100
00000000
00010000
00000100
,
00000010
00000001
00000000
00000001
00000000
00001000
00000100
00010000
,
00001000
00000000
00001000
00000000
00001000
00100000
00000000
00100000
,
00000000
00000000
01100000
00000000
00000000
10010000
00000000
00000000
,
11000000
00000000
01100000
00000000
00101000
00000000
00001000
00100000
,
01000000
10000000
00000000
10000000
00000000
00010000
01000000
00100000
,
10000000
00000000
10000000
00000000
10000000
00001000
00000000
00001000
,
00000000
00000000
00010000
00000100
00000010
00000001
00000010
00000100
,
00010000
00000000
00000010
00000100
00000001
00000010
00000001
00002000
,
00000000
00000000
00003001
00001000
00000100
00000010
00000000
00000001
,
00000000
00000001
00010000
00001000
00100000
01000000
00000000
10000000
,
00000000
10000000
00010000
01000000
00010000
01000000
00001000
00010000
,
00001000
00000000
00010000
00000010
00000100
00000010
00010000
00002000
,
00000000
00000000
10003000
01000000
00100000
00010000
00000000
01000000
,
00000000
01000000
00001000
00010000
00000010
00000100
00000000
00000001
,
00000000
00000001
00002000
00000000
00000000
00000000
00003000
00000000
,
00001001
00000000
00000110
00000000
00010010
00000000
00010000
00001000
,
01000000
00100000
00000000
01100000
00000000
01000000
00010000
00100000
,
01000000
00000000
11000000
00000000
10000000
00010000
00000000
00010000
,
00000000
00000000
01010000
00000000
00000000
00011000
00000000
00000000
,
00000110
00000000
00000101
00000000
00010010
00000000
00010000
00001000
,
00100000
01000000
00000000
01100000
00000000
00100000
01000000
00001000
,
00010000
00000000
00011000
00000000
00010000
00000100
00000000
00000100
,
00000000
00000000
00001000
00000100
00000010
00000001
00010000
00000100
,
00010000
00000000
00010200
00000000
00000000
00020300
00000000
00000000
,
00031000
00000000
02100000
00000000
00000000
03200000
00000000
00000000
,
01300000
00000000
10020000
00000000
00000000
20030000
00000000
00000000
,
30010000
00000000
00201000
00000000
00000000
00302000
00000000
00000000
,
00013000
00000000
00000120
00000000
00000000
00000230
00000000
00000000
,
00000310
00000000
00000102
00000000
00000000
00002003
00000000
00000000
,
00003100
00000000
00021000
00000000
00000000
00032000
00000000
00000000
,
01003000
00000000
00000000
00100000
01000000
00000000
00010000
00000000
00100000
00000000
01000000
00000000
10000000
00000000
00000000
00000000
,
22000000
33000000
02200000
03300000
,
00202000
00000000
00303000
00000000
00001000
00010000
00000010
00000000
,
00000220
00000330
00000202
00000303
,
00020020
00000000
00030030
00000000
00010000
00001000
00100000
00000000
,
02200000
03300000
22000000
33000000
,
00202000
00000000
00303000
00000000
00001000
00010000
00000010
00000000
,
00000220
00000330
00000022
00000033
,
00020200
00000000
00030300
00010000
00001000
00100000
01000000
10000000
,
00020000
00100000
00000000
00230000
00000000
00000000
00301000
00000000
,
00010000
00000000
00000020
00000100
00000000
00000230
00000000
00000301
,
00002000
00000001
00000000
00003002
00000000
00000000
00000103
00000000
,
00000010
00000000
00020000
00001000
00000000
00032000
00000000
01003000
,
00200000
01000000
00000000
02300000
00000000
00000000
03010000
00000000
,
00000100
00000000
00002000
00010000
00000000
00023000
00000000
00030100
,
00000020
00000100
00000000
00000230
00000000
00000000
00001300
00000000
,
00000001
00000000
00000000
00001000
00000001
00000000
00000010
00000000
00000001
00000000
00000010
00000000
00000100
00000000
00000000
00000000
,
00021000
00000010
00001000
00030010
,
00012000
00000000
00000000
00010000
00000000
00010000
00000000
00013000
,
00200000
01000000
10000000
01300000
,
20001000
00000000
00000000
00001000
00000000
00001000
00000000
30001000
,
00020000
00000100
00001000
00030100
,
00000120
00000000
00000000
00100100
00000000
00100100
00000000
00100130
,
00000002
00000010
00000100
00000013
,
00021000
00000000
00000000
00001000
00000000
00001000
00000000
00031000
,
01000000
00000000
00010000
00100000
10000000
00100000
00010000
01000000
,
00100000
00000000
10000000
00010000
00000000
00010000
00000000
00010000
,
10000000
00000000
01000000
00100000
00010000
00100000
01000000
00001000
,
00010000
00000000
00010000
00000100
00000000
00000100
00000000
00000100
,
00010000
00000000
00000001
00000010
00000100
00001000
00000001
00000100
,
00000010
00000000
00000010
00010000
00000000
00010000
00000000
00010000
,
00000010
00000000
00001000
00000010
00000001
00000010
00001000
00000100
,
00001100
00000100
00010100
00010000
,
00011000
00000000
00000000
00000000
00011000
00000000
00000000
00000000
00001000
10000000
00001000
10000000
00001000
10000000
00001000
10000000
,
00001000
00000000
00000000
00000000
,
00000000
00000000
01100000
01010000
;

//---------------dance-double - ----------------
#NOTES:
     dance-double:
     :
     Challenge:
     14:
     0.738,0.715,0.475,0.131,0.177: // measure 1
10010000
00000000
10000000
01000000
00000000
01000000
00100000
00000000
,  // measure 2
00010000
00000000
00010000
01000000
00000000
01000000
00001000
00000000
,  // measure 3
00011000
00000000
00010000
00000010
00000000
00000010
00000100
00000000
,  // measure 4
00000001
00000000
00000000
00000000
00000000
00000000
00000000
00000000
00001000
00000000
00000000
00001000
00000001
00000000
00000010
00000000
,  // measure 5
00000100
00000000
00000110
00000000
00010010
00000000
00010000
00001000
,  // measure 6
01000000
00100000
00000000
01100000
00000000
10000000
01000000
00100000
,  // measure 7
00001000
00000000
00011000
00000000
00000010
00000100
00000000
00000110
,  // measure 8
00000000
00000000
00000002
00000100
00000003
00000200
00000010
00000300
,  // measure 9
00000110
00000000
00010010
00000000
00011000
00000000
00001000
00100000
,  // measure 10
01000000
10000000
00000000
11000000
00000000
10000000
00100000
01000000
,  // measure 11
00001000
00000000
00011000
00000000
00000100
00000010
00000000
00000110
,  // measure 12
00000000
00000000
00000001
00000010
00001000
00000010
00000001
00001000
,  // measure 13
00000100
00000000
00010000
00001000
00100000
10000000
00100000
00001000
,  // measure 14
00010000
00000000
00001000
00010000
00000100
00001000
00000020
00000100
,  // measure 15
00000000
00000130
00000001
00000010
00001000
00000010
00000002
00001000
,  // measure 16
00000000
00001003
00000001
00000100
00001000
00000100
00000001
00010000
,  // measure 17
00001000
00000000
00010000
00001000
01000000
10000000
01000000
00001000
,  // measure 18
00010000
00000000
00000100
00000010
00000001
00001000
00000020
00000100
,  // measure 19
00000000
00000130
00000001
00000010
00001000
00000010
00000001
00010000
,  // measure 20
00001000
00000000
00000000
00001000
00100000
00000000
01000000
00000000
10000000
00000000
01000000
00000000
00100000
00000000
00000000
00000000
,  // measure 21
01100000
00000000
01001000
00000000
00011000
00000000
00001000
00010000
,  // measure 22
00000100
00000010
00000000
00000110
00000000
00000100
00000010
00000001
,  // measure 23
00010000
00000000
00011000
00000000
01000000
00100000
00000000
01100000
,  // measure 24
00000000
00000000
20000000
01000000
30000000
02000000
00100000
03000000
,  // measure 25
01100000
00000000
01001000
00000000
00011000
00000000
00001000
00010000
,  // measure 26
00000100
00000010
00000000
00000110
00000000
00000001
00000100
00000010
,  // measure 27
00010000
00000000
00011000
00000000
01000000
00100000
00000000
01100000
,  // measure 28
00000000
00000000
10000000
00010000
01000000
10000000
01000000
00010000
,  // measure 29
10000000
00000000
01000000
00100000
00001000
00100000
01000000
00001000
,  // measure 30
00010000
00000000
00000010
00000100
00000001
00000100
00000010
00010000
,  // measure 31
00001000
00000000
00100000
01000000
10000000
01000000
00100000
00001000
,  // measure 32
01000000
00000000
00100000
01000000
00001000
00010000
00000010
00000100
,  // measure 33
00000101
00000000
00000001
00001000
00000100
00000001
00000100
00001000
,  // measure 34
00000001
00000000
00010000
00001000
00100000
10000000
00100000
00001000
,  // measure 35
00010000
00000000
00001000
10000000
01000000
00010000
01000000
10000000
,  // measure 36
00001000
01000000
00000000
01000000
00001000
00000000
00010000
00000000
00000100
00000010
00000000
00000010
00000100
00000000
00000000
00000000
,  // measure 37
00000110
00000001
00001010
00000001
,  // measure 38
00000110
00000000
00000000
00000000
00010000
00000000
00000000
00010000
00001000
00000000
01000000
00000000
01000000
00000000
00000000
00000000
,  // measure 39
10100000
01000000
01100000
01000000
,  // measure 40
10100000
00000000
00000000
00000000
00001000
00000000
00000000
00001000
00010000
00000000
00000010
00000000
00010000
00000010
00010000
00000010
,  // measure 41
00010000
00000001
00000110
00000001
,  // measure 42
00010010
00000000
00000000
00000000
00010000
00000000
00000000
00010000
00001000
00000000
01000000
00000000
01000000
00000000
00000000
00000000
,  // measure 43
01100000
10000000
11000000
10000000
,  // measure 44
01100000
00000000
00000000
00000000
00001000
00000000
00010000
00001000
00010000
00001000
00010000
00001000
00010000
00001000
00010000
00001000
,  // measure 45
00010000
00000100
00000010
00000001
00000000
00000001
00001000
00000100
,  // measure 46
00001000
00000000
00000020
00000100
00000030
00002000
00000001
00003000
,  // measure 47
00000001
00000000
00001000
00000100
00000000
00000100
00010000
00001000
,  // measure 48
00010000
00000000
00002000
01000000
00003000
02000000
00100000
03100000
,  // measure 49
10100000
00000000
10000000
00010000
00000000
00010000
01000000
00001000
,  // measure 50
00010000
00000000
00000000
00000000
00000020
00000000
00000100
00000000
00000030
00000000
00002000
00000000
00000001
00000000
00003001
00000010
,  // measure 51
00000001
00000000
00010000
00001000
00000000
00001000
01000000
00001000
,  // measure 52
10000000
01000000
00000000
01000000
10000000
00000000
00001000
00000000
01000000
00001000
00000000
00001000
01000000
00000000
00000000
00000000
,  // measure 53
01100000
00000000
00000000
00000000
00010000
00000000
00000000
00010000
00100000
00000000
01000000
00000000
10000000
00000000
00000000
00000000
,  // measure 54
11000000
00000000
00000000
00000000
00001000
00000000
00000000
00001000
00010000
00000000
00000010
00000000
00000100
00000000
00000001
00000000
,  // measure 55
00000010
00000000
00000000
00000000
00000001
00000000
00000000
00000001
00001000
00000000
00000100
00000000
00000010
00000000
00000000
00000000
,  // measure 56
00000110
00000000
00000000
00000000
00010000
00000000
00000000
00010000
00001000
00000000
00100000
00000000
01000000
00000000
10000000
00000000
,  // measure 57
00010000
00000000
00000000
00000000
01000000
00000000
00000000
01000000
00100000
00000000
10000000
00000000
01000000
00000000
00000000
00000000
,  // measure 58
00100000
00000000
00000000
00100000
00001000
00000000
00010000
00000000
00000100
00000000
00000010
00000000
00000001
00000000
00000000
00000000
,  // measure 59
00000100
00000000
00000000
00000100
00000010
00000000
00010000
00000000
00001000
00000000
00000000
00000000
00010000
00000000
00000000
00010000
,  // measure 60
00001000
00100000
01000000
10000000
00100000
00010000
00100000
10000000
,  // measure 61
00010000
00000000
10000000
10000000
01000000
00100000
00001000
00010000
,  // measure 62
00000010
00000010
00001000
00000100
00000001
00000100
00000001
00000100
,  // measure 63
00001000
00000000
00000001
00000001
00000100
00000010
00010000
00001000
,  // measure 64
00100000
01000000
10000000
00100000
00010000
00100000
00010000
00100000
,  // measure 65
10000000
00000000
00010000
00010000
10000000
01000000
00100000
00001000
,  // measure 66
00010000
00000010
00000100
00000001
00000100
00001000
00000100
00000001
,  // measure 67
00000100
00000000
00000001
00000001
00000010
00000100
00010000
00001000
,  // measure 68
00101000
00000000
00000000
00001000
10000000
00000000
00000000
00000000
00101000
00000000
00000000
00001000
10000000
00000000
00000000
00000000
,  // measure 69
10010000
00000000
00000000
00000000
10010000
00000000
00000000
00000000
10000000
00010000
10000000
00010000
10000000
00010000
10000000
00010000
,  // measure 70
10000000
00100000
00000000
01000000
00000000
00001000
00000000
00001000
,  // measure 71
00000000
00010000
00000100
00000010
00000110
00000000
00000101
00000000
;
