#TITLE:GAMELAN DE COUPLE;
#SUBTITLE:(ANOTHER);
#ARTIST:TOMOSUKE;
#TITLETRANSLIT:;
#SUBTITLETRANSLIT:;
#ARTISTTRANSLIT:;
#CREDIT:DigiMindAxel;
#BANNER:GAMELAN DE COUPLE (ANOTHER).png;
#BACKGROUND:GAMELAN DE COUPLE (ANOTHER)-bg.png;
#LYRICSPATH:;
#CDTITLE:beatmania.png;
#MUSIC:GAMELAN DE COUPLE (ANOTHER).ogg;
#METERTYPE:DDR X;
#OFFSET:-8.297;
#SAMPLESTART:30.700;
#SAMPLELENGTH:15.000;
#SELECTABLE:YES;
#BPMS:0.000=150.000;
#STOPS:;
#BGCHANGES:-21.000=GAMELAN DE COUPLE (ANOTHER).avi=1.000=1=0=1,
99999=-nosongbg-=1.000=0=0=0 // don't automatically add -songbackground-
;

//---------------dance-single - ----------------
#NOTES:
     dance-single:
     :
     Beginner:
     3:
     0.188,0.222,0.048,0.000,0.000:
1000
0000
0001
0000
,
1000
0000
0001
0000
,
1000
0000
0001
0000
,
0110
0000
0000
0000
,
1000
0000
0001
0000
,
1000
0000
0001
0000
,
0100
0000
0010
0000
,
0100
0000
0010
0000
,
0001
0000
1000
0000
,
0001
0000
1000
0000
,
0100
0000
0010
0000
,
0100
0000
0010
0000
,
0110
0000
0000
0000
,
1001
0000
0000
0000
,
1000
0000
1000
0000
,
1000
0000
1000
0000
,
0001
0000
0001
0000
,
0001
0000
0001
0000
,
0100
0000
0001
0000
,
1000
0000
1000
0000
,
0100
0000
1000
0000
,
0001
0000
1000
0000
,
0100
0100
0100
0000
,
1000
1000
1000
0000
,
0001
0001
0001
0000
,
0010
0010
0010
0000
,
1000
0000
0001
0000
,
1000
0000
0001
0000
,
0100
0000
0010
0000
,
0100
0100
0100
0100
,
0100
0000
0001
0000
,
1000
0000
1000
1000
,
1000
0000
0010
0000
,
0001
0000
0001
0001
,
0001
0000
0100
0000
,
1000
0000
0010
0010
,
0010
0000
0010
0000
,
0001
0000
0100
0100
,
0000
1000
1000
1000
,
1000
1000
0000
0010
,
0010
0010
0010
0010
,
0010
0010
0000
0001
,
0001
0001
0000
0010
,
0000
0100
0000
0010
,
0000
0100
0000
0010
,
0000
0100
0000
0000
,
1001
0000
0000
0000
;

//---------------dance-single - ----------------
#NOTES:
     dance-single:
     :
     Easy:
     5:
     0.259,0.278,0.109,0.000,0.000:
1000
0000
0001
0000
,
1000
0000
0001
0000
,
0100
0000
0010
0000
,
0100
0100
0100
1001
,
1000
0000
0001
0000
,
1000
0000
0001
0001
,
0100
0000
0010
0000
,
0100
0000
0010
0010
,
0001
0000
1000
0000
,
0001
0000
1000
1000
,
0100
0000
0010
0000
,
0100
0000
0010
0010
,
0110
0000
0000
0000
,
0001
0001
0001
1001
,
1000
0010
1000
0010
,
1000
0010
1000
1000
,
0001
0010
0001
0010
,
0001
0010
0001
0001
,
0110
0000
0000
0000
,
0000
0000
0000
0000
,
0110
0000
0000
0000
,
0001
1000
0001
1000
,
0100
0100
0100
0100
,
1000
1000
1000
1000
,
0001
0001
0001
0001
,
0010
0010
0010
0010
,
1000
0001
1000
0001
,
1000
0001
1000
0001
,
0100
0010
0100
0010
,
0100
0100
0100
0100
,
0110
0000
0001
0000
,
1000
0000
1000
1000
,
1001
0000
1000
0000
,
0001
0000
0001
0001
,
0110
0000
0100
0000
,
1000
0000
0010
0010
,
1001
0000
0010
0000
,
0001
0000
0100
0100
,
0000
1000
0010
1000
,
0010
1000
0010
1000
,
1000
0001
0010
0001
,
0010
0001
0010
0001
,
0001
0100
0001
0010
,
0001
0100
0001
0010
,
0010
0100
1000
0010
,
1000
0100
1000
0010
,
0100
0000
0000
0000
;

//---------------dance-single - ----------------
#NOTES:
     dance-single:
     :
     Medium:
     7:
     0.335,0.416,0.229,0.060,0.000:
0110
0100
0010
0010
,
0100
0100
0010
0010
,
0100
0100
0010
0010
,
0100
0100
0100
1001
,
1000
0001
1000
0001
,
1000
0001
1000
0011
,
0001
1000
0001
1000
,
0001
1000
0001
1010
,
0100
0001
1000
0010
,
0100
0001
1000
0011
,
0100
1000
0001
0010
,
0100
1000
0001
1010
,
1002
1000
1000
1003
,
0110
0110
0110
1001
,
1000
0010
1000
0010
,
1000
0010
0001
1010
,
0001
0010
0001
0010
,
0001
0010
1000
0011
,
2002
0000
0000
0000
,
0000
0000
0000
3003
,
0220
0000
0000
0000
0000
0000
0000
0330
,
0000
0100
0000
0100
0000
0100
0100
0000
,
0001
0010
0100
1000
,
0001
0000
0010
0000
0100
1000
0001
0000
,
1000
0010
0100
0001
,
1000
0000
0010
0000
0100
0001
1000
0000
,
0001
1000
0001
1000
,
0001
0000
0100
0000
0010
1000
0100
0000
,
1000
0001
1000
0100
,
0010
0000
0001
0000
0010
0001
1000
0000
,
0010
0000
0000
1000
0000
0000
0010
0000
,
0000
0100
0000
0000
0001
0000
0001
0000
,
0010
0000
0000
0100
0000
0000
1000
0000
,
0000
0100
0000
0000
1000
0000
1000
0000
,
0001
0000
0000
0100
0000
0000
0010
0000
,
0000
0100
0000
0000
0001
0000
0001
0000
,
1000
0000
0000
0100
0000
0000
0010
0000
,
0000
0100
0000
0000
1000
0000
1000
0000
,
0000
1001
0100
0001
,
1000
0010
0100
0001
,
1010
0100
1000
0001
,
0010
0100
1000
0001
,
0011
0100
0001
0010
,
1000
0100
0001
0010
,
0011
0100
1000
0010
,
0001
0100
1000
0010
,
0010
0000
0000
0000
;

//---------------dance-single - ----------------
#NOTES:
     dance-single:
     :
     Hard:
     12:
     0.533,0.583,0.314,0.048,0.326:
0100
0000
0000
0001
0000
0000
0010
0000
0001
0000
0000
1000
0000
0000
0010
0000
,
1000
0000
0000
0100
0000
0000
0010
0000
0001
0000
0000
0100
0000
0000
0010
0000
,
1000
0000
0000
0001
0000
0000
0100
0000
0010
0000
0000
1000
0000
0000
0100
0000
,
0110
0010
0010
1001
,
0100
0000
0001
0010
0000
0000
0001
0000
0100
0000
0000
1000
0000
0000
0100
0000
,
0010
0000
0001
1000
0000
0000
0010
0000
0100
0000
0001
0000
0010
0000
0000
0000
,
0100
0000
1000
0010
0000
0000
1000
0000
0100
0000
0000
0001
0000
0000
0100
0000
,
0010
0000
1000
0001
0000
0000
0010
0000
0100
0000
1000
0000
0010
0000
0000
0000
,
0100
0000
1000
0001
0000
0000
0001
0000
0010
0000
0000
1000
0000
0000
0001
0000
,
0010
0000
0100
1000
0000
0000
0010
0000
0001
0000
0100
0000
0010
0000
0000
0000
,
0100
0000
0001
1000
0000
0000
1000
0000
0010
0000
0000
0001
0000
0000
1000
0000
,
0010
0000
0100
0001
0000
0000
0010
0000
1000
0000
0100
0000
0010
0000
0000
0000
,
1001
0010
0100
1000
,
0110
0110
0110
1001
,
0010
0000
1000
0001
0000
1000
0100
0000
0010
0000
0001
0010
0000
0001
0100
0000
,
0010
0000
1000
0010
0000
1000
0001
0000
1000
0000
1000
0000
0010
0000
0010
0000
,
0100
0000
0001
1000
0000
0010
0100
0000
0010
0000
1000
0010
0000
1000
0001
0000
,
0010
0000
0001
0010
0000
0001
1000
0000
0001
0000
0001
0000
0100
0000
0100
0000
,
2002
0000
0000
0000
,
0000
0000
0000
3003
,
0220
0000
0000
0000
0000
0000
0000
0330
,
0000
1100
0000
0011
0000
1100
1001
0000
,
0001
1000
0100
0000
0010
0100
1000
0000
,
0001
1000
0100
0000
1000
0010
0100
0000
,
0010
1000
0100
0000
0010
0100
1000
0000
,
0100
1000
0001
0000
0100
0010
1000
0000
,
0001
1000
0000
0010
0000
0000
0100
0000
0001
1000
0000
0010
0000
0000
0100
0000
,
1000
0010
0000
1000
0000
0000
0001
0000
1000
0010
0000
1000
0000
0000
0001
0000
,
0010
0100
0000
1000
0000
0000
0001
0000
0100
0010
0000
1000
0000
0000
0001
0000
,
1000
0001
1000
0001
1000
0000
0100
0000
0010
0001
0000
0001
1000
0000
1000
0000
,
0010
0000
1000
0001
0000
0001
0010
0000
,
0010
0100
0000
0100
1000
0000
0010
0000
,
0001
0000
0100
0010
0000
0010
1000
0000
,
1000
0001
0000
0001
0010
0000
0100
0000
,
1000
0000
0001
0010
0000
1000
0100
0000
,
0010
1000
0000
0001
1000
0000
0100
0000
,
0010
0000
0001
0100
0000
1000
0100
0000
,
0010
0000
0001
0000
0000
0000
0100
0000
0010
0000
1000
0001
1000
0001
1000
0000
,
0000
0100
1001
0100
,
1001
0000
0000
0000
0100
0000
0000
0000
1001
0000
0000
0000
0100
0000
1000
0001
,
1000
0010
1001
0010
,
1001
0000
0000
0000
0010
0000
0000
0000
1001
0000
0000
0000
0010
0000
0001
1000
,
0001
0011
1001
0011
,
1001
0000
0000
0000
0011
0000
0000
0000
1001
0000
0000
0000
0011
0000
1000
0001
,
1000
0000
0000
0000
0001
0000
0010
0001
0000
0000
1000
0000
0100
0000
0010
0001
,
0000
0000
1000
0000
0010
0000
0100
0000
0001
0000
1000
0000
0010
0000
1000
0001
,
1000
0000
0000
0000
;

//---------------dance-double - ----------------
#NOTES:
     dance-double:
     :
     Easy:
     5:
     0.304,0.416,0.290,0.000,0.000:
01000000
00000000
10000000
00000000
,
00100000
00000000
00010000
00000000
,
00001000
00000000
00000010
00000000
,
00000001
00000100
00001000
00011000
,
00000100
00000100
00000001
00000001
,
00000010
00000010
00001000
00010000
,
01000000
01000000
10000000
10000000
,
00100000
00100000
00010000
00001000
,
00000100
00000100
00000001
00000001
,
00000010
00000010
00001000
00011000
,
00100000
00100000
10000000
10000000
,
01000000
01000000
00100000
00010000
,
00001000
00000000
00010000
00000000
,
00011000
00000000
00000000
00000110
,
00001000
00010000
00001000
00010000
,
00001000
00010000
00001000
00011000
,
00010000
00001000
00010000
00001000
,
00010000
00001000
00010000
00011000
,
00000100
00000000
00000010
00000000
,
00010000
00000000
00001000
00000000
,
01000000
00000000
00100000
00000000
,
00010000
00001000
00010000
00001000
,
01000000
01000000
00100000
00100000
,
00010000
00010000
00001000
00001000
,
00000100
00000100
00000010
00000010
,
00001000
00001000
00010000
00010000
,
01100000
01000000
00100000
00100000
,
00010000
00010000
00001000
00001000
,
00000110
00000010
00000001
00000001
,
00001001
00001001
00001001
00001001
,
00000110
00000000
00000000
00010000
,
00000000
00000000
01100000
01100000
,
00010000
00000000
00000000
00000010
,
00000000
00000000
00000110
00000110
,
00001000
00000000
00000000
00010000
,
00000000
00000000
10010000
10010000
,
00010000
00000000
00000000
00001000
,
00000000
00000000
00001001
00001001
,
00000000
00001000
00010000
00001000
,
00010000
00001000
00010000
00001000
,
00011000
00010000
00001000
00010000
,
00001000
00010000
00001000
00010000
,
00011000
01000000
00100000
01000000
,
00100000
01000000
00100000
01000000
,
01100000
00010000
00001000
00010000
,
00001000
00000010
00000010
00000010
,
00000100
00000000
00000000
00000000
;

//---------------dance-double - ----------------
#NOTES:
     dance-double:
     :
     Medium:
     7:
     0.376,0.361,0.543,0.024,0.000:
00000110
00000100
00000001
00000001
,
00000010
00000010
00001000
00001000
,
00010000
00010000
00100000
00100000
,
10000000
01000000
00010000
00011000
,
01000000
01010000
10000000
10100000
,
00010000
00110000
00001000
00011000
,
00000100
00001100
00000001
00000011
,
00001000
00001010
00010000
00011000
,
01000000
01100000
10000000
11000000
,
00100000
00110000
00001000
00011000
,
00000010
00000011
00000100
00000110
,
00010000
00011000
00001000
00022000
,
00000000
00000000
00000000
00033000
,
00001000
00001000
00001000
00000110
,
00010000
00001000
00010000
00001000
,
00010000
00001000
00010000
01100000
,
00001000
00010000
00001000
00010000
,
00001000
00010000
00001000
00000110
,
00001000
00010000
01000000
00000000
,
00010000
00001000
00000010
00000000
,
00001000
00010000
00100000
00000000
,
00000000
10010000
00000000
01100000
00000000
00010000
00001000
00000000
,
00000100
00000001
00000010
00001000
,
00010000
01000000
10000000
10100000
,
01000000
10000000
00100000
00010000
,
00001000
00000100
00000001
00000011
,
00000100
00001100
00010000
00011000
,
01000000
10000000
00100000
00110000
,
01000000
01100000
00010000
00011000
,
00001000
00001000
00001010
00001010
,
00000100
00000000
00000000
00000001
00000000
00000000
00000010
00000000
,
00000000
00001000
00000000
00000000
00011000
00000000
00011000
00000000
,
01000000
00000000
00000000
10000000
00000000
00000000
00100000
00000000
,
00000000
00010000
00000000
00000000
00011000
00000000
00011000
00000000
,
00000100
00000000
00000000
00001000
00000000
00000000
00010000
00000000
,
00000000
00100000
00000000
00000000
10000000
00000000
10100000
00000000
,
01000000
00000000
00000000
00010000
00000000
00000000
00001000
00000000
,
00000000
00000010
00000000
00000000
00000001
00000000
00000011
00000000
,
00000000
00011000
00001000
00010000
,
00001000
00010000
00001000
00010000
,
01100000
00011000
00010000
00001000
,
00010000
00001000
00010000
00001000
,
00000110
00001001
00000010
00001000
,
00010000
01000000
10000000
10000000
,
10100000
10010000
00100000
00010000
,
00001000
00000000
00010000
00001000
00010000
00001000
00010000
00000000
,
00010000
00000000
00000000
00000000
;

//---------------dance-double - ----------------
#NOTES:
     dance-double:
     :
     Hard:
     13:
     0.597,0.555,0.459,0.000,0.205: // measure 1
01000000
00000000
00000000
00010000
00000000
00000000
00100000
00000000
00001000
00000000
00000000
00010000
00000000
00000000
00001000
00000000
,  // measure 2
00000010
00000000
00000000
00000001
00000000
00000000
00001000
00000000
00000010
00000000
00000000
00010000
00000000
00000000
00001000
00000000
,  // measure 3
00100000
00000000
00000000
01000000
00000000
00000000
10000000
00000000
00100000
00000000
00000000
01000000
00000000
00000000
00001000
00000000
,  // measure 4
00010000
00010000
00001000
00001000
00000010
00000100
00000110
00000000
,  // measure 5
00000100
00000001
00000010
00000100
00000001
00000010
00000100
00001000
,  // measure 6
00001000
00000010
00000001
00000010
00000100
00000000
00011000
00000000
,  // measure 7
01000000
00010000
00100000
10000000
00100000
01000000
00010000
00100000
,  // measure 8
10000000
00100000
01000000
10000000
00100000
00000000
00011000
00000000
,  // measure 9
00001000
00000010
00000001
00000010
00000100
00000010
00001000
00000100
,  // measure 10
00000001
00000010
00000100
00001000
00000010
00000000
00011000
00000000
,  // measure 11
00010000
01000000
00100000
00010000
00100000
01000000
00010000
10000000
,  // measure 12
00100000
01000000
10000000
00010000
00100000
00000000
00011000
00000000
,  // measure 13
00011000
00000000
00000000
00001000
00000010
00000000
00000000
00000010
00000001
00000000
00000000
00000001
00000100
00000000
00000000
00000100
,  // measure 14
00010000
00110000
10100000
00011000
,  // measure 15
00000010
00001000
00000100
00000010
00001000
00000001
00000100
00001000
,  // measure 16
00000100
00000000
00000010
00000000
00000001
00000000
00000010
00000000
00000100
00000000
00000000
00001000
00010000
00001000
00010000
00000000
,  // measure 17
01000000
10000000
00100000
00010000
10000000
01000000
10000000
00010000
,  // measure 18
00100000
00000000
01000000
00000000
00010000
00000000
10000000
00000000
00100000
00000000
00000000
00010000
00001000
00010000
00001000
00000000
,  // measure 19
00011000
00000010
00000100
00000001
,  // measure 20
00010000
00001000
01000000
00100000
,  // measure 21
10010000
00010000
00100000
00001000
,  // measure 22
00000000
00010010
00000000
00001100
00000000
00010100
00011000
00000000
,  // measure 23
00010000
00001000
00000010
00000000
00001000
00000001
00000100
00000000
,  // measure 24
00000001
00000010
00001000
00000000
00001000
00000010
00010000
00000000
,  // measure 25
00010000
00001000
00100000
00000000
01000000
00010000
10000000
00000000
,  // measure 26
10000000
00100000
01000000
00000000
01000000
00001000
00010000
00000000
,  // measure 27
00010000
00001000
00100000
00000000
01000000
00100000
00010000
00001000
,  // measure 28
00010000
00001000
00000010
00000001
00000001
00000100
00000010
00001000
,  // measure 29
00001000
00010000
00100000
10000000
00010000
10000000
00100000
00010000
,  // measure 30
00001000
00010000
00001000
00010000
00001000
00000000
00000010
00000000
00000001
00000100
00000000
00000100
00000010
00000000
00000000
00000000
,  // measure 31
00001001
00000000
00000001
00000011
00000000
00001000
00011000
00000000
,  // measure 32
01000000
01100000
00000000
10000000
10010000
00000000
01100000
00000000
,  // measure 33
10010000
00000000
10000000
10100000
00000000
00010000
00011000
00000000
,  // measure 34
00000100
00000110
00000000
00000001
00001001
00000000
00000110
00000000
,  // measure 35
00001001
00000000
00000001
00001001
00000000
00000010
00001010
00000000
,  // measure 36
00010000
00011000
00000000
01000000
01100000
01100000
10100000
00000000
,  // measure 37
01100000
00000000
10000000
10010000
00000000
00100000
00110000
00000000
,  // measure 38
00001000
00000000
00011000
00000000
00000000
00000000
00000100
00000000
00001000
00000000
00000010
00001000
00000010
00001000
00000001
00000000
,  // measure 39
00000000
00000000
00000000
00000000
00000001
00000000
00000100
00000010
00000000
00000000
00000001
00000000
00000100
00000000
00000010
00001000
,  // measure 40
00000000
00000000
00010000
00000000
00001000
00000000
00100000
00010000
00000000
00000000
01000000
00000000
00100000
10000000
00100000
00000000
,  // measure 41
01000000
00000000
00000000
00000000
10000000
00000000
01000000
00100000
00000000
00000000
10000000
00000000
01000000
00000000
00100000
00010000
,  // measure 42
00000000
00000000
00001000
00000000
00010000
00000000
00000010
00001000
00000000
00000000
00000100
00000000
00000010
00000001
00000010
00000000
,  // measure 43
00000100
00000000
00000000
00000000
00001000
00000000
00010000
00001000
00000000
00000000
01000000
00000000
00100000
00000000
10000000
01000000
,  // measure 44
00000000
00000000
00100000
00000000
00001000
00000000
00010000
00001000
00000000
00000000
00000010
00000000
00000100
00000010
00000100
00000000
,  // measure 45
00001000
00000000
00000000
00000000
00010000
00000000
00001000
00100000
00000000
00000000
00010000
00000000
01000000
00000000
00100000
10000000
,  // measure 46
00000000
01000000
10000000
00100000
00010000
00001000
00010000
00000010
,  // measure 47
00010000
00000000
00000000
00000000
;

//---------------dance-single - ----------------
#NOTES:
     dance-single:
     :
     Challenge:
     15:
     0.728,0.722,0.290,0.024,0.670:
1001
0000
0000
1000
0000
0000
0001
0000
0100
0000
0000
0010
0000
0000
1000
0000
,
0100
0000
0000
0010
0000
0000
0100
0000
1000
0000
0000
0010
0000
0000
0100
0000
,
0001
0000
0000
1000
0000
0000
0010
0000
0100
0000
0000
0001
0000
0000
1000
0000
,
0001
0001
1000
1000
0001
0000
1001
0000
,
0001
0000
1000
0100
0000
1000
0100
0000
0010
0000
0001
1000
0000
0001
1000
0000
,
0010
0000
0100
0001
0000
0100
0001
0000
1000
0000
0100
1000
0100
0000
0000
0000
,
0010
0000
0001
0100
0000
0001
0100
0000
0010
0000
1000
0100
0000
1000
0100
0000
,
1000
0000
0010
0100
0000
0010
0100
0000
0001
0000
1000
0001
1000
0000
0000
0000
,
0010
0000
1000
0001
0000
1000
0001
0000
0010
0000
0100
0010
0000
0100
0010
0000
,
0001
0000
1000
0010
0000
1000
0010
0000
0100
0000
0001
1000
0001
0000
0000
0000
,
0010
0000
0001
1000
0000
0001
1000
0000
0100
0000
1000
0010
0000
1000
0010
0000
,
0100
0000
0001
0010
0000
0001
0010
0000
0001
0000
0100
0010
0100
0000
0000
0000
,
1001
0000
1000
0100
1000
0000
0001
0010
0001
0000
1000
0001
1000
0001
1000
0001
,
1000
1001
1001
0110
,
0010
0000
1000
0001
0000
0001
0010
0100
1000
0000
0001
1000
0000
1000
0010
0100
,
0001
0000
1000
0001
0000
0001
0010
0100
1000
0000
0100
1000
0010
0100
0010
0100
,
0010
0000
1000
0001
0000
0001
0100
0010
1000
0000
0001
1000
0000
1000
0010
0100
,
0001
0000
0010
0100
0000
0100
1000
0010
0100
0000
0001
0100
0010
0100
0010
0100
,
0020
0000
0000
1000
0000
0000
1000
0000
0000
0000
0000
1000
0000
0000
1000
0000
,
0000
0000
0000
1000
0000
0000
1000
0000
0000
0000
0000
1000
0000
0000
1030
0000
,
0002
0000
0000
0100
0000
0000
0100
0000
0000
0000
0000
0100
0000
0000
0103
0000
,
0000
0110
0000
0110
0000
0110
1001
0000
,
1000
0001
1000
0001
1000
0000
0100
0000
1000
0000
0001
0000
1000
0000
0100
0000
,
1000
0001
0010
0001
1000
0100
0010
0001
,
0100
0001
0100
0001
0100
0000
0001
0000
1000
0000
0001
0000
0100
0000
0001
0000
,
1000
0001
0010
0100
0010
0001
1000
0100
,
1000
0001
1000
0001
1000
0000
0010
0000
1000
0001
0000
0100
0001
0000
0010
0000
,
0100
1000
0000
0010
0100
0000
0010
0000
1000
0001
0000
0010
0001
0000
1000
0000
,
0010
0100
0010
0100
0010
0000
1000
0000
0010
0100
0000
0001
0010
0000
0001
0000
,
1000
0001
1000
0001
1000
0100
1000
0100
0010
0001
0000
0001
1000
0000
1000
0000
,
0110
0000
0100
0001
0001
0010
0100
0100
,
0010
0000
0001
0000
0001
0000
0010
0000
0100
0000
1000
0001
1000
0001
1000
0000
,
1001
0000
1000
0010
0010
0100
0010
0010
,
1000
0000
0010
0000
0010
0000
0100
0000
0010
0000
1000
0001
1000
0001
1000
0000
,
1001
0000
1000
1100
0000
0010
0110
0000
,
1000
1100
0000
0010
0110
0000
1001
0000
,
0101
0000
0010
0110
0000
0100
0101
0000
,
0010
0110
0000
0100
0101
0000
1001
0000
,
0000
0000
1000
0001
0100
1000
0100
0001
,
1000
0000
0001
0000
0010
0000
1000
0000
0010
0000
0001
0000
1000
0000
0100
0010
,
0100
0000
1000
0001
0010
1000
0010
0001
,
1000
0000
0001
0000
0100
0000
1000
0000
0100
0000
0001
0000
1000
0000
0010
0100
,
0010
0000
0000
0000
1000
0000
0001
0010
0001
0010
0001
0000
1000
0000
0010
0100
,
0010
0100
0010
0000
1000
0000
0001
1000
0001
1000
0001
0000
0010
0000
0100
0010
,
0001
0000
0000
0000
0100
0000
0001
1000
0001
1000
0001
0000
1000
0000
0100
1000
,
0100
1000
0100
0000
1000
0001
1000
0000
0001
0100
0001
0000
1000
0000
0010
0100
,
0001
0000
0000
0000
;

//---------------dance-double - ----------------
#NOTES:
     dance-double:
     :
     Challenge:
     15:
     0.731,0.722,0.290,0.024,0.682: // measure 1
10010000
00000000
00000000
10000000
00000000
00000000
00001000
00000000
00100000
00000000
00000000
00100000
00000000
00000000
00001000
00000000
,  // measure 2
00010000
00000000
00000000
00010000
00000000
00000000
00000010
00000000
00000100
00000000
00000000
00000100
00000000
00000000
00000001
00000000
,  // measure 3
00001000
00000000
00000000
00001000
00000000
00000000
00000100
00000000
00010000
00000000
00000000
00010000
00000000
00000000
00001000
00000000
,  // measure 4
10000000
10000000
00010000
00010000
01000000
00000000
01100000
00000000
,  // measure 5
10000000
00000000
00010000
01000000
00000000
00010000
01000000
00000000
00001000
00000000
00010000
00000001
00000000
00010000
00000001
00000000
,  // measure 6
00000100
00000000
00000010
00001000
00000000
00000010
00001000
00000000
00000100
00000000
00010000
00001000
00010000
00000000
00000000
00000000
,  // measure 7
00001000
00000000
10000000
01000000
00000000
10000000
01000000
00000000
00100000
00000000
00001000
01000000
00000000
00001000
01000000
00000000
,  // measure 8
00001000
00000000
00010000
00000001
00000000
00010000
00000001
00000000
00000010
00000000
00000100
00000010
00000100
00000000
00000000
00000000
,  // measure 9
00010000
00000000
00000001
00010000
00000000
00000010
00010000
00000000
00001000
00000000
01000000
00100000
00000000
10000000
01000000
00000000
,  // measure 10
10000000
00000000
00001000
00010000
00000000
00001000
00100000
00000000
00001000
00000000
00100000
00010000
00100000
00000000
00000000
00000000
,  // measure 11
00001000
00000000
00010000
00000001
00000000
00000100
00000001
00000000
00000100
00000000
00000010
00010000
00000000
00001000
00010000
00000000
,  // measure 12
00001000
00000000
01000000
00100000
00000000
10000000
01000000
00000000
10000000
00000000
00001000
01000000
00001000
00000000
00000000
00000000
,  // measure 13
00011000
00000000
00010000
00001000
00010000
00000000
00001000
00010000
00001000
00000000
00010000
00000001
00010000
00000001
00010000
00000001
,  // measure 14
00010000
00010001
00010001
00000110
,  // measure 15
00000010
00000000
00001000
00000001
00000000
00000001
00000010
00000100
00010000
00000000
00001000
10000000
00000000
10000000
01000000
00100000
,  // measure 16
00001000
00000000
00010000
00000001
00000000
00000001
00000100
00000010
00010000
00000000
00001000
00010000
00000010
00000100
00000010
00000100
,  // measure 17
00000010
00000000
00010000
00000001
00000000
00000001
00000100
00000010
00010000
00000000
00001000
10000000
00000000
10000000
00100000
01000000
,  // measure 18
00001000
00000000
00010000
00000001
00000000
00000001
00000010
00000100
00010000
00000000
00001000
00010000
00000100
00000010
00000100
00000010
,  // measure 19
00000200
00000000
00000000
00000010
00000000
00000000
00000010
00000000
00000000
00000000
00000000
00001000
00000000
00000000
00001000
00000000
,  // measure 20
00000000
00000000
00000000
00000010
00000000
00000000
00000010
00000000
00000000
00000000
00000000
00001000
00000000
00000000
00001300
00000000
,  // measure 21
00000002
00000000
00000000
00010000
00000000
00000000
00010000
00000000
00000000
00000000
00000000
00010000
00000000
00000000
00010003
00000000
,  // measure 22
00000000
00010001
00000000
00010001
00000000
00010001
00000110
00000000
,  // measure 23
00000001
00001000
00000001
00001000
00000001
00000000
00000010
00000000
00000100
00000000
00010000
00000000
00000100
00000000
00000010
00000000
,  // measure 24
00000001
00000100
00000010
00010000
00000010
00000100
00000001
00010000
,  // measure 25
00001000
10000000
00001000
10000000
00001000
00000000
00100000
00000000
01000000
00000000
10000000
00000000
01000000
00000000
00100000
00000000
,  // measure 26
00001000
01000000
00100000
10000000
00100000
01000000
00001000
00010000
,  // measure 27
00000010
00000100
00000010
00000100
00000010
00000000
00001000
00000000
00000001
00000010
00000000
00000010
00000001
00000000
00010000
00000000
,  // measure 28
00001000
10000000
00000000
10000000
00001000
00000000
01000000
00000000
00100000
10000000
00000000
10000000
00100000
00000000
01000000
00000000
,  // measure 29
00001000
00010000
00001000
00010000
00001000
00000000
00010000
00000000
00000100
00000010
00000000
00000010
00000100
00000000
00010000
00000000
,  // measure 30
00001000
10000000
00001000
10000000
01000000
00100000
01000000
00100000
00001000
00010000
00000000
00010000
00001000
00000000
00001000
00000000
,  // measure 31
00011000
00000000
00010000
00000001
00000001
00000100
00010000
00010000
,  // measure 32
00000100
00000000
00000001
00000000
00000001
00000000
00000010
00000000
00000100
00000000
00010000
00001000
00010000
00001000
00010000
00000000
,  // measure 33
00011000
00000000
00001000
10000000
10000000
01000000
00010000
00010000
,  // measure 34
01000000
00000000
10000000
00000000
10000000
00000000
00100000
00000000
01000000
00000000
00001000
00010000
00001000
00010000
00001000
00000000
,  // measure 35
00011000
00000000
00000001
00000101
00000000
00000100
00000110
00000000
,  // measure 36
00000010
00010010
00000000
00010000
00011000
00000000
10001000
00000000
,  // measure 37
01100000
00000000
10000000
11000000
00000000
01000000
01100000
00000000
,  // measure 38
00100000
00101000
00000000
00001000
00011000
00000000
00010001
00000000
,  // measure 39
00000000
00000000
00000001
00001000
00000010
00000001
00000010
00000100
,  // measure 40
00000001
00000000
00010000
00000000
00000100
00000000
00000001
00000000
00000100
00000000
00010000
00000000
00000001
00000000
00010000
00001000
,  // measure 41
00100000
00000000
00010000
10000000
00100000
00010000
00100000
01000000
,  // measure 42
00010000
00000000
10000000
00000000
00100000
00000000
00001000
00000000
00100000
00000000
10000000
00000000
00001000
00000000
00010000
00001000
,  // measure 43
01000000
00000000
00000000
00000000
00100000
00000000
10000000
00010000
10000000
00010000
10000000
00000000
00001000
00000000
00010000
00000100
,  // measure 44
00010000
00000100
00010000
00000000
00000001
00000000
00000010
00000100
00000010
00000100
00000010
00000000
00000001
00000000
00000010
00000100
,  // measure 45
00010000
00000000
00000000
00000000
00001000
00000000
01000000
00100000
01000000
00100000
01000000
00000000
00001000
00000000
00010000
00000010
,  // measure 46
00010000
00000010
00010000
00000000
00000100
00001000
00000100
00001000
00000010
00000100
00000010
00000100
00000010
00000000
00010000
00001000
,  // measure 47
01000000
00000000
00000000
00000000
;
