#TITLE:Future MUSiC;
#SUBTITLE:;
#ARTIST:Ym1024 feat. lamie*;
#TITLETRANSLIT:;
#SUBTITLETRANSLIT:;
#ARTISTTRANSLIT:;
#CREDIT:DigiMindAxel;
#BANNER:Future MUSiC.png;
#BACKGROUND:Future MUSiC-bg.png;
#LYRICSPATH:Future MUSiC.lrc;
#CDTITLE:SOUND VOLTEX.png;
#MUSIC:Future MUSiC.ogg;
#METERTYPE:DDR X;
#OFFSET:-0.875;
#SAMPLESTART:69.735;
#SAMPLELENGTH:12.000;
#SELECTABLE:YES;
#BPMS:0.000=132.000;
#STOPS:;
#BGCHANGES:-9.000=Future MUSiC.avi=1.000=1=1=0,
99999=-nosongbg-=1.000=0=0=0 // don't automatically add -songbackground-
;

//---------------dance-single - ----------------
#NOTES:
     dance-single:
     :
     Easy:
     4:
     0.214,0.380,0.033,0.214,0.000: // measure 1
0000
0000
0000
0000
,  // measure 2
0000
0000
0000
0000
,  // measure 3
0000
1000
0000
1000
,  // measure 4
0000
1000
0000
1000
,  // measure 5
0000
1000
0000
1000
,  // measure 6
0000
2000
0000
3001
,  // measure 7
0000
0100
0000
0100
,  // measure 8
0000
0100
0000
0100
,  // measure 9
0000
0100
0000
0100
,  // measure 10
0020
0000
0000
0000
,  // measure 11
0130
0000
0000
0000
,  // measure 12
0001
0000
0000
0000
,  // measure 13
1000
0000
0000
0000
,  // measure 14
0001
0000
0000
0000
,  // measure 15
1000
0000
0000
0000
,  // measure 16
0001
0000
0000
0000
,  // measure 17
2000
0000
0000
0000
,  // measure 18
0000
0000
0000
3000
,  // measure 19
1001
0000
0001
0000
,  // measure 20
0010
0000
0001
0000
,  // measure 21
1000
0000
0001
0000
,  // measure 22
1000
0000
0001
0000
,  // measure 23
1000
0000
0010
0000
,  // measure 24
1000
0000
0010
0000
,  // measure 25
0200
0000
0000
0000
,  // measure 26
0000
0000
0000
0300
,  // measure 27
0110
0010
0010
0000
,  // measure 28
0100
0100
0100
0000
,  // measure 29
0010
0010
0010
0000
,  // measure 30
0100
0100
0100
0000
,  // measure 31
1001
0001
0000
0000
,  // measure 32
1000
0001
0000
0000
,  // measure 33
0010
0100
0010
0000
,  // measure 34
0001
1000
0001
0000
,  // measure 35
1000
0100
0000
0000
,  // measure 36
1000
0001
1000
0000
,  // measure 37
0010
0100
0010
0000
,  // measure 38
2000
0000
0000
0000
,  // measure 39
3001
1000
0001
1000
,  // measure 40
0100
1000
0100
1000
,  // measure 41
0010
0100
0020
0000
,  // measure 42
0100
0000
0100
0000
,  // measure 43
0130
0001
0100
0001
,  // measure 44
1000
0001
1000
0001
,  // measure 45
2000
0000
0002
0000
,  // measure 46
0000
0000
0000
3003
,  // measure 47
0001
0010
0001
0010
,  // measure 48
0001
1000
0001
1000
,  // measure 49
0010
1000
0020
0000
,  // measure 50
0100
0000
0100
0000
,  // measure 51
0130
0010
0100
0010
,  // measure 52
1000
0001
1000
0001
,  // measure 53
2000
0000
0002
0000
,  // measure 54
0000
0000
0000
3003
,  // measure 55
1001
1000
0001
1000
,  // measure 56
0002
0023
0230
2300
,  // measure 57
3010
0100
0010
0100
,  // measure 58
0002
2003
3200
0320
,  // measure 59
0130
1000
0100
1000
,  // measure 60
0002
0203
0320
0230
,  // measure 61
0302
0000
0000
0000
,  // measure 62
2003
0000
0000
0000
,  // measure 63
3001
0001
0001
0001
,  // measure 64
1000
1000
1000
1000
,  // measure 65
0001
0001
0001
0001
,  // measure 66
1000
0000
2000
0000
0000
0000
0000
3000
;

//---------------dance-single - ----------------
#NOTES:
     dance-single:
     :
     Medium:
     7:
     0.308,0.380,0.148,0.173,0.000: // measure 1
0000
0000
0000
0000
,  // measure 2
0000
0000
0000
0000
,  // measure 3
0000
1001
0000
1001
,  // measure 4
0000
1001
0000
1001
,  // measure 5
0000
1001
0000
1001
,  // measure 6
0000
0002
0000
1003
,  // measure 7
0000
0110
0000
0110
,  // measure 8
0000
0110
0000
0110
,  // measure 9
0000
0110
0000
0110
,  // measure 10
0020
0000
0000
0000
,  // measure 11
0230
0000
0000
0000
,  // measure 12
0302
0000
0000
0000
,  // measure 13
0023
0000
0000
0000
,  // measure 14
0000
0000
0000
0000
,  // measure 15
0032
0000
0000
0000
,  // measure 16
2003
0000
0000
0000
,  // measure 17
3020
0000
0200
0000
,  // measure 18
0000
0000
0000
0330
,  // measure 19
0110
0100
0100
0100
,  // measure 20
0001
0001
0001
0001
,  // measure 21
1000
1000
1000
1000
,  // measure 22
0100
0100
0100
0100
,  // measure 23
0010
0010
0010
0010
,  // measure 24
0100
0100
0100
0100
,  // measure 25
2000
3002
2003
3002
,  // measure 26
0000
0000
0000
0003
,  // measure 27
1001
0000
1000
0000
0100
1000
0100
0000
,  // measure 28
1000
0001
1000
0000
0100
0000
1100
0000
,  // measure 29
0010
0000
0110
0000
0100
0010
0100
0000
,  // measure 30
0001
0000
0101
0000
0001
1000
0001
0000
,  // measure 31
1001
1000
1000
0000
,  // measure 32
0001
0100
0010
0100
0000
0000
0000
0000
,  // measure 33
0001
1000
0001
0000
,  // measure 34
0010
0001
0100
0010
0000
0000
0000
0000
,  // measure 35
0100
0010
0010
0000
,  // measure 36
1000
0100
0010
0001
0000
0000
0000
0000
,  // measure 37
1000
0000
0001
0000
1000
0000
0000
0002
,  // measure 38
0000
0000
2003
0000
,  // measure 39
3001
0000
0100
0000
0010
0100
0010
0000
,  // measure 40
0100
0000
0001
0000
0010
0001
0010
0000
,  // measure 41
0001
1000
0200
1000
,  // measure 42
1000
0010
0010
1000
,  // measure 43
1300
0000
0001
0000
0100
0010
0100
0000
,  // measure 44
0001
0000
1000
0000
0100
1000
0100
0000
,  // measure 45
2000
0001
0001
0010
,  // measure 46
0010
0001
3001
0000
,  // measure 47
1000
0000
0010
0000
0100
0010
0100
0000
,  // measure 48
0001
0000
1000
0000
0100
1000
0100
0000
,  // measure 49
2000
0001
0001
0010
,  // measure 50
0010
0001
0001
0010
,  // measure 51
3010
0000
1000
0000
0001
0010
0001
0000
,  // measure 52
0100
0000
0010
0000
1000
0001
1000
0000
,  // measure 53
0200
1000
1000
0010
,  // measure 54
0010
1000
1300
0000
,  // measure 55
0001
0100
0010
0100
0001
0000
0001
0000
,  // measure 56
0100
0010
0100
0000
0100
0010
0100
0000
,  // measure 57
0001
1000
0100
1000
0001
0000
0001
0000
,  // measure 58
0010
0001
0010
0000
0010
0001
0010
0000
,  // measure 59
0001
0100
0010
0100
0001
0000
0001
0000
,  // measure 60
1000
0100
1000
0000
0010
0100
0010
0000
,  // measure 61
2000
0000
0000
0000
0000
0000
3001
1000
,  // measure 62
0001
0010
0100
1000
,  // measure 63
0001
0100
0001
0100
,  // measure 64
1000
0100
1000
0100
,  // measure 65
0001
0100
0001
0100
,  // measure 66
0010
0000
2000
0000
0000
0000
0000
3000
;

//---------------dance-single - ----------------
#NOTES:
     dance-single:
     :
     Hard:
     10:
     0.415,0.461,0.239,0.297,0.049: // measure 1
0000
0000
0000
0000
,  // measure 2
0000
0000
0000
0000
,  // measure 3
0000
1001
0100
1001
,  // measure 4
0100
1001
0100
1001
,  // measure 5
0100
1001
0100
1001
,  // measure 6
0100
0000
0000
1000
0001
2000
0000
0000
0000
3001
0000
0000
,  // measure 7
0010
1001
0010
1001
,  // measure 8
0010
1001
0010
1001
,  // measure 9
0010
1001
0010
1001
,  // measure 10
2000
0000
0000
0000
0000
0000
0000
0000
3001
1000
0000
0100
0000
1000
0000
0000
,  // measure 11
0020
0000
0000
0000
,  // measure 12
0230
0000
0000
0000
,  // measure 13
0320
0000
0000
0000
0000
1030
0100
0010
,  // measure 14
0001
0000
0000
0100
0000
0000
0010
0000
,  // measure 15
2000
0000
0000
0000
,  // measure 16
3002
0000
0000
0000
,  // measure 17
2003
0000
0000
0000
0000
3100
0010
0001
,  // measure 18
1000
0000
0000
0010
0000
0000
0100
0000
,  // measure 19
1001
0001
1001
1000
,  // measure 20
1001
0001
1001
1000
,  // measure 21
1100
0100
1100
1000
,  // measure 22
1100
0100
1100
0010
,  // measure 23
0110
0100
0110
0010
,  // measure 24
0110
0100
0110
0001
,  // measure 25
0020
0230
0320
0032
,  // measure 26
0000
0000
0000
0003
,  // measure 27
1000
0100
1000
0010
0100
0100
0100
0000
,  // measure 28
0001
0001
0001
1000
0100
0010
0100
0000
,  // measure 29
0010
0001
0100
0010
0100
0100
0100
0000
,  // measure 30
0001
0001
0001
0010
0100
1000
0010
0100
,  // measure 31
0101
0000
0100
0000
0100
0002
0000
1003
,  // measure 32
0100
0010
0001
2000
0000
3000
0000
0000
,  // measure 33
0110
0000
0010
0000
0010
2000
0000
3001
,  // measure 34
0100
0010
1000
0002
0000
0003
0000
0000
,  // measure 35
1001
0000
1000
0000
1000
0020
0000
0130
,  // measure 36
0001
0100
0010
2000
0000
3000
0000
0000
,  // measure 37
1001
0000
0001
2000
0000
3001
1000
0002
,  // measure 38
0000
0000
0000
0000
0000
0000
0000
0000
1003
0001
0000
0100
0000
0000
0000
0000
,  // measure 39
0001
1000
0100
0010
0100
1000
0010
0000
,  // measure 40
1000
0001
0010
0100
0100
0010
0001
1000
,  // measure 41
0010
0000
0000
0100
0000
0000
0002
0000
0000
0000
0000
0000
0000
0000
0000
0000
,  // measure 42
1000
0000
0000
1000
0000
0000
1003
0000
,  // measure 43
0001
0100
0010
0100
0001
1000
0100
0000
,  // measure 44
1000
0010
0100
1000
0100
0010
1000
0001
,  // measure 45
2000
0000
3002
0000
,  // measure 46
1000
0000
0000
1000
0000
0000
1003
0000
,  // measure 47
0001
0010
0001
0100
0010
1000
0100
0000
,  // measure 48
1000
0010
0100
1000
0100
0010
1000
0100
,  // measure 49
0010
0000
0000
0001
0000
0000
0200
0000
0000
0000
0000
0000
0000
0000
0000
0000
,  // measure 50
0010
0000
0000
0010
0000
0000
0310
0000
,  // measure 51
1000
0100
0010
1000
0010
0100
1000
0000
,  // measure 52
0010
1000
0100
0010
0010
0100
1000
0001
,  // measure 53
0200
0000
0302
0000
,  // measure 54
1000
0000
0000
1000
0000
0000
1003
0000
,  // measure 55
0001
0010
0100
1000
0100
0010
0001
0100
,  // measure 56
2000
3200
0302
2003
,  // measure 57
3001
1000
0100
0001
0200
0000
2300
0000
,  // measure 58
3001
0100
0010
0100
0002
0000
2003
0000
,  // measure 59
3001
0010
0100
0001
0100
0010
0001
1000
,  // measure 60
0001
1000
0100
0001
0100
1000
0001
0010
,  // measure 61
0200
0000
0000
0000
0000
0000
0000
0000
0000
0000
0000
0000
0000
0000
1300
0001
,  // measure 62
1000
0000
0000
0100
0000
0000
0010
0000
0000
0001
0000
0000
0100
0000
0000
0000
,  // measure 63
0110
0100
0001
0010
,  // measure 64
1000
0010
0001
0100
,  // measure 65
0100
0001
0010
1000
,  // measure 66
0010
0000
0002
0000
0000
0000
0000
0003
;

//---------------dance-single - ----------------
#NOTES:
     dance-single:
     :
     Challenge:
     12:
     0.580,0.651,0.181,0.494,0.198: // measure 1
0000
0000
0000
0000
,  // measure 2
0000
0000
0000
0000
,  // measure 3
0000
0000
1001
0000
0100
1000
1001
0000
,  // measure 4
0100
1000
1001
0000
0010
0001
1001
0000
,  // measure 5
0010
0001
1001
0000
0010
1000
1001
0000
,  // measure 6
0010
0000
0000
1000
0000
0000
0001
0000
0001
0000
0002
0000
0000
0000
0000
0000
0000
0000
2003
0000
0000
0000
0000
0000
,  // measure 7
3001
0010
0110
0000
1000
0100
0110
0000
,  // measure 8
0001
0100
0110
0000
1000
0010
0110
0000
,  // measure 9
0001
0010
0110
0000
1000
0100
0110
0000
,  // measure 10
0002
0000
0000
0000
0000
0000
0000
0000
1003
0001
0000
0010
0000
0001
1000
0000
,  // measure 11
1002
0000
0000
1000
0000
0000
1000
0000
0000
0000
0000
0000
1003
0000
0000
0000
,  // measure 12
0020
0000
0000
0100
0000
0000
0100
0000
0000
0000
0000
0000
0130
0000
0000
0000
,  // measure 13
0002
0000
0000
0203
0000
0000
0320
0000
0000
0000
1030
0000
0100
0000
0010
0000
,  // measure 14
0200
0000
0000
0320
0000
0000
0032
0000
,  // measure 15
2003
0000
0000
0001
0000
0000
0001
0000
0000
0000
0000
0000
3001
0000
0000
0000
,  // measure 16
0020
0000
0000
0001
0000
0000
0001
0000
0000
0000
0032
0000
0000
0203
0000
0000
,  // measure 17
0320
0000
0000
0000
0130
0001
1000
0100
,  // measure 18
0020
0000
0000
0230
0000
0000
1300
0000
,  // measure 19
0001
0100
0001
0100
0001
0100
0001
0100
,  // measure 20
0001
0100
0001
0100
0001
0100
0001
0100
,  // measure 21
1000
0100
1000
0100
1000
0100
1000
0100
,  // measure 22
1000
0100
1000
0100
1000
0100
1000
0100
,  // measure 23
0001
1000
0001
1000
0001
1000
0001
1000
,  // measure 24
0001
1000
0001
1000
0001
1000
0010
0100
,  // measure 25
0002
0203
0320
2030
,  // measure 26
0000
0000
0000
0002
0000
0000
3003
0000
,  // measure 27
1000
0000
0001
0000
0101
0000
0100
0010
0100
0010
0100
0000
0010
0000
1000
0000
,  // measure 28
0100
0000
0010
0001
0000
0001
0000
0001
0100
0000
0010
0000
0110
0000
0000
0000
,  // measure 29
0010
0000
1000
0000
1001
0000
0001
0010
0001
0010
0001
0000
1000
0000
0010
0000
,  // measure 30
0100
0001
0000
0000
0101
0000
0000
0001
1000
0000
0100
1000
0100
0000
1000
0000
,  // measure 31
1001
0000
0002
0000
1003
0002
0000
1003
,  // measure 32
0100
0010
0001
2000
0000
3010
0100
0010
,  // measure 33
0000
1000
0010
0100
0000
0100
0001
0010
,  // measure 34
0000
0010
0100
1000
0000
1000
0010
0100
,  // measure 35
0110
0000
0200
0000
0310
2000
0000
3100
,  // measure 36
0010
0001
0010
0200
0000
1300
0010
1000
,  // measure 37
0000
0001
1000
0100
0000
0100
0010
0002
,  // measure 38
0000
0000
0000
0000
0000
0000
0000
0000
1003
0001
0000
0010
0000
0000
0001
0000
,  // measure 39
1000
0100
0001
1000
0001
0100
1000
0000
,  // measure 40
0100
0010
0100
1000
0010
0001
0010
0100
,  // measure 41
0001
0000
0000
1001
0000
0000
2000
0000
0000
0000
3010
0000
0100
0000
0001
0000
,  // measure 42
0200
0000
0000
2300
0000
0000
3200
0000
,  // measure 43
0301
0010
1000
0001
1000
0010
0001
0000
,  // measure 44
0010
0100
0010
0001
0100
1000
0100
0010
,  // measure 45
2000
0000
0100
0000
3001
1000
0100
0010
,  // measure 46
0200
0000
0000
2300
0000
0000
3002
0000
,  // measure 47
1003
0010
0001
1000
0001
0010
1000
0000
,  // measure 48
0010
0100
0010
1000
0100
0001
0100
0010
,  // measure 49
0001
0000
0000
1001
0000
0000
2000
0000
0000
0000
3100
0000
0010
0000
0001
0000
,  // measure 50
0200
0000
0000
0302
0000
0000
2003
0000
,  // measure 51
3001
0010
1000
0001
1000
0010
0001
0000
,  // measure 52
0100
0010
0100
0001
0010
1000
0010
0100
,  // measure 53
2000
0000
0100
0000
3001
1000
0010
0100
,  // measure 54
0020
0000
0000
0000
0000
0000
1030
0001
1000
0001
1000
0000
0002
0000
0000
0000
,  // measure 55
1003
0000
0001
0010
0001
0010
0001
0000
0100
0000
0010
0100
0000
0010
0100
0000
,  // measure 56
0002
1000
2003
0100
3200
0010
0320
0001
,  // measure 57
0031
0000
1000
0010
1000
0010
1000
0000
0001
0000
0010
0100
2000
0000
0000
0000
,  // measure 58
3002
0100
0203
0010
0320
1000
2030
0001
,  // measure 59
3001
0000
0100
0010
0100
0010
0100
0000
0001
0000
1000
0100
1000
0100
1000
0000
,  // measure 60
0001
0010
1000
0010
0001
0100
1000
0100
,  // measure 61
0002
0000
0000
0000
1000
0000
0000
0000
1000
0000
0000
0000
1003
0000
0001
0100
,  // measure 62
0002
0000
0000
0203
0000
0000
0320
0000
0000
2030
0000
0000
3001
0000
0001
0000
,  // measure 63
1001
0000
0000
0000
1000
0000
0000
0010
0100
0000
0000
0001
1000
0000
1000
0000
,  // measure 64
0001
0000
0000
0000
0001
0000
0000
0010
0100
0000
0000
1000
0001
0000
0001
0000
,  // measure 65
1000
0000
0000
0000
1000
0000
0000
0100
1000
0000
0000
0001
0100
0000
0100
0000
,  // measure 66
0002
0000
1000
0000
0000
0000
1000
0000
0000
0000
0000
1000
0000
0000
1003
0000
;

//---------------dance-single - ----------------
#NOTES:
     dance-single:
     :
     Beginner:
     2:
     0.084,0.134,0.049,0.000,0.000: // measure 1
0000
0000
0000
0000
,  // measure 2
0000
0000
0000
0000
,  // measure 3
0000
0000
0000
0000
,  // measure 4
0000
0000
0000
0000
,  // measure 5
0000
0000
0000
0000
,  // measure 6
0000
0000
0000
0000
,  // measure 7
0000
1000
0000
1000
,  // measure 8
0000
1000
0000
1000
,  // measure 9
0000
0001
0000
0001
,  // measure 10
0000
0001
0000
0000
,  // measure 11
1001
0000
0000
0000
,  // measure 12
0001
0000
0000
0000
,  // measure 13
1000
0000
0000
0000
,  // measure 14
0000
0000
0000
0000
,  // measure 15
0010
0000
0000
0000
,  // measure 16
0100
0000
0000
0000
,  // measure 17
0010
0000
0000
0000
,  // measure 18
0000
0000
0000
0000
,  // measure 19
0110
0000
0000
0000
,  // measure 20
0000
0000
0000
0000
,  // measure 21
0100
0000
0000
0000
,  // measure 22
0000
0000
0000
0000
,  // measure 23
0010
0000
0000
0000
,  // measure 24
0000
0000
0000
0000
,  // measure 25
0100
0000
0000
0000
,  // measure 26
0000
0000
0000
0000
,  // measure 27
1001
0000
0000
0000
,  // measure 28
1000
0000
0000
0000
,  // measure 29
0100
0000
0000
0000
,  // measure 30
0010
0000
0000
0000
,  // measure 31
1001
0000
0000
0000
,  // measure 32
0000
0000
0000
0000
,  // measure 33
0001
0000
0000
0000
,  // measure 34
0000
0000
0000
0000
,  // measure 35
0100
0000
0000
0000
,  // measure 36
0000
0000
0000
0000
,  // measure 37
0010
0000
0000
0000
,  // measure 38
0000
0000
0000
0000
,  // measure 39
1000
0000
0001
0000
,  // measure 40
1000
0000
0000
0000
,  // measure 41
0001
0000
1000
0000
,  // measure 42
0001
0000
0000
0000
,  // measure 43
0010
0000
0001
0000
,  // measure 44
0010
0000
0000
0000
,  // measure 45
0100
0000
0010
0000
,  // measure 46
0100
0000
0000
0000
,  // measure 47
1000
0000
0001
0000
,  // measure 48
1000
0000
0000
0000
,  // measure 49
0100
0000
1000
0000
,  // measure 50
0100
0000
0000
0000
,  // measure 51
0010
0000
0100
0000
,  // measure 52
0010
0000
0000
0000
,  // measure 53
0001
0000
1000
0000
,  // measure 54
0001
0000
0000
0000
,  // measure 55
1001
0000
1000
0000
,  // measure 56
1000
0000
0000
0000
,  // measure 57
0001
0000
0001
0000
,  // measure 58
0001
0000
0000
0000
,  // measure 59
0010
0000
0010
0000
,  // measure 60
0010
0000
0000
0000
,  // measure 61
0100
0000
0100
0000
,  // measure 62
0100
0000
0000
0000
,  // measure 63
1001
0000
0000
0000
,  // measure 64
1000
0000
0000
0000
,  // measure 65
1000
0000
0000
0000
,  // measure 66
1000
0000
0000
0000
;

//---------------dance-double - ----------------
#NOTES:
     dance-double:
     :
     Easy:
     4:
     0.227,0.380,0.049,0.280,0.000:
00000000
00000000
00000000
00000000
,
00000000
00000000
00000000
00000000
,
00000000
10000000
00000000
10000000
,
00000000
10000000
00000000
10000000
,
00000000
10000000
00000000
10000000
,
00000000
20000000
00000000
30010000
,
00000000
01000000
00000000
01000000
,
00000000
01000000
00000000
01000000
,
00000000
01000000
00000000
01000000
,
00200000
00000000
00000000
00000000
,
02300000
00000000
00000000
00000000
,
03002000
00000000
00000000
00000000
,
00023000
00000000
00000000
00000000
,
00030200
00000000
00000000
00000000
,
00000320
00000000
00000000
00000000
,
00000032
00000000
00000000
00000000
,
00002003
00000000
00000000
00000000
,
00000000
00000000
00000000
00003000
,
00001001
00000000
00001000
00000000
,
00000100
00000000
00001000
00000000
,
00000001
00000000
00010000
00000000
,
00000010
00000000
00001000
00000000
,
00010000
00000000
01000000
00000000
,
00100000
00000000
01000000
00000000
,
20020000
00000000
00000000
00000000
,
00000000
00000000
00000000
30030000
,
01100000
00100000
00100000
00000000
,
01000000
01000000
01000000
00000000
,
00011000
00001000
00001000
00000000
,
00010000
00010000
00010000
00000000
,
00011000
00010000
00000000
00000000
,
00000001
00001000
00000001
00000000
,
00000100
00000010
00000100
00000000
,
00000001
00000010
00000001
00000000
,
00010000
00010000
00000000
00000000
,
00001000
00010000
00001000
00000000
,
01000000
00100000
01000000
00000000
,
00020000
00000000
00000000
00000000
,
10030000
00010000
10000000
00010000
,
01000000
00001000
01000000
00001000
,
00010000
00001000
00020000
00000000
,
00001000
00000000
00001000
00000000
,
00031000
00010000
00000010
00000100
,
00000010
00001000
00000001
00001000
,
00000002
00000000
00002000
00000000
,
00000000
00000000
00000000
00003003
,
00000010
00000100
00000010
00000100
,
00010000
00001000
00010000
00001000
,
00100000
01000000
20000000
00000000
,
00010000
00000000
00010000
00000000
,
30010000
00100000
01000000
00100000
,
10000000
00010000
10000000
00010000
,
20000000
00000000
00020000
00000000
,
00000000
00000000
00000000
30030000
,
10010000
10000000
00100000
01000000
,
00002000
00023000
00030020
00000230
,
00000301
00001000
00000002
00001000
,
00002003
00003200
00002300
00023000
,
00130000
01000000
10000000
00100000
,
20000000
32000000
03200000
02300000
,
23000000
00000000
00000000
00000000
,
30002000
00000000
00000000
00000000
,
00013000
00010000
00010000
00010000
,
00000010
00000010
00000010
00000010
,
00001000
00001000
00001000
00001000
,
00000001
00000000
00000002
00000000
00000000
00000000
00000000
00000003
;

//---------------dance-double - ----------------
#NOTES:
     dance-double:
     :
     Medium:
     7:
     0.315,0.380,0.206,0.115,0.000:
00000000
00000000
00000000
00000000
,
00000000
00000000
00000000
00000000
,
00000000
10010000
00000000
10010000
,
00000000
10010000
00000000
10010000
,
00000000
10010000
00000000
10010000
,
00000000
10000000
10000000
00011000
,
00000000
00011000
00000000
00011000
,
00000000
00011000
00000000
00011000
,
00000000
00011000
00000000
00011000
,
00020000
00000000
00000000
00030000
,
00000120
00000000
00000000
00000000
,
00000230
00000000
00000000
00000000
,
00000302
00000000
00000000
00000000
,
00000000
00000000
00000000
00000000
,
00000023
00000000
00000000
00000000
,
00000230
00000000
00000000
00000000
,
00020300
00000000
00002000
00000000
,
00000000
00000000
00000000
00033000
,
10001000
00100000
01000000
10000000
,
01000000
00100000
00001000
00010000
,
00000010
00000100
00000001
00000100
,
00000010
00001000
00010000
00100000
,
01000000
10000000
01000000
00100000
,
00001000
00010000
00000010
00000100
,
00000101
00000110
00010010
00022000
,
00000000
00000000
00000000
00033000
,
01001000
00000000
01000000
00000000
00100000
10000000
01000000
00000000
,
00100000
00010000
10000000
00000000
00100000
00000000
01100000
00000000
,
00001000
00000000
00011000
00000000
00010000
00000100
00000010
00000000
,
00000100
00000000
00010100
00000000
00000010
00000100
00000010
00000000
,
00001001
00000000
00000001
00000000
00000001
00000000
00000000
00000010
,
00000100
00001000
00010000
00001000
00000000
00000000
00000000
00000000
,
01000000
00100000
10000000
00000000
,
00100000
00000000
01000000
00010000
00000000
00010000
00000000
00000000
,
01100000
00000000
01000000
00000000
01000000
00000000
00000000
00100000
,
10000000
01000000
00100000
00001000
00000000
00000000
00000000
00000000
,
00010000
00000000
00000100
00000000
00010000
00000000
00000010
00000200
,
00000000
00000000
00000320
00000000
,
00001030
00000000
00000001
00000000
00000010
00000001
00001000
00000000
,
00000100
00000000
00010000
00000000
00001000
00100000
01000000
00000000
,
00100000
00001000
10000000
01000000
,
00010000
01000000
10000000
00100000
,
00010000
00000000
00100000
00000000
10000000
01000000
00100000
00000000
,
00001000
00000000
00010000
00000000
00000010
00000100
00000001
00000000
,
00001000
00000010
00000001
00000010
,
00001000
00000010
00000001
00000000
,
00000010
00000000
00010000
00000000
00001000
00100000
00001000
00000000
,
00100000
00000000
01000000
00000000
10000000
00100000
10000000
00000000
,
00010000
01000000
10000000
01000000
,
00010000
00100000
10000000
00100000
,
00010000
00000000
10000000
00000000
00001000
00100000
00001000
00000000
,
00010000
00000000
00000100
00000000
00000010
00000001
00000010
00000000
,
00000001
00000010
00001000
00000010
,
00000001
00000100
00001000
00000000
,
00000100
00000001
00001000
00000001
00000100
00000000
00000001
00000000
,
00010000
00001000
00010000
00000000
00010000
00001000
00010000
00000000
,
00001000
10000000
01000000
10000000
00001000
00000000
00100000
00000000
,
01000000
10000000
01000000
00000000
01000000
10000000
01000000
00000000
,
00100000
00001000
00010000
00000010
00000100
00000000
00000100
00000000
,
00000001
00001000
00000001
00000000
00000001
00001000
00000001
00000000
,
00020000
00000000
00001000
00000000
00001000
00000000
00031000
01000000
,
00100000
10000000
01000000
00100000
,
00001000
00010000
00001000
00010000
,
00000100
00000001
00000100
00010000
,
00001000
00100000
10000000
00100000
,
00001000
00000000
00020000
00000000
00000000
00000000
00000000
00030000
;

//---------------dance-double - ----------------
#NOTES:
     dance-double:
     :
     Hard:
     10:
     0.413,0.461,0.239,0.239,0.066:
00000000
00000000
00000000
00000000
,
00000000
00000000
00000000
00000000
,
00000000
10010000
01000000
10010000
,
01000000
10010000
01000000
10010000
,
01000000
10010000
01000000
10010000
,
01000000
00000000
00000000
00001000
00010000
00002000
00000000
00000000
00000000
00013000
00000000
00000000
,
00000010
00001001
00000010
00001001
,
00000010
00001001
00000010
00001001
,
00000010
00001001
00000010
00001001
,
00002000
00000000
00000000
00000000
00000000
00000000
00000000
00000000
00003001
00000100
00000000
00000010
00000000
00000100
00000000
00000000
,
00000002
00000000
00000000
00000000
,
00020003
00000000
00000000
00000000
,
00032000
00000000
00000000
00000000
00000000
00103000
01000000
10000000
,
00100000
00000000
00000000
00100000
00000000
00000000
01000000
00000000
,
00002000
00000000
00000000
00000000
,
00023000
00000000
00000000
00000000
,
00030020
00000000
00000000
00000000
00000000
00000130
00000001
00000010
,
00000100
00000000
00000000
00000100
00000000
00000000
00010000
00000000
,
00010100
00010000
00010100
00001000
,
01001000
00001000
01001000
00100000
,
10010000
00100000
10010000
01000000
,
11000000
01000000
11000000
00001000
,
00101000
00001000
00101000
00010000
,
00010010
00010000
00010010
00000100
,
00000002
00000203
00000302
00002003
,
00000000
00000000
00000000
00003000
,
00000001
00000100
00000001
00001000
00000100
00000100
00000100
00000000
,
00001000
00001000
00001000
00010000
00100000
01000000
00100000
00000000
,
00010000
00100000
00010000
10000000
00100000
00100000
00100000
00000000
,
10000000
10000000
10000000
01000000
00100000
01000000
10000000
00010000
,
10010000
00000000
10000000
00000000
00100000
02000000
00000000
03001000
,
00010000
00000100
00000010
00000002
00000000
00000003
00000000
00000000
,
00001001
00000000
00000001
00000000
00000001
00000200
00000000
00000310
,
00010000
00001000
00010000
00200000
00000000
00300000
00000000
00000000
,
01100000
00000000
01000000
00000000
01000000
20000000
00000000
30001000
,
00010000
00000100
00000010
00000002
00000000
00000003
00000000
00000000
,
00001001
00000000
00000001
00002000
00000000
00003001
00001000
00000200
,
00000000
00000000
00000000
00000000
00000000
00000000
00000000
00000000
00010300
00001000
00000000
00010000
00000000
00000000
00000000
00000000
,
00001000
01000000
00100000
10000000
00001000
00010000
00001000
00000000
,
00010000
00000100
00000010
00000001
00010000
00000010
00010000
00001000
,
01000000
00000000
00000000
00100000
00000000
00000000
20000000
00000000
00000000
00000000
00000000
00000000
00000000
00000000
00000000
00000000
,
00010000
00000000
00000000
30010000
00000000
00000000
00010000
00000000
,
00100000
01000000
00100000
00010000
10000000
00100000
10000000
00000000
,
01000000
10000000
00001000
01000000
00001000
00010000
00000100
00000010
,
00000002
00000000
00002003
00000000
,
00000001
00000000
00000000
00003001
00000000
00000000
00010000
00000000
,
00000010
00000100
00000001
00001000
00000001
00000010
00000001
00000000
,
00000010
00000100
00010000
00001000
00010000
00000100
00001000
00010000
,
01000000
00000000
00000000
00100000
00000000
00000000
20000000
00000000
00000000
00000000
00000000
00000000
00000000
00000000
00000000
00000000
,
00010000
00000000
00000000
30010000
00000000
00000000
10000000
00000000
,
01000000
00100000
01000000
10000000
00010000
01000000
00010000
00000000
,
10000000
01000000
00010000
01000000
10000000
00001000
01000000
00001000
,
00020000
00000000
00030020
00000000
,
00000100
00000000
00000000
00000130
00000000
00000000
00000001
00000000
,
00001000
00000010
00000001
00000010
00001000
00000010
00000001
00000010
,
00001000
00000000
00000000
00001000
00000100
00000000
00000000
00000100
00010000
00000000
00000000
00010000
00001000
00000000
00000000
00000000
,
10000000
00000000
00100000
00000000
00010000
00000000
00100000
00000000
10000000
00000000
00000000
10000000
00020000
00000000
00000000
00000000
,
10030000
00100000
00010000
00100000
01000000
00010000
10000000
00000000
,
00010000
01000000
10000000
01000000
00010000
01000000
10000000
01000000
,
00100000
10000000
00010000
00001000
00000010
00000001
00000010
00001000
,
00000200
00000000
00000000
00000000
00000000
00000000
00000000
00000000
00000000
00000000
00000000
00000000
00000000
00000000
00010300
00001000
,
00010000
00000000
00000000
00010000
00000000
00000000
00010000
00000000
00000000
00000100
00000000
00000000
00000010
00000000
00000000
00000000
,
00001001
00000001
00000100
00001000
,
00000100
00000001
00001000
00010000
,
00100000
10000000
00100000
00010000
,
10000000
00000000
00002000
00000000
00000000
00000000
00000000
00003000
;

//---------------dance-double - ----------------
#NOTES:
     dance-double:
     :
     Challenge:
     11:
     0.545,0.570,0.181,0.255,0.173:
00000000
00000000
00000000
00000000
,
00000000
00000000
00000000
00000000
,
00000000
00000000
10010000
00000000
10000000
01000000
01100000
00000000
,
00010000
01000000
01100000
00000000
01000000
00001000
00011000
00000000
,
00010000
00000100
00000110
00000000
00000001
00000100
00000110
00000000
,
00010000
00000000
00000000
00001000
00000000
00000000
00100000
00000000
00100000
00000000
00200000
00000000
00000000
00000000
00000000
00000000
00000000
00000000
00320000
00000000
00000000
00000000
00000000
00000000
,
10030000
01000000
11000000
00000000
00010000
01000000
01010000
00000000
,
00001000
00010000
00011000
00000000
00000100
00000010
00000110
00000000
,
00000001
00000100
00000101
00000000
00010000
00001000
01001000
00000000
,
00200000
00000000
00000000
00000000
00000000
00000000
00000000
00000000
10300000
00010000
00000000
00010000
00000000
10000000
01000000
00000000
,
22000000
00000000
00000000
03000000
,
00020000
00000000
00000000
30000000
,
00230000
00000000
00000000
00000000
00000000
00301000
00010000
00000010
,
00000200
00000000
00000000
00000010
00000000
00000000
00000310
00000000
,
00000202
00000000
00000000
00000300
,
00020000
00000000
00000000
00000003
,
00032000
00000000
00000000
00000000
00000000
00103000
01000010
10000000
,
00200000
00000000
00000000
01000000
00000000
00000000
01300000
00000000
,
00001000
00100000
00001000
00100000
00001000
00100000
00001000
00100000
,
00001000
00100000
00001000
00100000
00001000
00100000
00001000
00100000
,
00010000
00001000
00010000
00001000
00010000
00001000
00010000
00001000
,
00010000
00001000
00010000
00001000
00010000
00001000
00010000
00001000
,
00000100
00000010
00000100
00000010
00000100
00000010
00000100
00000010
,
00000100
00000010
00000100
00000010
00000100
00000010
00000001
00001000
,
00000020
00002030
00003002
00020003
,
00000000
00000000
00000000
00002000
00000000
00000000
00033000
00000000
,
01000000
00000000
00100000
00000000
10000000
00000000
00001000
00100000
00001000
00100000
00001000
00000000
10000000
00000000
01000000
00000000
,
00100000
00000000
00001000
00010000
00000000
00010000
00000000
00001000
00010000
00000000
00000100
00000000
00000010
00000000
00000000
00000000
,
00000001
00000000
00000100
00000000
00000001
00000000
00010000
00000010
00010000
00000010
00010000
00000000
00000100
00000000
00000010
00000000
,
00000001
00000100
00000000
00000000
00000100
00000000
00000000
00000001
00010000
00000000
00001000
00010000
00001000
00000000
00100000
00000000
,
01100000
00000000
10000000
00000000
10000000
00020000
00000000
10030000
,
00010000
00100000
01000000
00200000
00000000
00301000
00010000
00001000
,
00000000
00001000
00010000
00000010
00000000
00000010
00000100
00000001
,
00000000
00000001
00000010
00000200
00000000
00001300
00000100
00000010
,
00000001
00000010
00000100
00000000
00000100
00020000
00000000
00031000
,
01000000
00100000
01000000
00020000
00000000
10030000
00010000
00100000
,
00000000
00100000
01000000
10000000
00000000
10000000
00001000
00020000
,
00000000
00000000
00000000
00000000
00000000
00000000
00000000
00000000
00030010
00000100
00000000
00000100
00000000
00000000
00000001
00000000
,
00001000
00000100
00000001
00000100
00001000
00000001
00010000
00000000
,
00000100
00000010
00000100
00010000
00001000
01000000
10000000
01000000
,
00001000
00000000
00000000
10001000
00000000
00000000
20100000
00000000
00000000
00000000
30100000
00000000
10000000
00000000
01000000
00000000
,
00100000
00001000
00010000
00001000
00100000
00010000
00001000
00000000
,
00000010
00000100
00000001
00000010
00001000
00000010
00000001
00000000
,
00010000
00000010
00010000
00001000
00100000
10000000
00100000
00001000
,
00020000
00000000
00001000
00000000
00031000
00100000
01000000
10000000
,
00001000
01000000
00100000
01000000
00001000
00010000
00000010
00000000
,
00001000
00000010
00000001
00000010
00001000
00000100
00010000
00000000
,
00001000
00100000
01000000
00100000
00001000
01000000
00100000
10000000
,
01000000
00000000
00000000
11000000
00000000
00000000
10002000
00000000
00000000
00000000
00013000
00000000
00000100
00000000
00000010
00000000
,
00000100
00010000
00001000
00010000
00000001
00000100
00000010
00000000
,
00000100
00000001
00000010
00000100
00000010
00000001
00000100
00000000
,
00000010
00001000
00010000
00100000
10000000
00100000
00001000
00010000
,
00000020
00000000
00000100
00000000
00000130
00000001
00000010
00000100
,
00001000
00000000
00000001
00000000
00010000
00000000
00000010
00001000
00000010
00001000
00000010
00000000
00010000
00000000
00000000
00000000
,
00001000
00000000
01000000
00010000
01000000
00010000
01000000
00000000
00100000
00000000
10000000
01000000
00000000
10000000
01000000
00000000
,
00100000
00100000
00001000
00001000
00010000
00010010
00000010
00000100
,
00000100
00000000
00000001
00001000
00000001
00001000
00000001
00000000
00000010
00000000
00000100
00001000
00020000
00000000
00000000
00000000
,
01030000
01000000
00010000
00010000
10000000
10000000
01000000
01000000
,
00100000
00000000
00001000
00010000
00001000
00010000
00001000
00000000
00010000
00000000
00000010
00000100
00000010
00000100
00000010
00000000
,
00010000
00000100
00000010
00000001
00000100
00001000
00000100
00000010
,
00020000
00000000
00000000
00000000
00001000
00000000
00000000
00000000
00001000
00000000
00000000
00000000
00031000
00000000
01000000
00100000
,
10000000
00000000
00000000
01000000
00000000
00000000
00100000
00000000
00000000
00001000
00000000
00000000
00010000
00000000
00010000
00000000
,
00011000
00000000
00000000
00000000
00001000
00000000
00000000
00001000
00010000
00000000
00000000
00000010
00000100
00000000
00000100
00000000
,
00000001
00000000
00000000
00000000
00000010
00000000
00000000
00000010
00000100
00000000
00000000
00010000
00001000
00000000
00001000
00000000
,
00100000
00000000
00000000
00000000
01000000
00000000
00000000
01000000
10000000
00000000
00000000
00100000
01000000
00000000
01000000
00000000
,
00002000
00000000
00010000
00000000
00000000
00000000
00010000
00000000
00000000
00000000
00000000
00010000
00000000
00000000
00013000
00000000
;
