#TITLE:Ferris wheel;
#SUBTITLE:;
#ARTIST:Dormir;
#TITLETRANSLIT:;
#SUBTITLETRANSLIT:;
#ARTISTTRANSLIT:;
#CREDIT:DigiMindAxel;
#BANNER:Ferris wheel.png;
#BACKGROUND:Ferris wheel-bg.png;
#LYRICSPATH:Ferris wheel.lrc;
#CDTITLE:pop'n music.png;
#MUSIC:Ferris wheel.ogg;
#METERTYPE:DDR X;
#OFFSET:-11.975;
#SAMPLESTART:66.566;
#SAMPLELENGTH:12.000;
#SELECTABLE:YES;
#BPMS:0.000=99.000,158.500=92.500,159.167=89.500,160.000=82.500,160.833=85.000,163.167=72.000,163.500=55.500,163.833=47.000;
#STOPS:;
#BGCHANGES:;

//---------------dance-single - ----------------
#NOTES:
     dance-single:
     :
     Easy:
     4:
     0.119,0.101,0.000,0.180,0.004:
0001
0000
0000
0001
,
0000
0000
1000
0000
,
0000
1000
0000
0000
,
0001
0000
0000
0001
0000
0000
0001
0000
,
0000
0000
0200
0000
,
0000
0000
0000
0000
0000
0320
0000
0000
,
1030
0000
0000
1000
0000
0000
1000
0000
,
0000
0000
0020
0000
,
0000
0000
0000
0000
0000
0230
0000
0000
,
0301
0000
0000
0001
0000
0000
0001
0000
,
0000
0000
0200
0000
,
0000
0000
0000
0000
0000
0320
0000
0000
,
1030
0000
0000
1000
0000
0000
1000
0000
,
0000
0000
0020
0000
,
0000
0000
0000
0000
0000
0230
0000
0000
,
0301
0000
0000
0010
0000
0000
0100
0000
,
0000
1000
0000
0000
0100
0000
0000
0010
,
0000
0000
0001
0000
0000
1000
0000
0000
,
0001
0000
0000
1000
0000
0000
0010
0000
,
0000
1000
0000
0000
0001
0000
0000
0100
,
0000
0000
0001
0000
0000
0100
0000
0000
,
0010
0000
0000
0100
0000
0000
0010
0000
,
0000
1000
0000
0000
0002
0000
0000
0000
,
0000
0023
0000
0000
,
0230
0000
0000
2300
,
0000
0000
3020
0000
,
0000
2030
0000
0000
,
3002
0000
0000
0203
,
0000
0000
0320
0000
,
0000
2030
0000
0000
,
3200
0000
0000
0320
,
0000
0000
0000
0000
0031
0000
0000
0001
,
0000
0000
0010
0000
0000
0100
0000
0000
,
1000
0000
0000
0010
0000
0000
0010
0000
,
0000
1000
0000
0000
0001
0000
0000
0001
,
0000
0000
0001
0000
0000
0001
0000
0000
,
0010
0000
0000
0010
0000
0000
0100
0000
,
0000
0100
0000
0000
1000
0000
0000
1000
,
0000
0000
0001
0000
0000
0001
0000
0000
,
1000
0000
0000
1000
0000
0000
0002
0000
,
0000
0000
0000
0000
0000
0000
0000
2003
0000
0000
0000
0000
0000
0000
0000
0000
,
3000
0000
0000
0000
;

//---------------dance-single - ----------------
#NOTES:
     dance-single:
     :
     Hard:
     10:
     0.401,0.359,0.065,0.065,0.127:
0001
0020
0000
0031
0001
0010
0100
2000
,
0000
3100
0100
0010
0001
0200
0000
0301
,
0001
0000
0010
0000
0100
0000
2000
0000
0000
0000
3010
0000
0100
0010
0100
0010
,
0100
1100
0000
1000
0100
1000
0001
0000
,
0010
0000
0100
0000
0100
0000
0100
0000
1000
0010
0200
0000
0000
0000
0301
0000
,
0010
0100
1000
0010
0000
0100
0100
0100
,
0001
0110
0000
0010
0100
0001
0010
0000
,
0100
1000
1000
1000
0100
0010
0000
0001
,
0100
0010
0100
0001
0000
0010
0010
0010
,
0100
1010
0000
0100
0001
0010
0100
0000
,
1000
0001
0001
0001
0100
0001
0000
0010
,
0100
1000
0010
0010
0000
0100
0100
0100
,
0001
0011
0000
0010
0001
0010
0100
0000
,
1000
0010
0010
0010
0110
0100
0000
0010
,
0100
0001
0010
0100
1000
0001
0001
0001
,
1000
0100
0001
0010
1000
0001
0100
0001
,
0001
1000
0100
0100
1000
0001
0100
1000
,
0010
0001
1000
0001
0001
1000
0010
0010
,
1000
0100
0001
0010
1000
0001
1000
0100
,
0001
0010
1000
0001
1000
0010
0001
0100
,
1000
0000
0001
0000
1000
0000
0100
1000
0100
1000
0100
0000
1000
0000
0001
0000
,
0000
0000
0100
0001
0100
0001
0100
0000
0001
0000
1000
0000
0200
0000
0000
0000
,
0000
0310
0000
0000
0001
0100
1000
0010
,
0001
0000
0010
0000
0100
0000
1000
0000
1000
0000
0001
0000
0100
0010
0100
0000
,
0000
0001
0010
1000
0100
0001
0100
0010
,
1000
0000
1000
0000
0001
1000
0001
0000
1000
0000
0100
0000
0001
0000
0010
0000
,
1000
0000
0010
0000
0100
0000
0001
0000
0001
0000
1000
0000
0001
1000
0001
0000
,
1000
0010
0001
0100
1000
0100
0010
0001
,
1000
0000
0010
0000
0100
0010
0100
0000
1001
0000
0100
0000
0010
0000
0001
0000
,
0100
0000
1000
0000
0100
0000
0001
0000
0010
0000
0001
0000
1000
0001
1000
0000
,
0001
0010
0100
1000
0010
0001
0010
1000
,
0001
0000
0010
0000
0100
0010
0100
0000
1000
0000
1000
0000
0010
0100
0010
0000
,
0100
0000
0001
0000
1000
0000
1000
0000
0010
0000
0100
0000
0001
1000
0001
0000
,
1000
0010
0001
0010
1000
0001
0100
1000
,
0100
0000
0001
0000
1000
0001
1000
0000
0001
0000
0010
0000
1000
0000
0100
0000
,
0001
0010
1000
0100
0001
0010
1000
0010
,
0001
0100
1000
0010
0001
0100
1000
0010
,
0001
0100
1000
0001
1001
0001
1000
0010
,
0010
0000
0100
0000
0001
0000
0001
0000
0000
0010
0100
0000
1000
0001
1000
0000
,
0001
0010
0001
0010
0001
0000
1000
0100
1000
0100
1000
0000
1001
0000
0000
0000
,
0000
0000
1000
0000
0000
0000
0100
0000
0000
0000
0010
0000
0000
0000
0001
0000
1000
0000
0001
0000
0000
0000
0000
0000
1000
0000
0100
0000
0000
1000
0000
0000
,
0001
0000
0000
0000
0200
0000
0000
0020
0000
0000
0000
0000
0000
0000
0000
0000
0000
0000
0000
0000
0000
0000
0000
0000
0000
0000
0000
0000
0000
0000
0000
0000
0000
0000
0000
0000
0000
0000
0000
0000
0000
0000
0330
0000
0000
0000
0000
0000
;

//---------------dance-single - ----------------
#NOTES:
     dance-single:
     :
     Challenge:
     12:
     0.527,0.479,0.049,0.172,0.478: // measure 1
0001
0000
0020
0000
0000
0031
1000
0000
1000
0000
0010
0000
1000
0000
0200
0000
,  // measure 2
0000
0000
1300
0000
0010
0000
0100
0000
0001
0000
0020
0000
0000
0031
1000
0000
,  // measure 3
1000
0000
0010
0000
1000
0000
0200
0000
0000
0000
1300
0000
0010
0100
0010
0000
,  // measure 4
1001
0000
0001
0000
0000
1000
0001
0000
1000
0000
0100
0000
0020
0000
0000
0000
,  // measure 5
0001
0000
0031
0000
1000
0000
1000
0000
0100
1000
0200
0000
0000
1300
0001
0000
,  // measure 6
0010
0001
0010
0001
1000
0100
2000
0000
0000
3001
0100
0000
0100
0000
0001
0000
,  // measure 7
0001
0000
0200
0000
0000
0310
1000
0000
0001
0000
0001
0000
1000
0000
1000
0000
,  // measure 8
0100
0000
0010
0000
0001
0000
1000
0000
0100
1000
0200
0000
0000
1300
0001
0000
,  // measure 9
0010
0001
0010
0001
1000
0100
2000
0000
0000
3010
0100
0000
0100
0000
0001
0000
,  // measure 10
0001
0000
0200
0000
0000
0310
1000
0000
0001
0000
0010
0000
0002
0000
0000
0000
,  // measure 11
1003
0000
0100
0000
0010
0000
0001
0000
0010
0001
0020
0000
0000
0031
1000
0000
,  // measure 12
0100
1000
0100
1000
0001
0010
0002
0000
0000
1003
0010
0000
0010
0000
1000
0000
,  // measure 13
1000
0000
0002
0000
0000
1003
0001
0000
0010
0000
0100
0000
1000
0000
1000
0000
,  // measure 14
0001
0000
0001
0000
1000
0000
0010
0000
0100
0001
0200
0000
0000
0301
1000
0000
,  // measure 15
0100
1000
0100
1000
0001
0010
0001
0000
0000
0000
1001
0000
0010
0000
0100
0000
,  // measure 16
1010
0000
0010
0000
0010
0000
0100
0000
0100
0000
0100
0000
0001
0000
0010
0100
,  // measure 17
1000
0010
1000
0000
1000
0000
0001
0000
0100
0000
0100
0000
0100
0000
0010
0000
,  // measure 18
0010
0000
0010
0000
1000
0000
0100
0010
0001
0100
0001
0000
0001
0000
1000
0000
,  // measure 19
0001
0000
0001
0010
0100
0000
1000
0000
1000
0100
0010
0000
0001
0000
0001
0100
,  // measure 20
0010
0000
1000
0000
1000
0010
0100
0000
0001
0000
0001
0010
0100
0000
1000
0000
,  // measure 21
1000
0100
0010
0000
0001
0000
0001
0100
0001
0100
0010
0000
1000
0000
0001
0000
,  // measure 22
1000
0000
1000
0010
1000
0010
0100
0000
0001
0000
0010
0000
0100
1000
0100
1000
,  // measure 23
0010
0100
0001
0000
1000
0000
1000
0000
1001
0000
0001
0100
1000
0100
0002
0000
,  // measure 24
1000
0000
1003
0000
0001
0000
0100
0010
0100
0000
0100
0000
0001
0010
0100
0000
,  // measure 25
1000
0000
0001
0000
1000
0100
0001
0100
2000
0000
0001
0000
3001
0000
0010
0000
,  // measure 26
0001
0000
1000
0000
0100
0010
0001
0000
1000
0100
1000
0100
0010
0001
0010
0000
,  // measure 27
0001
0010
0001
0010
0100
0000
1000
0000
0010
0000
1000
0000
0001
0010
0100
0000
,  // measure 28
1000
0100
1000
0100
0010
0001
0010
0000
0001
0000
0100
0000
0010
1000
0100
1000
,  // measure 29
0100
0010
0001
0100
0001
0100
0010
0000
1001
0000
0001
0100
1000
0100
0002
0000
,  // measure 30
1000
0000
1003
0000
0001
0000
0100
0000
0100
0000
0001
0000
0010
0100
1000
0000
,  // measure 31
0001
0000
1000
0000
0001
0010
1000
0010
0001
0000
1000
0000
0001
0000
0001
0000
,  // measure 32
0100
0000
0100
0000
0010
1000
0100
0000
1000
0000
0010
0100
0001
0010
0001
0000
,  // measure 33
0010
0001
0100
0010
0100
0000
0001
0000
0001
0000
1000
0000
0100
0010
0001
0000
,  // measure 34
1000
0010
1000
0010
0100
0001
0100
0000
0001
0000
1000
0000
0001
0000
0010
0000
,  // measure 35
0100
0000
1000
0000
0001
0010
0100
1000
0001
0010
0001
0010
0100
0000
1000
0100
,  // measure 36
1000
0100
0010
0000
0001
0010
0001
0010
0100
0000
1000
0100
1000
0100
0010
0001
,  // measure 37
0100
0001
0100
0001
1000
0000
0010
1000
0010
1000
0001
0000
0100
0001
0100
0001
,  // measure 38
1000
0000
0010
1000
0010
1000
0100
0000
1001
0000
0001
0000
0010
0000
0100
0000
,  // measure 39
0100
0000
1000
0000
0010
0000
0010
0000
0000
1000
0001
0000
0010
0000
0100
0000
,  // measure 40
1000
0100
1000
0100
0010
0000
0001
0010
0001
0010
0100
1000
0001
0010
0001
0000
,  // measure 41
1000
0000
0100
0000
0000
0000
1000
0000
0100
0000
0010
0000
0001
0000
1000
0000
0100
0000
1000
0000
0000
0000
0000
0000
0001
0000
0010
0000
0000
0100
0000
0000
,  // measure 42
1000
0000
0000
0000
0002
0000
0000
0020
0000
0000
0000
0000
0000
0000
0000
0000
0000
0000
0000
0000
0000
0000
0000
0000
0000
0000
0000
0000
0000
0000
0000
0000
0000
0000
0000
0000
0000
0000
0000
0000
0000
0000
0033
0000
0000
0000
0000
0000
;

//---------------dance-single - ----------------
#NOTES:
     dance-single:
     :
     Beginner:
     2:
     0.047,0.067,0.000,0.000,0.000:
1000
0000
0000
0000
,
0000
0000
0001
0000
,
0000
0000
0000
0000
,
1000
0000
0000
0000
,
0000
0000
0010
0000
,
0000
0000
0000
0000
,
1000
0000
0000
0000
,
0000
0000
0001
0000
,
0000
0000
0000
0000
,
0100
0000
0000
0000
,
0000
0000
0001
0000
,
0000
0000
0000
0000
,
1000
0000
0000
0000
,
0000
0000
0001
0000
,
0000
0000
0000
0000
,
1000
0000
0000
0000
,
0000
0000
0100
0000
,
0000
0000
0000
0000
,
0010
0000
0000
0000
,
0000
0000
0001
0000
,
0000
0000
0000
0000
,
1000
0000
0000
0000
,
0000
0001
0000
0000
1000
0000
0000
0000
,
0000
0100
0000
0000
,
0010
0000
0000
0001
,
0000
0000
0010
0000
,
0000
0100
0000
0000
,
1000
0000
0000
0001
,
0000
0000
0010
0000
,
0000
0100
0000
0000
,
1000
0000
0000
0010
,
0000
0000
1000
0000
,
0000
0001
0000
0000
,
0100
0000
0000
0010
,
0000
0000
0100
0000
,
0000
0100
0000
0000
,
0010
0000
0000
0010
,
0000
0000
0010
0000
,
0000
0000
0000
0000
,
1000
0000
0000
0001
,
0000
0000
0000
0000
,
0000
0001
0000
0000
0000
0000
0000
0000
;

//---------------dance-single - ----------------
#NOTES:
     dance-single:
     :
     Medium:
     7:
     0.218,0.291,0.033,0.074,0.020:
1000
0000
0000
2000
0000
0000
3001
0000
,
0000
0000
0000
0000
0001
0000
0000
0002
,
0000
1003
0000
0000
,
1001
0000
0000
1000
0010
0100
0010
0000
,
0000
0100
0010
0100
0002
0000
0000
2003
,
0000
0000
3001
0000
0000
1000
0100
0010
,
1001
0000
0000
0001
0010
0100
0010
0000
,
0000
0100
0010
0100
2000
0000
0000
3002
,
0000
0000
1003
0000
0010
1000
0100
0010
,
0001
0000
0000
0100
0010
0100
0001
0000
,
0000
1000
0100
1000
0010
0000
0000
0000
,
1000
0000
0001
0000
0100
0001
0010
0100
,
1000
0000
0000
0100
0010
0100
0010
0000
,
0000
0001
0010
0001
0010
0000
0000
0000
,
0100
1000
0001
0000
0100
0010
0100
0010
,
0100
0000
0000
0001
0000
0000
0010
0000
,
0000
0100
0000
0000
1000
0000
0000
0001
,
0000
0000
1000
0000
0000
0100
0000
0000
,
0010
0000
0000
0001
0000
0000
1000
0000
,
0000
0001
0000
0000
0100
0000
0000
0010
,
0000
0000
0100
0000
0000
0001
0000
0000
,
0100
0000
0000
0010
0000
0000
1000
0000
,
0000
1001
0000
0000
0000
1000
1000
1000
,
0000
0000
0100
0000
0000
0010
0000
0000
,
0000
0000
0001
0001
0001
0000
0100
0000
,
0000
0010
0000
0000
1000
0000
0000
0001
,
0000
0000
1000
0000
0000
0010
0000
0000
,
0100
0000
0000
0010
0000
0000
0100
0010
,
0100
0001
1000
0001
0000
1000
1000
1000
,
0000
0000
0001
0000
0000
1000
0000
0000
,
0000
0000
0100
0100
0100
0000
1000
0000
,
0000
0100
0000
0000
0010
0000
0000
0001
,
0000
0000
1000
0000
0000
0001
0000
0000
,
0100
0000
0000
0010
0000
0000
0100
0000
,
0000
0001
0010
0100
1000
0100
0100
1000
,
0100
0100
1000
0100
0100
1000
0001
0001
,
0010
0100
0100
0010
0100
0100
0010
0100
,
0100
0010
0100
0100
1000
0010
0100
0001
,
1000
0010
0100
0001
0000
1001
0000
0000
,
1000
0010
1000
0001
0100
0100
0002
0000
,
0000
0000
0000
0000
0000
0000
0000
0000
0000
0000
0000
0000
0000
0000
1000
0000
0000
0000
2003
0000
0000
0000
0000
0000
0000
0000
3010
0000
0000
0100
0000
0000
,
0010
0000
0020
0000
0000
0000
0000
0000
0000
0000
0000
0000
0000
0000
0000
0000
0000
0000
0000
0000
0000
0030
0000
0000
;

//---------------dance-double - ----------------
#NOTES:
     dance-double:
     :
     Easy:
     4:
     0.116,0.097,0.025,0.082,0.000:
20000000
00000000
00000000
00000000
,
30000000
00000000
00020000
00000000
,
00000000
00000000
00030000
00000000
,
10000000
00000000
00000000
01000000
00000000
00000000
00100000
00000000
,
00000000
00001000
00000000
00000000
00020000
00000000
00000000
00000000
,
00000000
00000000
00000000
00000000
00000000
00030002
00000000
00000000
,
00000013
00000100
00000000
00010000
,
00000000
00001000
00000000
00000000
00200000
00000000
00000000
00000000
,
00000000
00000000
00000000
00000000
00000000
02300000
00000000
00000000
,
13000000
00000000
00000000
00010000
00000000
00000000
00100000
00000000
,
00000000
00001000
00000000
00000000
00020000
00000000
00000000
00000000
,
00000000
00000000
00000000
00000000
00000000
00030200
00000000
00000000
,
00000310
00000000
00000000
00000001
00000000
00000000
00000100
00000000
,
00000000
00000001
00000000
00000000
00020000
00000000
00000000
00000000
,
00000000
00000000
00000000
00000000
00000000
00032000
00000000
00000000
,
00103000
00000000
00000000
01000000
00000000
00000000
10000000
00000000
,
00000000
01000000
00000000
00000000
00100000
00000000
00000000
00010000
,
00000000
00000000
00001000
00000000
00000000
00000100
00000000
00000000
,
00000010
00000000
00000000
00000001
00000000
00000000
00000100
00000000
,
00000000
00000010
00000000
00000000
00010000
00000000
00000000
00001000
,
00000000
00000000
00011000
00000000
00000000
01000000
00000000
00000000
,
00100000
00000000
00000000
01000000
00000000
00000000
00010000
00000000
,
00000000
00001000
00000000
00000000
00000100
00000000
00000000
00000100
,
00000000
00000100
00000000
00000000
,
00001000
00000000
00000000
00001000
00000000
00000000
00001000
00000000
,
00000000
00000000
00000000
00000000
00010000
00000000
00000000
00010000
,
00000000
00010000
00000000
00000000
,
10000000
00000000
00000000
10000000
00000000
00000000
10000000
00000000
,
00000000
00011000
00000000
00000000
00001000
00000000
00000000
00001000
,
00000000
00001000
00000000
00000000
,
00010000
00000000
00000000
00010000
00000000
00000000
00010000
00000000
,
00000000
00000000
00000000
00000000
00000010
00000000
00000000
00000010
,
00000000
00000010
00000000
00000000
,
00000100
00000000
00000000
00000100
00000000
00000000
00000100
00000000
,
00000000
00000000
00000000
00000000
00000001
00000000
00000000
00000010
,
00000000
00000000
00000100
00000000
00000000
00001000
00000000
00000000
,
00010000
00000000
00000000
00100000
00000000
00000000
01000000
00000000
,
00000000
10000000
00000000
00000000
00010000
00000000
00000000
00010000
,
00000000
00000000
01000000
00000000
00000000
01000000
00000000
00000000
,
00010000
00000000
00000000
00001000
00000000
00000000
00011000
00000000
;

//---------------dance-double - ----------------
#NOTES:
     dance-double:
     :
     Medium:
     7:
     0.190,0.219,0.016,0.016,0.020:
00010000
00000000
00000000
00010000
00000000
00000000
10000000
00000000
,
00000000
00000000
00000000
00000000
10000000
00000000
00000000
10000000
,
00000000
00010000
00000000
00000000
,
00001000
00000000
00000000
00001000
00000010
00001000
00000010
00000000
,
00000000
00000100
00000001
00000100
00000001
00000000
00000000
00000010
,
00000000
00000000
00000100
00000000
00000000
00001000
00010000
00001000
,
00010000
00000000
00000000
01000000
00100000
01000000
00100000
00000000
,
00000000
10000000
00010000
10000000
00010000
00000000
00000000
01000000
,
00000000
00000000
00001000
00000000
00000000
00010000
00001000
00010000
,
00001000
00000000
00000000
00010000
00000100
00010000
00000100
00000000
,
00000000
00000010
00000001
00000010
00000001
00000000
00000000
00000010
,
00000000
00000000
00000100
00000000
00000000
00001000
00010000
00001000
,
00010000
00000000
00000000
01000000
00100000
01000000
00100000
00000000
,
00000000
01000000
10000000
01000000
10000000
00000000
00000000
01000000
,
00000000
00000000
00100000
00000000
00000000
00010000
00001000
00010000
,
00000010
00000010
00000000
00000100
00000000
00000000
00000001
00000000
,
00000000
00000010
00000000
00000000
00000100
00000000
00000000
00001000
,
00000000
00000000
00010000
00000000
00000000
00100000
00000000
00000000
,
01000000
00000000
00000000
10000000
00000000
00000000
00100000
00000000
,
00000000
01000000
00000000
00000000
00001000
00000000
00000000
00010000
,
00000000
00000000
00000010
00000000
00000000
00000100
00000000
00000000
,
00000001
00000000
00000000
00000010
00000000
00000000
00000100
00000000
,
00000000
00011000
00000000
00000000
00000000
00010000
00010000
00010000
,
00000000
00000000
00100000
00000000
00000000
01000000
00000000
00000000
,
00000000
10000000
10000000
10000000
00000000
00000000
00100000
00000000
,
00000000
01000000
00000000
00000000
00010000
00000000
00000000
00001000
,
00000000
00000000
00000100
00000000
00000000
00000010
00000000
00000000
,
00000001
00000000
00000000
00000010
00000000
00000000
00000100
00000000
,
00000000
00001000
00000000
00000000
00000000
00001000
00001000
00001000
,
00000000
00000000
00000001
00000000
00000000
00001000
00000000
00000000
,
00000000
00000100
00000100
00000100
00000000
00000000
00010000
00000000
,
00000000
00000100
00000000
00000000
00000010
00000000
00000000
00000001
,
00000000
00000000
00001000
00000000
00000000
00010000
00000000
00000000
,
00100000
00000000
00000000
01000000
00000000
00000000
10000000
00000000
,
00000000
10000000
01000000
00100000
00010000
00100000
00100000
00000000
,
00001000
00001000
00000000
00010000
00010000
00000000
00000010
00000010
,
00000000
00000100
00000100
00000000
00000001
00000001
00000000
00010000
,
00010000
00000000
00000001
00000001
00001000
00000100
00010000
00001000
,
00100000
01000000
00100000
00001000
00000000
00011000
00000000
00000000
,
10000000
01000000
00100000
00010000
00001000
00000100
00000020
00000000
,
00000000
00000130
00000000
00000001
00000000
00001000
00000000
00000100
00000000
00000000
00000000
00000000
00000000
00020000
00000000
00000000
,
00000000
00030000
00000000
00000000
00000000
00000000
00000000
00000000
;

//---------------dance-double - ----------------
#NOTES:
     dance-double:
     :
     Hard:
     10:
     0.430,0.394,0.131,0.074,0.184:
00010000
00002000
00000000
00010000
00013000
00000010
00000100
00000002
,
00000000
00001000
00001003
00000001
00010010
00000200
00000000
00010000
,
00010300
00000000
00001000
00000000
00100000
00000000
02000000
00000000
00000000
00000000
10000000
00000000
13000000
00010000
10000000
00010000
,
10000000
10010000
00000000
01000000
00100000
01000000
10000000
00000000
,
00100000
00000000
01000000
00000000
01000000
00000000
01000000
00000000
00001000
00010000
00002000
00000000
00000000
00000000
00013000
00000000
,
00000010
00000100
00000001
00000010
00000000
00000100
00000100
00000100
,
00001000
00000110
00000000
00000100
00000010
00001000
00000100
00000000
,
00000010
00000001
00000001
00000001
00000010
00000100
00000000
00001000
,
00010000
00001000
00010000
00000000
00100000
00000000
01000000
00000000
00000000
00000000
10000000
00000000
10000000
00000000
10000000
00000000
,
00100000
01010000
00000000
01000000
00010000
00100000
01000000
00000000
,
10000000
00001000
00001000
00001000
01000000
00010000
00000000
00100000
,
00001000
00010000
00001000
00000000
00010000
00000000
00000100
00000000
00000000
00000000
00000010
00000000
00000010
00000000
00000010
00000000
,
00000001
00000110
00000000
00010000
00000010
00010000
00000100
00000000
,
00000010
00000001
00000001
00000001
00001001
00001000
00000000
00000010
,
00000100
00000000
00000010
00000000
00010000
00001000
00020000
00000000
00000000
00000000
00031000
00000000
00100000
00000000
01000000
00000000
,
10000000
00010000
01010000
01000000
00001000
00011000
00010000
00000010
,
00000110
00000100
00000001
00001001
00001000
00000010
00010010
00010000
,
00100000
01100000
01000000
10000000
10010000
00010000
00100000
00101000
,
00001000
00000000
00000100
00000010
00000100
00000000
00001000
00000000
00000001
00000100
00000001
00000000
00010000
00000000
00001000
00010000
,
00001000
00000000
00100000
00000000
01000000
10000000
01000000
00000000
10000000
00000000
00100000
01000000
00100000
00000000
10000000
00000000
,
00001000
01000000
00001000
00000000
00010000
00000000
00000100
00000010
00000100
00000010
00000100
00000000
00001000
00000000
00000001
00000000
,
00000000
00000000
00010000
00001000
00010000
00001000
00010000
00000000
00001000
00000000
00100000
00000000
02000000
00000000
00000000
00000000
,
00000000
03100000
00000000
00000000
00010000
01000000
10000000
00100000
,
00010000
00000000
10000000
00000000
00001000
00000000
00010000
00000000
00010000
00000000
00000100
00000000
00000010
00000001
00000010
00000000
,
00000000
00000001
00000100
00001000
00000010
00000001
00001000
00000100
,
00010000
00000000
00010000
00000000
00001000
01000000
00100000
00000000
10000000
00000000
01000000
00000000
00010000
00000000
00100000
00000000
,
10000000
00000000
00010000
00000000
00010000
00000000
00001000
00000000
00001000
00000000
00000010
00000000
00000100
00000010
00000100
00000000
,
00000001
00000000
00000100
00000000
00001000
00000000
00000010
00000000
00000001
00000000
00010000
00000000
00001000
00010000
00001000
00010000
,
00001000
00000000
01000000
00100000
01000000
00100000
01000000
00000000
10010000
00000000
01000000
00000000
00100000
00000000
00010000
00000000
,
01000000
00000000
10000000
00000000
00100000
00000000
00001000
00000000
00010000
00000000
00000100
00000000
00000010
00000001
00000010
00000000
,
00000001
00000100
00000010
00001000
00000100
00000001
00000010
00010000
,
00001000
00000000
00100000
00000000
01000000
10000000
01000000
00000000
10000000
00000000
10000000
00000000
00100000
01000000
00100000
00000000
,
01000000
00001000
01000000
00001000
00010000
00000000
00010000
00000000
00000100
00000000
00000010
00000000
00000001
00001000
00000001
00000000
,
00001000
00000100
00000001
00000010
00010000
00001000
00100000
01000000
,
01000000
00000000
00100000
00000000
00001000
00010000
00001000
00000000
10000000
00000000
01000000
00000000
00001000
00000000
00000100
00000000
,
00000001
00000100
00010000
01000000
10000000
00100000
00001000
00000010
,
00000001
00000010
00010000
00100000
10000000
01000000
00010000
00000100
,
00000001
00000100
00001000
01000000
10000000
10000000
00010000
00100000
,
00100000
00000000
00001000
00000000
00010000
00000000
00010000
00000000
00000000
00000010
00000100
00000000
00000001
00000100
00000001
00000000
,
00010000
00001000
00010000
00001000
00010000
00000000
00001000
01000000
00001000
01000000
00001000
00000000
00011000
00000000
00000000
00000000
,
10000000
00000000
00100000
00000000
00000000
00000000
01000000
00000000
00100000
00000000
01000000
00000000
00100000
00000000
01000000
00000000
00001000
00000000
00010000
00000000
00000000
00000000
00000000
00000000
00000100
00000000
00000010
00000000
00000000
00000001
00000000
00000000
,
00000001
00000000
00000000
00000000
00000020
00000000
00000000
00000200
00000000
00000000
00000000
00000000
00000000
00000000
00000000
00000000
00000000
00000000
00000000
00000000
00000000
00000000
00000000
00000000
00000000
00000000
00000000
00000000
00000000
00000000
00000000
00000000
00000000
00000000
00000000
00000000
00000000
00000000
00000000
00000000
00000000
00000000
00000330
00000000
00000000
00000000
00000000
00000000
;

//---------------dance-double - ----------------
#NOTES:
     dance-double:
     :
     Challenge:
     12:
     0.534,0.479,0.049,0.172,0.503:
10000000
00000000
20000000
00000000
00000000
30100000
01000000
00000000
01000000
00000000
00010000
00000000
00001000
00000000
00000020
00000000
,
00000000
00000000
00000130
00000000
00000001
00000000
00000001
00000000
00000010
00000000
00000020
00000000
00000000
00000031
00001000
00000000
,
00001000
00000000
00000100
00000000
00010000
00000000
00002000
00000000
00000000
00000000
00103000
00000000
01000000
10000000
01000000
00000000
,
10010000
00000000
00010000
00000000
00000000
01000000
00100000
00000000
10000000
00000000
01000000
00000000
00200000
00000000
00000000
00000000
,
00001000
00000000
00301000
00000000
00010000
00000000
00010000
00000000
00000100
00000010
00000200
00000000
00000000
00010300
00000010
00000000
,
00000100
00000001
00000100
00000001
00010000
00000100
00020000
00000000
00000000
00031000
00010000
00000000
00010000
00000000
00100000
00000000
,
00100000
00000000
02000000
00000000
00000000
13000000
00010000
00000000
00100000
00000000
00100000
00000000
00001000
00000000
00001000
00000000
,
00010000
00000000
00000100
00000000
00000010
00000000
00000100
00000000
00010000
00001000
00020000
00000000
00000000
00030010
00000100
00000000
,
00000001
00000010
00000001
00000010
00000100
00001000
00000200
00000000
00000000
00010300
00001000
00000000
00001000
00000000
01000000
00000000
,
01000000
00000000
00200000
00000000
00000000
10300000
00010000
00000000
00100000
00000000
01000000
00000000
00200000
00000000
00000000
00000000
,
00301000
00000000
00001000
00000000
00010000
00000000
00010000
00000000
00000100
00000010
00000200
00000000
00000000
00001300
00000001
00000000
,
00000010
00000100
00000010
00000100
00010000
00001000
00020000
00000000
00000000
00031000
01000000
00000000
01000000
00000000
00100000
00000000
,
00100000
00000000
20000000
00000000
00000000
31000000
00100000
00000000
00010000
00000000
01000000
00000000
00001000
00000000
00001000
00000000
,
00010000
00000000
00010000
00000000
00000100
00000000
00000010
00000000
00000001
00000100
00000002
00000000
00000000
00000103
00000010
00000000
,
00010000
00001000
00010000
00001000
00100000
01000000
00100000
00000000
00000000
00000000
10010000
00000000
10000000
00000000
00010000
00000000
,
01010000
00000000
01000000
00000000
01000000
00000000
00001000
00000000
00001000
00000000
00001000
00000000
00010000
00000000
00000100
00000010
,
00000001
00000010
00000100
00000010
00000001
00000010
00000100
00000000
00010000
00000000
00010000
00000000
00010000
00000000
00001000
00000000
,
00001000
00000000
00001000
00000000
01000000
00100000
10000000
00100000
01000000
00100000
10000000
00100000
01000000
00010000
00100000
00000000
,
00001000
00000000
00001000
00010000
00000100
00000000
00000010
00000000
00000010
00000001
00000100
00000000
00000010
00000000
00000010
00001000
,
00000100
00000000
00010000
00000000
00010000
00001000
00100000
00000000
01000000
00000000
01000000
10000000
00100000
00000000
01000000
00000000
,
01000000
00010000
10000000
00000000
01000000
00000000
01000000
00100000
01000000
00100000
00010000
00000000
00001000
00000000
00001000
00000000
,
00010000
00000000
00010000
00000010
00010000
00000010
00000100
00000000
00000001
00000000
00000001
00000000
00000010
00000100
00000010
00000100
,
00010000
00001000
00100000
00000000
00010000
00000000
00010000
00000000
10010000
00000000
00100000
00010000
01000000
00010000
00200000
00000000
,
01000000
00000000
01300000
00000000
10000000
00000000
00001000
01000000
00001000
00000000
00010000
00000000
00010000
00000100
00000010
00000000
,
00000001
00000000
00000100
00000000
00000001
00000010
00000100
00001000
00020000
00000000
01000000
00000000
01030000
00000000
00100000
00000000
,
10000000
00000000
00010000
00000000
00100000
01000000
10000000
00000000
00100000
10000000
00100000
10000000
01000000
00100000
00001000
00000000
,
00010000
00001000
00010000
00001000
00000100
00000000
00000010
00000000
00000001
00000000
00000001
00000000
00000100
00000001
00001000
00000000
,
00000010
00001000
00000010
00001000
00000001
00000010
00000100
00000000
00010000
00000000
00001000
00000000
00100000
01000000
10000000
01000000
,
00100000
00000000
00010000
01000000
00100000
01000000
00010000
00000000
00011000
00000000
00010000
00000100
00000010
00000100
00020000
00000000
,
00001000
00000000
00031000
00000000
00010000
00000000
00000010
00000000
00000010
00000000
00000100
00000000
00000001
00001000
00000010
00000000
,
00010000
00000000
00001000
00000000
00100000
01000000
10000000
01000000
00100000
00000000
00010000
00000000
00001000
00000000
00001000
00000000
,
00000100
00000000
00000100
00000000
00001000
00000100
00000010
00000000
00000001
00000100
00000010
00001000
00000100
00010000
00001000
00000000
,
00100000
01000000
10000000
01000000
00100000
00000000
00001000
00000000
00001000
00000000
00010000
00000000
00000010
00000100
00000001
00000000
,
00000010
00000100
00010000
00001000
00100000
01000000
10000000
00000000
00100000
00000000
00100000
00000000
10000000
00000000
01000000
00000000
,
10000000
00000000
00010000
00000000
01000000
00010000
01000000
00100000
10000000
01000000
00010000
01000000
10000000
00000000
00001000
00100000
,
10000000
00100000
00001000
00000000
00010000
00000100
00000001
00000100
00010000
00000000
00000001
00000010
00001000
00000010
00000001
00000100
,
00000010
00010000
00001000
01000000
10000000
00000000
01000000
00001000
10000000
01000000
00100000
00000000
00001000
00010000
00000100
00000001
,
00000100
00000000
00001000
00000010
00000001
00000010
00001000
00000000
00000110
00000000
00000100
00000000
00000001
00000000
00010000
00000000
,
00010000
00000000
00001000
00000000
00100000
00000000
00100000
00000000
00000000
00010000
10000000
00000000
00100000
01000000
00100000
00000000
,
10000000
01000000
00100000
00010000
00001000
00000000
00010000
00001000
00000100
00000010
00000001
00000010
00000100
00001000
00000100
00000000
,
00010000
00000000
00001000
00000000
00000000
00000000
00100000
00000000
01000000
00000000
10000000
00000000
00100000
00000000
01000000
00000000
00010000
00000000
00100000
00000000
00000000
00000000
00000000
00000000
00000100
00000000
00010000
00000000
00000000
00010000
00000000
00000000
,
00000010
00000000
00000000
00000000
00000200
00000000
00000000
00000002
00000000
00000000
00000000
00000000
00000000
00000000
00000000
00000000
00000000
00000000
00000000
00000000
00000000
00000000
00000000
00000000
00000000
00000000
00000000
00000000
00000000
00000000
00000000
00000000
00000000
00000000
00000000
00000000
00000000
00000000
00000000
00000000
00000000
00000000
00000303
00000000
00000000
00000000
00000000
00000000
;
