#TITLE:Far Away;
#SUBTITLE:;
#ARTIST:VENUS;
#TITLETRANSLIT:;
#SUBTITLETRANSLIT:;
#ARTISTTRANSLIT:;
#CREDIT:DigiMindAxel;
#BANNER:Far Away.png;
#BACKGROUND:Far Away-bg.png;
#LYRICSPATH:Far Away.lrc;
#CDTITLE:REFLEC BEAT.png;
#MUSIC:Far Away.ogg;
#METERTYPE:DDR X;
#OFFSET:-12.376;
#SAMPLESTART:48.359;
#SAMPLELENGTH:12.000;
#SELECTABLE:YES;
#BPMS:0.000=160.000,192.000=80.000,200.000=160.000;
#STOPS:;
#BGCHANGES:;

//---------------dance-single - ----------------
#NOTES:
     dance-single:
     :
     Easy:
     5:
     0.231,0.240,0.119,0.069,0.000:
1000
0100
0000
1000
,
0000
0010
0000
0100
,
0000
0001
0000
0010
,
0000
0100
1000
0100
,
0010
0001
0000
1000
,
0000
0100
0000
0010
,
0000
0100
0000
1000
,
0001
0000
0000
1001
,
1000
1000
1000
0000
,
0001
0010
0100
1000
,
0001
0001
0001
0000
,
1000
0010
0100
0001
,
1000
1000
1000
0000
,
0001
0100
0010
1000
,
0001
0001
0001
0000
,
1000
0100
0010
0001
,
1000
1000
1001
0000
,
0001
0001
1001
0000
,
0020
0000
0130
0000
,
0020
0000
0130
0000
,
0001
0001
1001
0000
,
1000
1000
1001
0000
,
0200
0000
0310
0000
,
0200
0000
0310
0000
,
1000
0100
1000
0100
,
0010
0000
0001
0000
,
0010
0100
0010
0100
,
1000
0000
0010
0100
,
0010
0010
0010
0000
,
1000
0100
0010
0001
,
1000
0000
1001
0000
,
0001
1000
0001
0000
,
1000
0100
0010
0001
,
0010
0100
1000
0000
,
0001
0010
0100
1000
,
0100
0000
0010
0000
,
0001
0100
0010
0100
,
0001
0000
0001
0000
,
1001
0000
0000
0000
,
0110
0000
0000
0000
,
0010
0000
0100
0000
,
0010
0000
0100
0000
,
0001
0002
0003
0000
,
1000
2000
3000
0000
,
0010
0000
0100
0000
,
0010
0000
0100
0000
,
0001
0002
0003
0000
,
1000
0001
1000
0001
,
1001
0000
0000
0000
,
0000
0000
0000
0000
,
0110
0000
0010
0000
,
0100
0001
0010
0100
,
1000
0000
1001
0000
,
0010
0010
0010
0110
;

//---------------dance-single - ----------------
#NOTES:
     dance-single:
     :
     Medium:
     8:
     0.385,0.373,0.178,0.149,0.000:
1000
0001
0010
0001
,
1000
0001
0010
0001
,
1000
0100
0010
0100
,
1000
0000
0000
0001
0100
0001
0100
0001
,
1000
0001
0100
0010
,
0100
0001
1000
0100
,
1000
0001
1000
0010
,
0110
0000
0000
0110
,
0101
0000
0001
0000
0001
1000
0001
1000
,
0000
0100
0010
0000
0001
0000
0011
0000
,
0100
0000
0100
0000
0100
1000
0100
1000
,
0000
0010
0100
0000
0001
0000
0001
0000
,
1001
0000
0001
0000
0100
0001
0100
0001
,
0000
0010
0100
0000
1000
0000
1100
0000
,
1000
0000
1000
0000
1000
0100
1000
0100
,
0010
0001
1000
0001
,
0200
0000
0001
0000
0301
0000
1000
0100
,
2000
0001
3001
1000
,
0200
1000
1300
0001
,
0020
0001
0031
1000
,
0020
0000
0100
0000
0130
0000
0001
1000
,
0200
0010
0310
0001
,
1000
0100
0000
0000
1000
0000
0100
0000
,
0110
0000
0110
0000
,
0200
0000
0001
0000
0001
0000
0301
1000
,
0000
0000
0100
1000
0100
0000
0010
0000
,
0002
1000
1000
1003
,
0001
0010
0001
1000
,
0200
1000
1300
0001
,
0100
0001
1000
0000
0100
0000
0010
0001
,
0100
0000
0000
0110
0000
0000
0000
0000
,
0100
1000
0001
0010
,
0100
0010
0001
0000
0010
0000
0100
0000
,
1000
0001
0100
0000
0001
0000
1000
0000
,
0100
1000
0010
0000
0100
0000
0010
0100
,
0000
0100
0000
0100
0000
0100
0000
0000
,
0001
0010
0100
0000
0010
0000
0001
1000
,
0000
1000
0000
1000
0000
0000
0000
0000
,
0110
0000
0110
0000
,
1001
0000
0000
1001
0000
0000
1001
0000
,
0001
1000
0001
0000
1000
0100
1000
0100
,
0000
1000
0001
0000
0010
0000
0100
0000
,
0010
0001
0100
0000
0100
0000
0100
0000
,
0010
1000
0010
1000
0001
0000
0010
0000
,
0100
1000
0010
0000
0010
0000
0010
0000
,
0100
0001
1000
0000
1000
0000
1000
0000
,
0100
0010
0001
0000
0010
0100
0010
0000
,
0001
0010
0100
0000
1000
0100
1000
0000
,
1002
2003
3002
0000
,
0023
0230
0320
0000
,
0031
1000
0001
0000
1000
0100
1000
0000
,
0100
0010
0001
0010
0100
0000
1000
0000
,
0110
0000
0000
0010
0100
0000
0100
0001
,
1000
0000
0000
1001
0000
0000
0110
0000
;

//---------------dance-single - ----------------
#NOTES:
     dance-single:
     :
     Hard:
     12:
     0.564,0.506,0.377,0.178,0.238: // measure 1
0001
0000
0000
0100
0001
0000
0000
0000
1000
0000
0000
0100
1000
0000
0000
0000
,  // measure 2
0100
0010
0001
0000
0010
0100
1000
0000
,  // measure 3
0010
0000
0000
1000
0010
0000
0000
0000
1000
0000
0000
0001
0010
0000
0000
0000
,  // measure 4
0100
1000
0010
0100
0100
0010
0020
0000
,  // measure 5
0130
0000
0000
0001
0100
0000
0000
0000
0010
0000
0000
0100
0010
0000
0000
0000
,  // measure 6
1000
0001
0100
0000
0010
1000
0001
0000
,  // measure 7
0010
0000
0000
0100
0010
0000
0000
0000
0001
0000
0000
1000
0001
0000
0000
0000
,  // measure 8
0100
0000
0010
0100
0010
0000
0100
0010
0100
0010
0100
0000
0010
0000
0000
0000
,  // measure 9
0011
0000
0110
0000
1100
1000
0010
0100
,  // measure 10
0000
0100
0001
0010
0100
1000
0001
0000
,  // measure 11
0101
0000
0110
0000
1010
1000
0100
0010
,  // measure 12
0000
0000
0010
0000
0001
0000
0100
0000
0010
0000
1000
0000
0100
0000
0000
1100
,  // measure 13
0000
0000
0110
0000
0011
0001
0100
0010
,  // measure 14
0000
0010
1000
0100
0010
0001
1000
0000
,  // measure 15
0100
0000
1000
0010
0001
0010
0100
0001
,  // measure 16
2000
0001
0001
3001
,  // measure 17
1000
0000
0000
0010
0000
0000
0100
0000
0020
0000
0000
0000
0030
0000
1000
0100
,  // measure 18
0010
0000
0000
0100
0000
0000
1000
0000
0002
0000
0000
0000
1003
0000
0000
0000
,  // measure 19
0002
0000
0000
0000
0013
0000
0100
0000
1000
0000
0000
0100
0000
0000
0010
0000
,  // measure 20
0100
0000
0000
1000
0000
0000
0001
0000
0100
0000
0000
0000
0001
0000
1000
0000
,  // measure 21
0001
0000
0000
0100
0000
0000
0010
0000
0200
0000
0000
0000
0300
0000
0001
0010
,  // measure 22
0100
0000
0000
1000
0000
0000
0001
0000
0100
0000
0000
0000
0010
0000
0100
0000
,  // measure 23
0010
0000
1000
0000
1000
0000
0000
0000
0100
0000
0000
0010
0000
0000
0100
0000
,  // measure 24
1100
0000
0000
1100
0000
0000
1100
0000
1001
0000
0000
0000
0000
0000
0000
0000
,  // measure 25
1002
0000
1000
0000
1000
0000
1003
0010
,  // measure 26
1000
0000
0001
0000
0010
0000
0100
0000
1000
0000
0000
0001
0000
0000
0100
0000
,  // measure 27
0002
1003
0020
0130
,  // measure 28
0001
1000
0100
0000
1000
0100
0010
0001
,  // measure 29
1000
0100
0001
0100
1000
0000
0001
0000
,  // measure 30
0100
0000
0000
0001
0000
0000
0010
0000
0000
0000
0001
0000
0100
0000
0010
0000
,  // measure 31
0110
0000
0000
1010
0000
0000
1001
0000
0000
0000
0000
0000
0001
0000
0000
0000
,  // measure 32
1000
0000
0100
0000
1000
0000
0001
0000
1000
0100
1000
0000
0001
0000
0000
0000
,  // measure 33
1000
0010
0001
0010
1000
0000
0100
0010
,  // measure 34
0001
0100
1000
0100
0010
1000
0100
0000
,  // measure 35
1000
0010
0001
0010
1000
0001
0100
0101
,  // measure 36
0000
0101
0000
1100
0000
1100
0000
0000
,  // measure 37
1000
0010
0001
0010
1000
0100
0010
0110
,  // measure 38
0000
0110
0000
0220
0000
0000
0330
0000
,  // measure 39
1001
0000
0000
0000
0000
0000
0000
0000
1001
0000
0000
1001
0000
0000
0000
0000
,  // measure 40
1100
0000
0000
1100
0000
0000
1100
0000
1001
0000
0000
0000
0110
0000
0000
0000
,  // measure 41
0100
0000
0001
0000
0100
0000
0001
0010
0100
0000
1000
0000
1000
0000
1000
0000
,  // measure 42
0000
0100
0010
0001
1000
1000
0001
0001
,  // measure 43
1000
0100
1000
0000
0001
0000
0000
0000
0010
0100
0010
0000
0001
0000
0000
0000
,  // measure 44
1000
0000
0001
0000
0010
0000
0100
1000
0100
0000
1000
0000
0010
0000
0000
0110
,  // measure 45
0000
0000
0100
0000
0001
0000
1000
0100
0010
0000
0001
0000
0001
0000
0001
0000
,  // measure 46
0000
0000
0010
0000
0100
0000
1000
0010
1000
0010
1000
0000
0100
0000
0010
0000
,  // measure 47
0001
1000
0001
0000
1000
0000
0000
0000
0100
0010
0100
0000
0010
0000
0000
0000
,  // measure 48
0001
0000
0001
0000
0010
0100
1000
0000
1000
0000
0001
0000
0001
0000
0100
0010
,  // measure 49
0200
0000
0000
0000
0000
0000
0000
0000
0001
0000
0000
0001
0000
0000
0000
0000
0302
0000
0000
0000
0000
0000
2003
0000
0000
0000
0000
0000
3001
0000
0000
0000
,  // measure 50
0200
0000
0000
0000
0000
0000
0000
0000
0302
0000
0000
1000
0000
0000
0000
0000
2003
0000
0000
0000
0000
0000
0002
0000
0000
0000
0000
0000
3003
0000
0000
0000
,  // measure 51
0100
0010
0100
0010
0001
1000
0100
0000
,  // measure 52
1000
0000
0010
0000
0001
0000
0010
0000
0100
0000
0001
0000
1000
0001
1000
0000
,  // measure 53
1001
0000
0000
0000
0100
0000
1000
0000
1100
0000
0000
0100
0000
0000
0100
0000
,  // measure 54
1001
0000
0000
1001
0000
0000
1001
0000
0000
0000
0001
0100
0001
0000
0000
0000
;

//---------------dance-double - ----------------
#NOTES:
     dance-double:
     :
     Easy:
     6:
     0.282,0.266,0.139,0.089,0.000:
00010000
10000000
00010000
01000000
,
00010000
10000000
00010000
01000000
,
00001000
00100000
00001000
00010000
,
00001000
01000000
00001000
00010000
,
00000100
00000010
00000001
00001000
,
00000001
00000010
00000100
00000010
,
00000001
00001000
00000001
00000100
,
00000220
00000000
00000000
00000330
,
00000110
00000100
00000100
00000001
,
00000010
00000100
00010000
00001000
,
01000000
01000000
01000000
00100000
,
10000000
01000000
00100000
00001000
,
00010000
00010000
00010000
00000010
,
00001000
00000100
00000010
00000001
,
00001000
00001000
00001000
00000001
,
00000100
00000010
00010000
00001000
,
00100000
00100000
01100000
00000000
,
10000000
10000000
10010000
00000000
,
01000000
10000000
00100000
00000000
,
01000000
00001000
00010000
00000000
,
00000010
00000010
00000110
00000000
,
00001000
00001000
00001001
00000000
,
00000001
00000010
00000100
00000000
,
00010000
00001000
00100000
00000000
,
01000000
10000000
01000000
10000000
,
00010000
01000000
00001000
00010000
,
00000100
00000010
00000100
00000010
,
00000001
00001000
00000100
00000100
,
00010000
00001000
01000000
00000000
,
00100000
10000000
00001000
00010000
,
00001000
00000000
00011000
00000000
,
00010000
00000100
00000010
00000001
,
00001000
00000100
00001000
00000010
,
00001000
00000100
00010000
00000000
,
00001000
01000000
00001000
00010000
,
00002000
00000000
10003000
00000000
,
01000000
10000000
00100000
01000000
,
00020000
00000000
10030000
00000000
,
10010000
00000000
00000000
00000000
,
02200000
00000000
00000000
03300000
,
01100000
01000000
00100000
10000000
,
01000000
00100000
00001000
00010000
,
00000001
00000002
00000003
00000000
,
00001000
00002000
00003000
00000000
,
00000001
00000100
00000010
00001000
,
00000001
00010000
00001000
01000000
,
00100000
00200000
00300000
00000000
,
10000000
00010000
10000000
00010000
,
01100000
00000000
00000000
00000000
,
00000000
00000000
00000000
00000000
,
00001001
00001000
00000001
00000010
,
00000100
00001000
00000001
00010000
,
00001000
00000000
00011000
00000000
,
01000000
01000000
01000000
01100000
;

//---------------dance-double - ----------------
#NOTES:
     dance-double:
     :
     Medium:
     8:
     0.405,0.400,0.297,0.169,0.000:
10000000
10010000
10000000
10010000
,
00100000
01100000
00100000
01100000
,
00001000
01001000
00001000
01001000
,
00010000
00000000
00000000
00001000
00010000
00001000
00010000
00000000
,
00001000
00011000
00001000
00011000
,
00010000
00010010
00010000
00010010
,
00000010
00000110
00000010
00000110
,
00002002
00000000
00003003
00001001
,
00000110
00000000
00000010
00000000
00000010
00000100
00000010
00000100
,
00000000
00000001
00010000
00000000
00001000
00000000
00011000
00000000
,
00100000
00000000
00100000
00000000
00100000
01000000
00100000
01000000
,
00000000
10000000
00001000
00000000
00001000
00000000
00001000
00000000
,
00011000
00000000
00010000
00000000
00000100
00001000
00000100
00001000
,
00000000
00000001
00000100
00000000
00000100
00000000
00000110
00000000
,
00010000
00000000
00010000
00000000
00010000
00001000
00010000
00001000
,
01000000
00100000
10000000
00100000
,
02000000
00000000
00100000
00000000
03100000
00000000
10000000
01000000
,
20000000
01000000
31000000
00100000
,
00002000
00010000
00013000
00000010
,
00000200
00000010
00000310
00001000
,
00000002
00000000
00000100
00000000
00000103
00000000
00000010
00000100
,
00000020
00001000
00001030
00000001
,
00010000
00001000
00000000
00000000
01000000
00000000
00100000
00000000
,
01100000
00000000
01100000
00000000
,
00200000
00000000
01000000
00000000
01000000
00000000
01300000
00010000
,
00000000
00000000
00100000
01000000
00100000
00000000
00001000
00000000
,
00020000
00001000
00001000
00031000
,
00010000
00000010
00000100
00000010
,
00020000
00001000
00031000
00100000
,
01000000
10000000
00010000
00000000
10000000
00000000
01000000
00100000
,
00010000
00000000
00000000
10010000
00000000
00000000
00000000
00000000
,
10000000
01000000
00100000
01000000
,
10000000
00001000
00010000
00000000
00001000
00000000
00010000
00000000
,
00000010
00000100
00000001
00000000
00000100
00000000
00000010
00000000
,
00010000
00001000
01000000
00000000
00100000
00000000
10000000
00010000
,
00000000
00010000
00000000
00010000
00000000
00010000
00000000
00000000
,
10000000
01000000
00100000
00000000
01000000
00000000
10000000
00010000
,
00000000
00010000
00000000
00010000
00000000
00000000
00000000
00000000
,
10010000
00000000
10010000
00000000
,
01100000
00000000
00000000
01100000
00000000
00000000
10001000
00000000
,
00001000
00010000
00001000
00000000
00010000
00000010
00010000
00000010
,
00000000
00000100
00000010
00000000
00001000
00000000
00000100
00000000
,
00000010
00000100
00010000
00000000
00010000
00000000
00010000
00000000
,
00001000
00100000
01000000
10000000
00001000
00000000
01000000
00000000
,
00100000
01000000
00001000
00000000
00001000
00000000
00001000
00000000
,
00010000
00000100
00000010
00000000
00000010
00000000
00000010
00000000
,
00000001
00001000
00000100
00000000
00010000
00001000
00010000
00000000
,
00001000
01000000
00100000
01000000
00100000
01000000
00001000
00000000
,
00012000
00023000
00030020
00000000
,
00002030
00003002
00002003
00000000
,
00003010
00000100
00000010
00000000
00000100
00000001
00000100
00000000
,
00000001
00010000
00000100
00010000
00000001
00000000
00010000
00000000
,
00011000
00000000
00000000
01000000
00100000
00000000
00100000
10000000
,
01000000
00000000
00000000
11000000
00000000
00000000
10010000
00000000
;

//---------------dance-double - ----------------
#NOTES:
     dance-double:
     :
     Hard:
     12:
     0.548,0.506,0.297,0.228,0.258:
10000000
00000000
00000000
00100000
01000000
00000000
00000000
00000000
00010000
00000000
00000000
10000000
01000000
00000000
00000000
00000000
,
00100000
00000000
00000000
00001000
00010000
00000000
00000000
00000000
00001000
00000000
00000000
00010000
00000010
00000000
00000000
00000000
,
00000100
00000000
00000000
00000001
00000010
00000000
00000000
00000000
00000001
00000000
00000000
00000100
00000010
00000000
00000000
00000000
,
00010000
00000000
00000000
00001000
00010000
00000000
00001000
00000000
01000000
00000000
00100000
00000000
02000000
00000000
00000000
00000000
,
03100000
00000000
00000000
10000000
01000000
00000000
00000000
00000000
00100000
00000000
00000000
00001000
00010000
00000000
00000000
00000000
,
00000010
00000000
00000000
00001000
00000010
00000000
00000000
00000000
00001000
00000000
00000000
00000001
00000010
00000000
00000000
00000000
,
00000100
00000000
00000000
00010000
00001000
00000000
00000000
00000000
00100000
00000000
00000000
01000000
00100000
00000000
00000000
00000000
,
00010000
00000000
10000000
00010000
10000000
00000000
00010000
10000000
00010000
10000000
00010000
00000000
10000000
00000000
00000000
00000000
,
00200000
00000000
02300000
00000000
03001000
00010000
00000100
00000010
,
00000000
00000010
00000100
00001000
00000001
00000010
00000001
00000000
,
00000200
00000000
00000320
00000000
00010030
00001000
01000000
00100000
,
00000000
00000000
00100000
00000000
01000000
00000000
00001000
00000000
10000000
00000000
01000000
00000000
10000000
00000000
00000000
10010000
,
00000000
00000000
00200000
00000000
01300000
00001000
00010000
00000010
,
00000000
00000010
00001000
00000100
00000010
00000001
00001000
00000000
,
00000010
00000000
00001000
00000010
00000001
00000010
00000100
00000001
,
00020000
00001000
00001000
00031000
,
01000000
00000000
00000000
00100000
00000000
00000000
10000000
00000000
02000000
00000000
00000000
00000000
03000000
00000000
10000000
00010000
,
10000000
00000000
00000000
01000000
00000000
00000000
00100000
00000000
02000000
00000000
00000000
00000000
03000000
00000000
00000000
00000000
,
10000000
00000000
00010000
00000000
00100000
00000000
00010000
00000000
10000000
00000000
00000000
00100000
00000000
00000000
01000000
00000000
,
00100000
00000000
00000000
10000000
00000000
00000000
00001000
00000000
00010000
00000000
00000000
00000000
00000100
00000000
00000010
00000000
,
00000001
00000000
00000000
00001000
00000000
00000000
00000100
00000000
00002000
00000000
00000000
00000000
00003000
00000000
00000010
00000100
,
00000010
00000000
00000000
00010000
00000000
00000000
00001000
00000000
00100000
00000000
00000000
00000000
01000000
00000000
00000000
00000000
,
10000000
00000000
00100000
00000000
01000000
00000000
00000000
00000000
00001000
00000000
00000000
00010000
00000000
00000000
00000010
00000000
,
00000110
00000000
00000000
00000110
00000000
00000000
00000110
00000000
00000101
00000000
00000000
00000000
00000000
00000000
00000000
00000000
,
00002002
00000000
00000000
00000000
00003003
00000000
00001000
00000100
,
00001000
00000000
00000001
00000000
00000100
00000000
00000010
00000000
00010000
00000000
00000000
00001000
00000000
00000000
00010000
00000000
,
00200000
01300000
20000000
30010000
,
10000000
00100000
01000000
00000000
00100000
01000000
00001000
00000000
,
00010000
00000000
00001000
00010000
00000100
00000000
00000010
00000000
,
00000001
00000000
00000000
00001000
00000000
00000000
00000001
00000000
00000000
00000000
00000010
00000000
00000100
00000000
00010000
00000000
,
00011000
00000000
00000000
01001000
00000000
00000000
01100000
00000000
00000000
00000000
00000000
00000000
00100000
00000000
00000000
00000000
,
10000000
01000000
10000000
00000000
01000000
00100000
00010000
10000000
,
00001000
00010000
00001000
00010000
00000010
00000000
00000010
00000100
,
00000001
00000010
00000001
00000010
00000100
00001000
00000010
00000000
,
00000010
00000100
00000001
00000010
00000001
00010000
00000000
00011000
,
00000000
00011000
00000000
01001000
00000000
01001000
00000000
00000000
,
01000000
00100000
01000000
00100000
10000000
00000000
01000000
01100000
,
00000000
01100000
00000000
02200000
00000000
00000000
03300000
00000000
,
10010000
00000000
00000000
00000000
00000000
00000000
00000000
00000000
10010000
00000000
00000000
10010000
00000000
00000000
00000000
00000000
,
01001000
00000000
00000000
01001000
00000000
00000000
01001000
00000000
00011000
00000000
00000000
00000000
00011000
00000000
00000000
00000000
,
00000010
00000000
00000100
00000000
00000010
00000000
00010000
00000100
00010000
00000000
00000001
00000000
00000001
00000000
00000001
00000000
,
00000000
00000010
00000100
00001000
00010000
00010000
01000000
01000000
,
00100000
01000000
00100000
00000000
10000000
00000000
00000000
00000000
00001000
00010000
00001000
00000000
01000000
00000000
00000000
00000000
,
00100000
00000000
10000000
00000000
01000000
00000000
00100000
00010000
00100000
00000000
00001000
00000000
00010000
00000000
00000000
00011000
,
00000000
00000000
00001000
00000000
00010000
00000000
00000001
00000100
00000001
00000000
00000010
00000000
00000010
00000000
00000010
00000000
,
00000000
00000000
00000100
00000000
00010000
00000000
00001000
00010000
00001000
00010000
00001000
00000000
00100000
00000000
01000000
00000000
,
10000000
00100000
10000000
00000000
00010000
00000000
00000000
00000000
00100000
00010000
00100000
00000000
00001000
00000000
00000000
00000000
,
00010000
00000000
00010000
00000000
00000100
00000010
00000001
00000000
00000001
00000000
00001000
00000000
00001000
00000000
00000010
00000100
,
00000020
00000000
00000000
00000000
00000000
00000000
00000000
00000000
00000100
00000000
00000000
00000130
00000000
00000000
00000000
00000000
00000002
00000000
00000000
00000000
00000000
00000000
00020003
00000000
00000000
00000000
00000000
00000000
00031000
00000000
00000000
00000000
,
02000000
00000000
00000000
00000000
00000000
00000000
00000000
00000000
03200000
00000000
00000000
01000000
00000000
00000000
00000000
00000000
02300000
00000000
00000000
00000000
00000000
00000000
00002000
00000000
00000000
00000000
00000000
00000000
03003000
00000000
00000000
00000000
,
00001000
00010000
00001000
00010000
00000001
00001000
00000100
00000000
,
00001000
00000000
00000010
00000000
00000001
00000000
00000010
00000000
00000100
00000000
00000001
00000000
00001000
00000001
00001000
00000000
,
00001001
00000000
00000000
00000000
00000010
00000000
00000100
00000000
00000110
00000000
00000000
00000010
00000000
00000000
00000010
00000000
,
00010010
00000000
00000000
00011000
00000000
00000000
01001000
00000000
00000000
00000000
00100000
01000000
00100000
00000000
00000000
00000000
;

//---------------dance-single - ----------------
#NOTES:
     dance-single:
     :
     Beginner:
     2:
     0.089,0.133,0.059,0.000,0.000:
1000
0000
0000
0000
,
0100
0000
0000
0000
,
1000
0000
0000
0000
,
0100
0000
0000
0000
,
0010
0000
0000
0000
,
0001
0000
0000
0000
,
0010
0000
0000
0000
,
0001
0000
0000
0000
,
0100
0000
0100
0000
,
0100
0000
0000
0000
,
0010
0000
0010
0000
,
0010
0000
0000
0000
,
0100
0000
0100
0000
,
0100
0000
0000
0000
,
0010
0000
0010
0000
,
0010
0000
0000
0000
,
1001
0000
0000
0000
,
1000
0000
0000
0000
,
0001
0000
0000
0000
,
0010
0000
0000
0000
,
0100
0000
0000
0000
,
0010
0000
0000
0000
,
0100
0000
0000
0000
,
1000
0000
0000
0000
,
1001
0000
0000
0000
,
0000
0000
0000
0000
,
0001
0000
0000
0000
,
0000
0000
0000
0000
,
0100
0000
0000
0000
,
0010
0000
0000
0000
,
0110
0000
0000
0000
,
0000
0000
0000
0000
,
0100
0000
0000
0000
,
1000
0000
0000
0000
,
0100
0000
0000
0000
,
1000
0000
0000
0000
,
0010
0000
0000
0000
,
0100
0000
0000
0000
,
0001
0000
0000
0000
,
1001
0000
0000
0000
,
1000
0000
0000
0000
,
0010
0000
0000
0000
,
0100
0000
0000
0000
,
0001
0000
0000
0000
,
1000
0000
0000
0000
,
0010
0000
0000
0000
,
0100
0000
0000
0000
,
0001
0000
0000
0000
,
1000
0000
0000
0000
,
0000
0000
0000
0000
,
1001
0000
1000
0000
,
1000
0000
0000
0000
,
0001
0000
0001
0000
,
0001
0000
0000
0110
;
