#TITLE:フレ降レミライ;
#SUBTITLE:;
#ARTIST:北高文芸部女子会;
#TITLETRANSLIT:FURE FURE MIRAI;
#SUBTITLETRANSLIT:;
#ARTISTTRANSLIT:KITAKOU BUNGEIBU JOSHIKAI;
#CREDIT:DigiMindAxel;
#BANNER:FURE FURE MIRAI.png;
#BACKGROUND:FURE FURE MIRAI-bg.png;
#LYRICSPATH:FURE FURE MIRAI.lrc;
#CDTITLE:DigiMindAxel original simfile.png;
#MUSIC:FURE FURE MIRAI.ogg;
#METERTYPE:DDR X;
#OFFSET:-1.998;
#SAMPLESTART:50.783;
#SAMPLELENGTH:12.000;
#SELECTABLE:YES;
#BPMS:0.000=172.000;
#STOPS:204.001=0.349
,209.001=0.349
,213.501=1.047
;
#BGCHANGES:-8.000=FURE FURE MIRAI.avi=1.000=1=1=0,
99999=-nosongbg-=1.000=0=0=0 // don't automatically add -songbackground-
;

//---------------dance-single - ----------------
#NOTES:
     dance-single:
     :
     Easy:
     5:
     0.239,0.302,0.044,0.154,0.000: // measure 1
0000
0000
0000
0000
,  // measure 2
0000
0000
0000
0000
,  // measure 3
0000
0000
0000
0000
,  // measure 4
0000
0000
0000
0000
,  // measure 5
0100
0000
0010
0000
,  // measure 6
0100
0000
0010
0000
,  // measure 7
1000
1000
1000
2000
,  // measure 8
0000
0000
0001
3001
,  // measure 9
1000
0000
0100
0000
,  // measure 10
0010
0000
0001
0000
,  // measure 11
0010
0000
0100
0000
,  // measure 12
1000
1000
1000
0000
,  // measure 13
0001
0000
0100
0000
,  // measure 14
0010
0000
1000
0000
,  // measure 15
0001
0001
0001
0001
,  // measure 16
0000
0000
0000
0000
0000
1001
0000
0000
,  // measure 17
1000
0000
0100
0000
,  // measure 18
0010
0000
0001
0000
,  // measure 19
0020
0000
0000
0000
0000
0000
0000
0130
,  // measure 20
0000
0000
0000
0000
,  // measure 21
1000
0000
0000
0000
0001
0000
0000
0020
,  // measure 22
0000
0030
0000
0000
,  // measure 23
0001
0000
0000
1000
0000
0000
0000
1001
,  // measure 24
0000
0000
0000
0000
,  // measure 25
0020
0000
0000
0000
,  // measure 26
0230
0000
0000
0000
,  // measure 27
2300
0000
0000
0000
,  // measure 28
3001
0000
0001
0000
,  // measure 29
1001
0000
0000
0000
,  // measure 30
0200
0000
0000
0000
,  // measure 31
0310
0000
0100
0000
,  // measure 32
0010
0000
0100
0000
,  // measure 33
0001
0000
0000
1000
0000
0000
0001
0000
,  // measure 34
0000
1000
0100
0010
,  // measure 35
0000
0000
0000
0000
,  // measure 36
1001
0001
1000
0000
,  // measure 37
0100
1000
0010
0000
,  // measure 38
0200
0000
0320
0000
,  // measure 39
0130
0100
0100
0000
,  // measure 40
0001
1000
0100
0000
,  // measure 41
0010
0001
1000
0000
,  // measure 42
0001
1000
0001
1000
,  // measure 43
0100
0100
0100
0000
,  // measure 44
1000
0001
0010
0000
,  // measure 45
0100
1000
0001
0000
,  // measure 46
0020
0000
0230
0000
,  // measure 47
0310
0001
0010
0000
,  // measure 48
0001
0000
1000
0000
,  // measure 49
0010
0000
0100
0000
,  // measure 50
0002
0000
1003
0000
,  // measure 51
0001
0010
0100
1000
,  // measure 52
0001
2000
0000
3100
,  // measure 53
0100
0100
0010
0010
,  // measure 54
0010
0001
0000
1000
,  // measure 55
0001
1000
0100
0010
,  // measure 56
0010
0010
0000
0001
,  // measure 57
1000
0001
0100
0010
,  // measure 58
0010
0010
0000
1000
,  // measure 59
0000
1000
0000
0000
0100
0000
0000
0100
,  // measure 60
0000
1000
1000
0001
,  // measure 61
0000
0010
0000
0000
0200
0000
0000
0000
,  // measure 62
0300
0000
0000
0000
;

//---------------dance-single - ----------------
#NOTES:
     dance-single:
     :
     Medium:
     8:
     0.484,0.537,0.594,0.231,0.000:
0000
0000
0000
0000
,
0000
0000
0000
0000
,
0000
0000
0000
0000
,
0000
0000
0000
0000
,
1000
0000
0001
0100
0000
0100
0000
0001
,
0000
0010
0000
0100
0000
1000
0001
0000
,
1001
0000
1001
0000
1001
0000
1000
0002
,
0000
0000
1000
1003
,
0001
0100
0010
0100
,
0001
1000
0001
1000
,
0001
1000
0100
1000
,
1001
0000
1001
0000
0001
1000
0000
0000
,
0200
0000
1000
1300
0000
0000
0000
0010
,
0200
0000
0010
0310
0000
0000
0000
1000
,
0001
1001
1001
1001
,
0000
0100
0010
0100
0000
0110
0000
0000
,
1000
0001
0010
0001
,
1000
0001
1000
0001
,
0200
0000
0000
0000
0310
0000
0000
1001
,
0000
1001
0000
1001
0000
1001
0000
0000
,
0001
0000
0010
0000
0100
0000
1000
0001
,
0000
0001
0000
0000
0000
0000
0000
0000
,
1000
0100
0010
0001
0000
0001
1000
0200
,
0000
0000
0000
0300
,
2100
0000
0000
3010
,
0200
0000
0000
0301
,
2000
0000
3002
0000
,
1003
0100
0010
0001
,
2002
0000
0000
3003
,
0010
0000
0000
0110
0000
0000
0100
0000
,
0001
0010
0100
0010
,
0001
1000
0010
1000
,
1001
0000
0000
0110
0000
0000
1001
0000
,
1000
0100
0010
0001
1000
0000
1000
0000
,
0020
0000
0000
0030
,
1000
0100
1000
0001
0000
1000
0001
0000
,
0010
0001
0010
0100
0000
1000
0010
0000
,
0100
0101
0100
0101
,
0001
1000
0100
0000
1100
0000
0000
0000
,
1001
0000
0010
0001
0010
0001
0100
0000
,
0100
0000
0010
1000
0010
1000
0001
0000
,
1001
1001
1100
1100
,
0010
0001
0100
0001
0010
0000
0011
0000
,
1001
0000
1000
0010
0100
0000
0001
1000
,
0100
0010
0100
0010
0001
0000
1000
0000
,
0100
1100
0100
1100
,
1001
0101
0101
0000
,
1001
0000
0100
1000
0100
1000
0010
0000
,
0010
0000
0100
0001
0100
0001
1000
0000
,
1000
0110
0001
0110
,
1010
1010
0101
0101
,
1001
0000
0210
0000
0000
0000
0301
0100
,
0010
1000
0100
0000
1000
0010
0100
0001
,
0010
0000
0001
1000
0000
0000
2001
0000
,
3200
0000
0320
0000
0031
1000
0000
0100
,
1000
0100
1000
0010
0100
0000
1002
0000
,
0203
0000
0320
0000
1030
0001
0000
0010
,
0001
0010
0001
0100
0010
0000
1001
0000
,
0000
1100
0000
0000
1001
0000
0000
0011
,
0000
0110
0110
1010
,
0000
0101
0000
0000
0220
0000
0000
0000
,
0330
0000
0000
0000
;

//---------------dance-single - ----------------
#NOTES:
     dance-single:
     :
     Hard:
     11:
     0.592,0.570,0.660,0.253,0.011:
0000
0000
0000
0000
,
0000
0000
0000
0000
,
0000
0000
0000
0000
,
0000
0000
0000
0000
,
1001
0000
0002
0100
0000
0103
0000
0002
,
0000
2003
0000
3100
0000
0010
0100
0000
,
0110
0000
0110
0000
0110
0000
1000
0002
,
0000
0000
0103
0101
,
1001
0000
0100
0001
1000
0100
1000
0000
,
0100
0001
0100
1000
,
0001
0010
0001
0010
0100
0000
1000
0000
,
1001
0000
1001
0000
0001
1000
0000
0000
,
0001
1000
0100
1000
0001
0000
0010
0000
,
0100
0010
0001
1000
0100
0000
1000
0001
,
0100
0101
0101
0101
,
0000
0001
0010
0100
1000
1001
0000
0000
,
0110
0000
0100
0001
0100
0001
0010
0000
,
1000
0000
0010
0000
0001
0000
1000
0100
,
0010
0000
0001
0000
1001
0000
0000
1100
,
0000
1100
0000
1100
0000
1001
0000
0000
,
0001
0100
1000
0000
0100
0000
0001
1000
,
0000
1000
0200
0000
0000
0000
0000
0000
,
1300
0100
0010
0001
0000
0001
0100
0020
,
0000
0000
0130
0000
0001
0010
0100
1000
,
1002
0000
0000
0100
0103
0000
0001
0000
,
0020
0000
0000
0001
0031
0100
0010
0000
,
1000
1100
1000
1100
,
1002
0023
0230
1300
,
1002
0000
0000
0000
0000
1000
1003
0000
,
1001
0000
0000
0110
0000
0000
0011
0000
,
0001
1000
0001
0000
1000
0001
1000
0000
,
0100
0010
0100
0010
0001
0010
0100
0000
,
1010
0000
0000
1001
0000
0000
0101
0000
,
0001
0010
0100
1000
0010
0000
0110
0000
,
0000
0100
0010
0001
1000
0100
0010
0001
,
1000
0010
1000
0001
0000
0001
1000
0100
,
0010
0001
1000
0010
0000
0010
1000
0001
,
0020
0000
0130
1000
0020
0000
0130
0001
,
1001
1100
1100
0000
,
0001
0100
1000
0100
0001
0010
0100
0000
,
1000
0100
0001
0100
1000
0010
0100
0000
,
1001
1001
0011
0011
,
0000
0100
1000
0001
0101
0000
0101
0000
,
0001
1000
0001
0010
0100
1000
0001
0100
,
1000
0100
0001
0010
0000
1000
0010
0100
,
0020
0000
1030
0001
0020
0000
0130
1000
,
1001
0101
0101
0000
,
0110
0000
1000
0100
0001
0100
1000
0000
,
0010
0000
0100
0000
0001
1000
0100
0000
,
1000
0001
1001
0000
0010
0100
0110
0000
,
0101
0110
1100
0011
,
0110
0000
2001
0000
0000
0000
3001
0010
,
1000
0010
0001
0000
0001
0100
1000
0100
,
0001
0000
0000
0000
0010
0000
0100
0000
1000
0001
1000
0001
1000
0000
0100
0000
,
1000
0001
1000
0100
1000
0001
0000
0001
,
0100
1000
0100
0001
0010
0000
0100
1000
,
0010
0100
0010
1000
0100
1000
0000
1000
,
0010
0001
0010
1000
0001
0000
0101
0000
,
0000
1001
0000
0000
1100
0000
0000
0110
,
0000
1001
1001
2020
,
3030
0220
0000
0330
2002
0000
0000
0000
,
3003
0000
0000
0000
;

//---------------dance-double - ----------------
#NOTES:
     dance-double:
     :
     Easy:
     6:
     0.288,0.302,0.198,0.110,0.000:
00000000
00000000
00000000
00000000
,
00000000
00000000
00000000
00000000
,
00000000
00000000
00000000
00000000
,
00000000
00000000
00000000
00000000
,
10000000
00010000
10000000
00000000
,
01000000
10000000
01000000
00000000
,
10000000
10000000
10000000
10020000
,
00000000
00000000
10000000
10030000
,
00010000
00000000
00100000
00000000
,
00001000
00000000
00010000
00000000
,
00000010
00000000
00000100
00000000
,
00000010
00000010
00000110
00000000
,
00001000
00000001
00001000
00000000
,
00000100
00010000
00000100
00000000
,
00010000
00010000
00010000
00011000
,
00000000
00000000
00000000
00000000
00000000
01100000
00000000
00000000
,
01000000
00100000
01000000
00000000
,
00010000
10000000
00010000
00000000
,
02000000
00000000
00000000
00000000
00000000
00000000
00000000
03100000
,
00000000
00000000
00000000
00000000
,
10000000
00000000
01000000
00000000
10000000
00000000
00000000
10001000
,
00000000
00000000
00000000
00000000
,
00010000
00000000
00000000
00000010
00000000
00000000
00000000
00000110
,
00000000
00000000
00000000
00000000
,
00002000
00000000
00000000
00000000
,
00003002
00000000
00000000
00000000
,
00002003
00000000
00000000
00000000
,
00003010
00000000
00000010
00000000
,
00000220
00000000
00000330
00000000
,
00010000
00000000
00000000
00010000
00000000
00000000
00001000
00000000
,
01000000
00100000
01000000
00000000
,
00010000
10000000
01000000
00000000
,
10000000
00000000
00000000
10000000
00000000
00000000
10010000
00000000
,
00000000
10000000
01000000
00100000
,
00000000
00000000
00000000
00000000
,
00011000
00010000
00001000
00010000
,
00000100
00000010
00000100
00000000
,
00001001
00000000
00001001
00000000
,
00000010
00000010
00000110
00000000
,
00001000
00000001
00000010
00000100
,
00010000
00001000
01000000
00100000
,
10000000
10000000
10000000
10000000
,
00010000
00010000
10010000
00000000
,
00100000
10000000
00010000
10000000
,
00001000
00010000
00000010
00000000
,
00000110
00000000
00000110
00000000
,
00001000
00000001
00001001
00000000
,
00000010
00000001
00000010
00000100
,
00010000
00001000
00010000
00001000
,
01000000
01000000
01000000
01000000
,
00010000
01000000
00100000
10000000
,
00010000
02000000
00000000
03100000
,
01000000
00100000
10000000
01000000
,
00100000
00001000
00000000
00010000
,
00000010
00010000
00000010
00000100
,
00000100
00000100
00000000
00000001
,
00000010
00000100
00010000
00001000
,
00001000
00001000
00000000
00100000
,
00000000
01000000
00000000
00000000
10000000
00000000
00000000
00010000
,
00000000
00100000
00100000
00001000
,
00000000
00011000
00000000
00000000
00020002
00000000
00000000
00000000
,
00030003
00000000
00000000
00000000
;

//---------------dance-double - ----------------
#NOTES:
     dance-double:
     :
     Medium:
     8:
     0.473,0.503,0.550,0.242,0.000:
00000000
00000000
00000000
00000000
,
00000000
00000000
00000000
00000000
,
00000000
00000000
00000000
00000000
,
00000000
00000000
00000000
00000000
,
00000001
00000000
00001000
00000100
00000000
00000100
00000000
00001000
,
00000000
00000010
00000000
00000100
00000000
00000001
00001000
00000000
,
00001001
00000000
00001001
00000000
00001001
00000000
00000010
00000200
,
00000000
00000000
00000010
00000310
,
00010000
00001000
00010000
00001000
,
00100000
01000000
00100000
01000000
,
10000000
00010000
01000000
00011000
,
00011000
00000000
00011000
00000000
00010000
00001000
00000000
00000000
,
00010000
00000000
00000010
00000000
00000100
00000000
00000001
00001000
,
00000001
00000000
00000010
00000000
00000100
00000000
00010000
00001000
,
00010000
00011000
00011000
00011000
,
00000000
01000000
00100000
01000000
00000000
01100000
00000000
00000000
,
00010000
10000000
01000000
10000000
,
00001000
01000000
00001000
01000000
,
00002000
00000000
00000000
00000000
00013000
00000000
00000000
00011000
,
00000000
00011000
00000000
00011000
00000000
00011000
00000000
00000000
,
00000100
00000000
00000010
00000000
00000001
00000000
00001000
00000001
,
00000000
00000001
00000000
00000000
00000000
00000000
00000000
00000000
,
00001000
00000100
00001000
00000001
00000000
00001000
00000001
00020000
,
00000000
00000000
00000000
00030000
,
00012000
00000000
00000000
01003000
,
00200000
00000000
00000000
01300000
,
00020000
00000000
20030000
00000000
,
30010000
00100000
00001000
00010000
,
00022000
00000000
00000000
00033000
,
00000010
00000000
00000000
00000110
00000000
00000000
00000110
00000000
,
00000100
00000010
00000100
00000010
,
00001000
00000100
00000010
00000001
,
00001001
00000000
00000000
00000110
00000000
00000000
00001001
00000000
,
00000001
00000010
00000001
00010000
00001000
00000000
00001000
00000000
,
00022000
00000000
00000000
00033000
,
00001000
01000000
00001000
10000000
00000000
10000000
01000000
00000000
,
00100000
00010000
00100000
00001000
00000000
00001000
00010000
00000000
,
00000220
00000330
00000220
00000330
,
00001000
00000001
00001000
00000000
00001001
00000000
00000000
00000000
,
00000110
00000000
00000100
00000010
00000100
00000010
00010000
00000000
,
00001000
00000000
00100000
01000000
00100000
01000000
10000000
00000000
,
00100000
01100000
01100000
01100000
,
01000000
00100000
01000000
00001000
00010000
00000000
00011000
00000000
,
00000010
00000100
00000010
00000100
00000001
00000000
00000010
00000000
,
00000100
00001000
00000100
00001000
00010000
00000000
00001000
00000000
,
02200000
03300000
02200000
03300000
,
10000000
10010000
10010000
00000000
,
01100000
00000000
01000000
00100000
01000000
00100000
10000000
00000000
,
01000000
00000000
00100000
00010000
00100000
00010000
00001000
00000000
,
00000000
00000110
00000000
00000110
,
00000001
00000010
00000100
00001000
,
00001001
00000000
00000210
00000000
00000000
00000000
00000301
00000010
,
00000100
00010000
00001000
00000000
00010000
00001000
01000000
00100000
,
01000000
00000000
00010000
10000000
00000000
00000000
10010000
00000000
,
01000000
00000000
00100000
00000000
00001000
00010000
00000000
00000100
,
00000010
00000100
00000010
00000001
00001000
00000000
00001001
00000000
,
00000010
00000000
00000100
00000000
00010000
00001000
00000000
01000000
,
00100000
01000000
00100000
10000000
01000000
00000000
10010000
00000000
,
00000000
10010000
00000000
00000000
01100000
00000000
00000000
01100000
,
00000000
00011000
00011000
00010010
,
00000000
00000110
00000000
00000000
00000202
00000000
00000000
00000000
,
00000303
00000000
00000000
00000000
;

//---------------dance-double - ----------------
#NOTES:
     dance-double:
     :
     Hard:
     10:
     0.563,0.570,0.616,0.220,0.011:
00000000
00000000
00000000
00000000
,
00000000
00000000
00000000
00000000
,
00000000
00000000
00000000
00000000
,
00000000
00000000
00000000
00000000
,
10000000
01000000
10000000
00010000
00000000
00010000
00000000
01000000
,
00000000
00001000
00000000
00010000
00000000
00000100
00000010
00000000
,
00000110
00000000
00000110
00000000
00000110
00000000
00000010
00000200
,
00000000
00000000
00000301
00001001
,
00000010
00000100
00010000
00001000
,
01000000
00100000
01000000
00001000
,
10000000
01000000
10000000
01000000
00100000
00000000
00011000
00000000
,
00011000
00000000
00011000
00000000
00001000
00010000
00000000
00000000
,
00000100
00000000
00000010
00000001
00001000
00000000
00000100
00000000
,
00000010
00000000
00000100
00010000
00001000
00000000
00100000
00000000
,
01100000
01100000
01100000
01100000
,
00000000
00010000
00100000
01000000
10000000
10010000
00000000
00000000
,
01100000
01000000
10000000
00001000
,
00010000
00000100
00000010
00000100
,
00002001
00000000
00000000
00000000
00003001
00000000
00000000
00001100
,
00000000
00001100
00000000
00001100
00000000
00001001
00000000
00000000
,
00000001
00001000
00000100
00000000
00010000
00000000
00001000
01000000
,
00000000
00100000
00000000
00000000
00000000
00000000
00000000
00000000
,
10000000
01000000
00100000
00001000
00000000
00001000
00010000
00002000
,
00000000
00000000
00013000
00000000
00000010
00000100
00000001
00000100
,
00000020
00000000
00000000
00000100
00000130
00000000
00000001
00000000
,
00020000
00000000
00000000
00001000
00031000
01000000
00100000
00000000
,
10000000
10010000
10000000
10010000
,
01200000
02300000
03002000
00013000
,
00000120
00000000
00000000
00000000
00000000
00000100
00000130
00000000
,
00000110
00000000
00000000
00001001
00000000
00000000
00010010
00000000
,
00010000
00001000
00010000
00000000
01000000
00100000
01000000
00000000
,
00010000
10000000
00010000
10000000
01000000
00100000
01000000
00000000
,
11000000
00000000
00000000
10010000
00000000
00000000
01001000
00000000
,
00001000
00010000
00000010
00000100
00000001
00000000
00001001
00000000
,
00000000
00000100
00000010
00000001
00001000
00000100
00000010
00000001
,
00001000
00000010
00001000
00000010
00000000
00000010
00000100
00000001
,
00000010
00000001
00000010
00000100
00000000
00000100
00010000
00001000
,
02000000
00000000
03100000
10000000
02000000
00000000
03100000
00010000
,
01000000
01100000
01100000
00000000
,
00010000
01000000
10000000
01000000
00010000
00000000
00100000
00000000
,
00001000
00010000
00000100
00010000
00001000
00000000
00000100
00000000
,
00000101
00000101
00001100
00001100
,
00000000
00010000
00001000
01000000
00100000
00000000
01100000
00000000
,
10000000
01000000
10000000
01000000
00000000
01000000
00100000
00001000
,
00010000
00001000
00010000
00000010
00000000
00000010
00000100
00000001
,
00000200
00000000
00000301
00001000
00000200
00000000
00010300
00001000
,
00010000
00011000
00011000
00000000
,
01100000
00000000
10000000
01000000
00010000
01000000
10000000
00000000
,
00001000
00000000
00010000
00000000
00000100
00000010
00000001
00000000
,
00001000
00000001
00001001
00000000
00000010
00000100
00000110
00000000
,
00000101
00000110
00010010
00011000
,
01001000
00000000
02100000
00000000
00000000
00000000
03010000
10000000
,
01000000
00100000
00001000
00000000
00010000
00000010
00000100
00000010
,
00010000
00000000
00000000
00000000
00000100
00000000
00000010
00000000
00000001
00001000
00000001
00001000
00000001
00000000
00000010
00000000
,
00000001
00001000
00000001
00000010
00000001
00001000
00000000
00001000
,
00000100
00010000
00001000
01000000
00100000
00000000
10000000
00100000
,
10000000
00010000
10000000
00100000
10000000
00010000
00000000
00010000
,
00100000
00001000
00000100
00000010
00000100
00000000
00000110
00000000
,
00000000
00001010
00000000
00000000
00011000
00000000
00000000
01010000
,
00000000
10010000
10010000
02200000
,
03300000
02002000
00000000
03003000
00022000
00000000
00000000
00000000
,
00033000
00000000
00000000
00000000
;

//---------------dance-single - ----------------
#NOTES:
     dance-single:
     :
     Beginner:
     3:
     0.127,0.233,0.187,0.000,0.000: // measure 1
0000
0000
0000
0000
,  // measure 2
0000
0000
0000
0000
,  // measure 3
0000
0000
0000
0000
,  // measure 4
0000
0000
0000
0000
,  // measure 5
1000
0000
0000
0000
,  // measure 6
0100
0000
0000
0000
,  // measure 7
0010
0000
0000
0000
,  // measure 8
0000
0000
0000
0000
,  // measure 9
0110
0000
0000
0000
,  // measure 10
0000
0000
0000
0000
,  // measure 11
0100
0000
0000
0000
,  // measure 12
1001
0000
0000
0000
,  // measure 13
0001
0000
0000
0000
,  // measure 14
0010
0000
0000
0000
,  // measure 15
0001
0000
0000
0000
,  // measure 16
0000
0000
0000
0000
,  // measure 17
1000
0000
0000
0000
,  // measure 18
0100
0000
0000
0000
,  // measure 19
1000
0000
0000
0000
,  // measure 20
0000
0000
0000
0000
,  // measure 21
0010
0000
0000
0000
,  // measure 22
0110
0000
0000
0000
,  // measure 23
0110
0000
0000
0000
,  // measure 24
0000
0000
0000
0000
,  // measure 25
1001
0000
0000
0000
,  // measure 26
0001
0000
0000
0000
,  // measure 27
1000
0000
0000
0000
,  // measure 28
1001
0000
0000
0000
,  // measure 29
0010
0000
0000
0000
,  // measure 30
0100
0000
0000
0000
,  // measure 31
0010
0000
0000
0000
,  // measure 32
0010
0000
0000
0000
,  // measure 33
0110
0000
0000
0000
,  // measure 34
0000
0000
0000
0000
,  // measure 35
0001
0000
0000
0000
,  // measure 36
1000
0000
0001
0000
,  // measure 37
1000
0000
0000
0000
,  // measure 38
1001
0000
1001
0000
,  // measure 39
1001
0000
0000
0000
,  // measure 40
0110
0000
0000
0000
,  // measure 41
0100
0000
0000
0000
,  // measure 42
0010
0000
0010
0000
,  // measure 43
0010
0000
0000
0000
,  // measure 44
1001
0000
1000
0000
,  // measure 45
0001
0000
0010
0000
,  // measure 46
0001
0000
0001
0000
,  // measure 47
1001
0000
0000
0000
,  // measure 48
1000
0000
0010
0000
,  // measure 49
0100
0000
0000
0000
,  // measure 50
0001
0000
0100
0000
,  // measure 51
0010
0000
0000
0000
,  // measure 52
1001
0000
0000
1000
,  // measure 53
0000
0000
1000
0000
,  // measure 54
0000
0000
0000
1001
,  // measure 55
0000
0001
0000
0001
,  // measure 56
0000
0010
0000
0001
,  // measure 57
0000
0001
0000
0100
,  // measure 58
0000
0001
0000
1000
,  // measure 59
0000
0000
0100
0000
,  // measure 60
0000
0000
0000
1001
,  // measure 61
0000
0000
1001
0000
;
