#TITLE:フェティッシュペイパー;
#SUBTITLE:~脇の汗回転ガール~;
#ARTIST:ガキ大将ティーム;
#TITLETRANSLIT:FETISH PAPER;
#SUBTITLETRANSLIT:~WAKI NO ASE KAITEN GIRL~;
#ARTISTTRANSLIT:GAKI TAISHOU TEAM;
#CREDIT:DigiMindAxel;
#BANNER:FETISH PAPER ~WAKI NO ASE KAITEN GIRL~.png;
#BACKGROUND:FETISH PAPER ~WAKI NO ASE KAITEN GIRL~-bg.png;
#LYRICSPATH:;
#CDTITLE:beatmania IIDX.png;
#MUSIC:FETISH PAPER ~WAKI NO ASE KAITEN GIRL~.ogg;
#METERTYPE:DDR X;
#OFFSET:-11.289;
#SAMPLESTART:50.585;
#SAMPLELENGTH:12.000;
#SELECTABLE:YES;
#BPMS:0.000=110.000;
#STOPS:;
#BGCHANGES:;

//---------------dance-single - ----------------
#NOTES:
     dance-single:
     :
     Hard:
     10:
     0.456,0.458,0.357,0.076,0.178:
1000
0001
0010
0100
1000
1000
0110
0000
,
0001
1000
0100
1000
0001
0001
0110
0000
,
0001
0100
0101
0000
1000
0010
1010
0000
,
0001
0000
0010
0000
1000
0000
0010
0000
0001
0000
1000
0000
0100
0000
0100
0010
,
0100
0000
1000
0000
0100
0000
0010
0000
0001
0000
1000
0000
0100
0000
1000
0001
,
0000
0000
0000
0000
0100
0000
0001
1000
0000
0000
0000
0000
0100
0000
1000
0001
,
1000
0001
0010
0100
1000
0001
0100
0000
,
0001
0000
1000
0100
0000
1000
0000
0010
0000
0200
0000
0000
0000
0000
0300
0000
,
1001
0000
0001
0000
0100
0000
0010
0000
1000
0000
1000
0000
0001
0000
1000
0010
,
0000
0000
0000
0000
1000
0000
0001
0100
0000
0000
0000
0000
0001
0000
1000
0001
,
1000
0000
1000
0000
0010
0000
0100
0000
0001
0000
0001
0000
1000
0000
0010
0100
,
0010
0000
0000
1010
0000
0000
0110
0000
0000
0011
0000
0000
1001
0000
0000
0000
,
1000
1000
0010
0100
0010
1000
0011
0000
,
0100
0001
1100
0000
0010
1000
0011
0000
,
0001
0001
0100
0010
0100
0001
1100
0000
,
0010
1000
0011
0000
0100
0001
1100
0000
,
0002
1000
1000
1000
,
1000
1000
1000
1003
,
1001
0000
0001
1000
0001
0000
0100
0000
1000
0000
0100
0000
0001
0000
0010
0000
,
0100
0000
1000
0001
1000
0000
0100
0000
0001
0000
0100
0000
1000
0000
0010
0000
,
0100
0000
0001
1000
0001
0000
0100
0000
1000
0000
0100
0000
0010
0000
1000
0000
,
0001
0000
1000
0001
1000
0000
0001
0010
0000
0100
0000
1000
0000
0000
0001
1000
,
0001
0000
0010
0000
0011
0000
0100
0000
1000
0000
0001
0000
0010
0100
0010
0000
,
0001
0000
1000
0000
1100
0000
0010
0000
0001
0000
1000
0000
0100
0010
0100
0000
,
1000
0001
0101
0010
1000
0001
0001
1000
,
0001
1000
0100
0001
0100
1000
0001
0100
,
0020
1000
0000
1030
,
0001
0010
1000
0100
0001
0000
1001
0000
,
0200
0001
0000
0301
,
1000
0100
0001
0010
1000
0000
1001
0000
,
0020
1000
1000
1030
,
0001
0100
1000
0010
0001
1000
1001
0000
,
0200
0001
0001
0301
,
1000
0010
0001
0100
1000
0001
1001
0000
,
1001
0000
0000
0101
0000
0000
0110
0000
0000
1100
0000
0000
0010
0100
0010
0000
,
1001
1000
1010
0001
0010
0100
1000
0001
,
1001
0001
0101
1000
0100
0010
0001
1000
,
1001
0000
1000
0000
1100
0000
0001
0000
0100
0000
0010
0000
1000
0100
1000
0000
,
1001
0000
0010
0000
0100
0000
1000
0001
0000
0010
0000
0100
0000
0000
1000
0001
,
1000
0000
0001
0000
0011
0000
1000
0000
0010
0000
0100
0000
0001
0010
0001
0000
,
1001
0000
1000
0000
1010
0000
0001
0000
0010
0000
0100
0000
1000
0010
1000
0000
,
1001
0000
0001
0000
0101
0000
1000
0010
0000
0100
0001
1000
0000
0000
0110
0000
,
0001
0000
0001
0000
1000
0000
0010
0100
0000
0010
0100
0000
0001
0000
0100
0001
,
0200
0000
0001
0301
2000
0100
3100
1100
,
0002
0000
1000
0000
1003
0000
0001
0000
0010
0000
0100
0000
1000
0001
0000
1001
;

//---------------dance-single - ----------------
#NOTES:
     dance-single:
     :
     Medium:
     7:
     0.286,0.305,0.170,0.110,0.013:
0001
0000
1000
0000
0001
0010
0100
0000
,
1000
0000
0001
0000
1000
0100
0010
0000
,
0001
0000
1000
0000
0001
0010
0100
0000
,
1000
0000
0001
0000
1000
0100
0010
0000
,
1001
0000
0001
0000
1000
0000
0000
0001
,
0010
0000
0000
0001
0010
0000
0000
0001
,
1000
0100
0010
0001
,
1000
0000
0000
0001
0000
0200
0000
0000
0000
0000
0000
0000
0000
0000
0300
0000
,
1001
0000
1000
0000
1000
0100
0010
0001
,
1000
0000
0000
0001
1000
0000
0000
0001
,
1000
0100
0010
0001
1000
0000
0000
0001
,
2000
0000
0000
3000
,
1001
1000
1100
1100
,
1001
0001
0011
0011
,
1001
1000
1010
1010
,
1001
0001
0011
0011
,
2000
0000
0000
0000
,
0000
0000
0000
3000
,
1001
0000
0001
0000
1000
0010
0100
0001
,
0000
1000
1000
0000
0001
0100
0010
1000
,
0000
0001
0001
0000
1000
0010
0100
0001
,
0000
1000
1000
0001
0010
0001
1000
0000
,
0000
0001
0001
0000
0010
0100
1000
0001
,
0000
1000
1000
0000
0100
0010
0001
1000
,
0000
0001
0001
0000
0010
0100
1000
0000
,
0001
1000
0100
1000
0010
1000
0001
0000
,
2000
0000
0000
0000
,
3020
0000
0000
0000
,
2030
0000
0000
0000
,
3002
0000
0000
0000
,
2003
0000
0000
3001
0100
0010
0100
0000
,
0001
0001
1000
1000
,
0002
0000
0000
1003
0100
0010
0100
0000
,
1000
0100
0010
0001
,
1001
0000
0000
1001
0000
0000
1001
0000
,
0001
1000
0001
0000
0010
0100
1000
0001
,
1000
0010
1000
0000
0100
0010
0001
1000
,
0001
0010
0001
0000
0010
0100
1000
0001
,
1000
0100
1000
0100
1000
0100
0010
0000
,
0001
1000
0001
0000
0010
0100
1000
0001
,
0001
1000
0001
0000
0010
0100
1000
0001
,
0001
0100
0001
0100
0010
0000
1000
0100
,
0010
0001
0010
0001
1000
0010
0100
0000
,
2020
3000
2030
0000
,
3002
0000
0000
0000
0000
0000
0000
0000
0000
0000
0000
0000
0103
0000
0000
0110
;

//---------------dance-single - ----------------
#NOTES:
     dance-single:
     :
     Challenge:
     13:
     0.620,0.573,0.365,0.068,0.620:
1001
0000
1000
0100
1000
0000
0010
0100
0010
0000
1000
0100
1000
0001
0000
0000
,
0010
0000
0100
1000
0100
0000
1000
0001
1000
0000
0001
0100
0001
0100
0000
0000
,
0001
0000
1000
0100
0010
0000
0000
0000
0001
0000
1000
0100
0010
0000
0000
0000
,
0001
0000
0100
0001
0100
0000
0010
0100
0010
0000
1000
0001
1000
0000
0010
0100
,
0002
0000
1000
0000
1000
0000
1003
0000
0001
0000
0100
0000
0010
0000
1000
0001
,
0010
0000
0010
0000
0001
0000
1000
0100
0010
0000
0010
0000
1001
0000
0100
0010
,
2000
0000
0001
0000
0001
0000
3001
0000
1000
0000
0001
0010
0100
0000
1000
0000
,
0010
1000
0001
0010
0000
0100
0000
1000
0000
0010
0100
0010
0100
0001
0010
0000
,
1001
0000
0001
0000
0101
0000
0100
0000
0010
0000
1000
0100
0010
0000
0001
0010
,
0001
0000
1000
0000
1000
0000
0001
0010
0001
0000
1000
0000
1000
0000
0001
0010
,
0001
0000
1000
0000
1100
0000
0100
0000
1000
0000
0001
0100
0010
0000
1000
0100
,
1000
0100
0000
0001
0100
0000
1000
0100
0000
0001
0100
0000
1000
0001
0000
0000
,
1001
0100
0001
0100
1100
0100
0011
0000
,
0101
0100
1010
0000
0110
0100
1001
0001
,
1001
0100
1000
0100
0101
1000
1100
0000
,
1100
0100
0110
0000
0101
0001
1001
0000
,
0100
0100
0100
0100
,
0100
0100
0100
0100
,
1001
0000
0100
0010
0001
0000
1000
0010
1000
0010
0100
0001
0100
0010
1000
0000
,
1001
0000
0010
0100
1000
0000
0001
0100
0001
0100
0010
1000
0100
1000
0001
0000
,
1001
0000
0100
0010
0001
0000
1000
0100
1000
0100
0010
0001
0010
0001
0100
0000
,
1001
0000
0010
0100
1000
0001
1000
0001
0000
0100
0000
0002
0000
0000
1003
0100
,
1000
0000
0100
0010
0001
0000
1000
0100
1000
0010
0100
0010
1000
0001
0010
0000
,
1001
0000
0010
0100
1000
0000
0001
0010
0001
0100
0010
0100
0001
1000
0100
0000
,
1001
0000
0100
0010
0001
1000
0010
1000
0000
0010
0100
0010
0000
0000
1000
0000
,
0001
0100
0001
0100
0010
1000
0100
0010
0000
0010
0100
0000
0110
0000
0001
0010
,
0100
0100
1000
1000
0010
0010
0110
0000
,
1000
0100
0010
0001
1000
0100
0010
0001
1000
0000
0001
0000
1001
0000
0000
0000
,
0001
0001
0100
0100
0010
0010
0110
0000
,
0001
0010
0100
1000
0001
0010
0100
1000
0001
0000
1000
0000
1001
0000
0000
0000
,
0010
0000
0010
0001
0010
0000
0100
1000
0100
0000
0010
0000
0110
0000
0000
0000
,
0001
0010
0100
0010
0001
0000
0100
0010
0100
0001
1000
0000
1001
0000
0000
0000
,
0100
0000
0100
0001
0100
0000
0010
1000
0010
0000
0100
0000
0110
0000
0000
0000
,
1000
0100
0010
0100
1000
0000
0010
0100
0010
1000
0001
0000
1001
0000
0000
0000
,
1000
0100
0000
0001
0100
0000
1000
0100
0000
0001
0100
0000
1000
0001
1000
0000
,
1001
0000
0010
1000
1010
0000
0100
0001
0100
0001
1000
0100
0010
0001
1000
0000
,
0001
0000
0100
0001
0101
0000
0010
1000
0010
1000
0001
0010
0100
1000
0001
0000
,
1000
0000
0001
0010
0011
0000
1000
0100
1000
0001
0010
0100
1000
0100
0010
0000
,
0001
0000
1000
0100
0001
0100
1000
0001
0000
0010
0000
0200
0000
0000
1300
0001
,
1000
0000
0001
0010
0011
0000
0100
1000
0100
0001
1000
0010
0001
1000
0100
0000
,
1000
0000
0100
1000
1100
0000
1000
0001
0100
1000
0001
0010
1000
0001
1000
0000
,
0100
0000
0010
0001
0010
0001
1000
0010
0000
0100
0010
0100
0000
0000
0001
0000
,
1000
0100
0001
0100
1000
0000
0100
0010
0000
0001
0100
0000
1001
0000
1000
0001
,
2000
0100
3100
0001
0200
1000
1300
0110
,
0200
0000
0001
0000
0302
0000
1000
0000
1003
0000
0100
0000
0010
0010
0000
0110
;

//---------------dance-single - ----------------
#NOTES:
     dance-single:
     :
     Easy:
     3:
     0.147,0.190,0.059,0.042,0.000:
1000
0000
0000
0000
,
1000
0000
0000
0000
,
0001
0000
0000
0000
,
0001
0000
0000
0000
,
1001
0000
0001
0000
,
1000
0000
0001
0000
,
2000
0000
3001
0000
,
1000
0000
0000
0000
,
1001
0000
0001
0000
,
1000
0000
0000
0000
,
1001
0000
1000
0000
,
0001
0000
0000
0000
,
0100
0010
0100
0100
,
0010
0100
0010
0010
,
1000
0001
1000
1000
,
0001
1000
0001
0001
,
0002
0000
0000
0000
,
0000
0000
0000
0003
,
1001
1000
0001
0000
,
1000
0001
0100
0000
,
0010
1000
0001
0000
,
0100
0001
0100
0001
,
1000
0100
0010
0000
,
0001
0010
0100
0000
,
1000
0001
1000
0001
,
0100
0010
1000
0100
,
0010
0000
0000
0000
,
0010
0000
0000
0000
,
0100
0000
0000
0000
,
1000
0000
0000
0000
,
0002
0000
1003
0000
,
0001
0000
0000
0000
,
2000
0000
3001
0000
,
1000
0000
0000
0000
,
1001
0000
0000
1001
,
0110
1000
0100
1000
,
0001
0100
0001
0100
,
0001
1000
0001
1000
,
0100
0010
0001
1000
,
0001
0100
0001
0100
,
0010
0100
0010
0100
,
0010
1000
0010
1000
,
0001
0010
0100
1000
,
0002
0000
1000
0000
,
1000
0000
0000
1003
;

//---------------dance-single - ----------------
#NOTES:
     dance-single:
     :
     Beginner:
     2:
     0.069,0.114,0.034,0.000,0.000:
1000
0000
0000
0000
,
1000
0000
0000
0000
,
1000
0000
0000
0000
,
1000
0000
0000
0000
,
0001
0000
0000
0000
,
0001
0000
0000
0000
,
0001
0000
0000
0000
,
0001
0000
0000
0000
,
1001
0000
0001
0000
,
0000
0000
0000
0000
,
1000
0000
1000
0000
,
0000
0000
0000
0000
,
1001
0000
0001
0000
,
1000
0000
0001
0000
,
0100
0000
0010
0000
,
0100
0000
0010
0000
,
0100
0000
0000
0000
,
0000
0000
0000
0000
,
1001
0000
0001
0000
,
1000
0000
0001
0000
,
0001
0000
0001
0000
,
1000
0000
1000
0000
,
0010
0000
0010
0000
,
0100
0000
0100
0000
,
0001
0000
1000
0000
,
0001
0000
0000
0000
,
0001
0000
0000
0000
,
1000
0000
0000
0000
,
0001
0000
0000
0000
,
1000
0000
0000
0000
,
0001
0000
0000
0000
,
0000
0000
0000
0000
,
1000
0000
0000
0000
,
0000
0000
0000
0000
,
0001
0000
0000
0000
,
1001
0000
0000
0000
,
1000
0000
0000
0000
,
0001
0000
0000
0000
,
1000
0000
0000
0000
,
0010
0000
0000
0000
,
0100
0000
0000
0000
,
0001
0000
0000
0000
,
0010
0000
0000
0000
,
0100
0000
0000
0000
,
0000
0000
0000
1000
;

//---------------dance-double - ----------------
#NOTES:
     dance-double:
     :
     Easy:
     3:
     0.170,0.190,0.085,0.119,0.000:
10000000
00000000
10000000
00000000
,
00010000
00000000
00010000
00000000
,
00100000
00000000
00001000
00000000
,
00100000
00000000
00001000
00000000
,
00021000
00000000
00030010
00000000
,
00000200
00000000
00000310
00000000
,
00001002
00000000
00000013
00000000
,
00000110
00000000
00000000
00000000
,
00011000
00000000
00100000
00000000
,
01000000
00000000
00000000
00000000
,
10010000
00000000
01000000
00000000
,
02200000
00000000
00000000
03300000
,
01000000
00010000
10000000
10000000
,
01000000
00100000
00001000
00001000
,
00010000
00000100
00000010
00000010
,
00000001
00001000
00000010
00000010
,
00020000
00000000
00000000
00000000
,
00000000
00000000
00000000
00030000
,
00011000
00001000
00100000
01000000
,
10000000
00001000
00100000
01000000
,
10000000
01000000
00100000
00001000
,
00010000
00001000
00020000
00000000
,
00030010
00000100
00000001
00010000
,
00000010
00000100
00000001
00000010
,
00000100
00010000
00001000
00100000
,
01000000
10000000
01000000
00010000
,
01000000
00000000
00000000
00000000
,
10000000
00000000
00000000
00000000
,
00100000
00000000
00000000
00000000
,
01000000
00000000
00000000
00000000
,
00002000
00000000
00013000
00000000
,
00000100
00000000
00000000
00000000
,
00000002
00000000
00000103
00000000
,
00001000
00000000
00000000
00000000
,
00022000
00000000
00000000
00033000
,
10001000
00100000
01000000
10000000
,
01000000
00100000
00001000
00010000
,
00000010
00000100
00000010
00010000
,
00000100
00000010
00000001
00000010
,
00000100
00010000
00001000
00100000
,
01000000
10000000
00010000
01000000
,
00010000
10000000
01000000
00100000
,
00001000
00010000
00001000
00010000
,
00000020
00000000
00000230
00000000
,
00000320
00000000
00000030
00000110
;

//---------------dance-double - ----------------
#NOTES:
     dance-double:
     :
     Medium:
     8:
     0.307,0.344,0.153,0.102,0.013:
10000000
01000000
10000000
00000000
01000000
10000000
00010000
00000000
,
01000000
00100000
01000000
00000000
00001000
01000000
00010000
00000000
,
01000000
00100000
01000000
00000000
00010000
00001000
00000100
00000000
,
00000010
00000001
00000100
00000000
00000010
00001000
00000001
00000000
,
00002001
00000000
00000100
00000000
00003001
00000000
00000000
00010000
,
00001000
00000000
00000000
00010000
00001000
00000000
00000000
00010000
,
00002000
01000000
00103000
00010000
,
10000000
00000000
00000000
01000000
00000000
00200000
00000000
00000000
00000000
00000000
00000000
00000000
00300000
00000000
00000000
00000000
,
10020000
00000000
01000000
00000000
10030000
01000000
00100000
00001000
,
00010000
00000000
00000000
00001000
00010000
00000000
00000000
00001000
,
00010000
00000100
00000010
00000001
00000010
00000000
00000000
00000001
,
00000020
00000000
00000000
00000030
,
00001001
00000000
00001001
00000000
00000010
00000010
00010010
00000000
,
00001000
00001000
00011000
00000000
01000000
01000000
01100000
00000000
,
10010000
00000000
10010000
00000000
00100000
00100000
10100000
00000000
,
00001000
00001000
00011000
00000000
00000100
00000100
00000110
00000000
,
00000002
00000000
00000000
00000000
,
00000000
00000000
00000000
00000003
,
00001001
00000000
00000001
00000000
00000010
00000100
00010000
00001000
,
00000000
01000000
01000000
00000000
00100000
10000000
01000000
00100000
,
00000000
00001000
00001000
00000000
00010000
00000010
00000100
00000001
,
00000000
00001000
00001000
00000001
00000010
00000100
00001000
00000000
,
00000000
00010000
00010000
00000000
00001000
00100000
01000000
10000000
,
00000000
00100000
00100000
00000000
10000000
00100000
01000000
00001000
,
00000000
00010000
00010000
00000000
00000100
00000010
00000001
00000000
,
00000010
00000100
00010000
00001000
00100000
01000000
00100000
00000000
,
00020000
10000000
00000000
10030000
,
02000000
00000000
00000000
03000000
,
20000000
00010000
00000000
30010000
,
02000000
00000000
00000000
03000000
,
00020000
00000000
00000000
00130000
01000000
10000000
00001000
00000000
,
00010000
00010000
00001000
00001000
,
00020000
00000000
00000000
00030100
00000010
00000001
00001000
00000000
,
00010000
00100000
01000000
10000000
,
10010000
00000000
00000000
01010000
00000000
00000000
10100000
00000000
,
00100000
01000000
00100000
00000000
10000000
00010000
01000000
00100000
,
10000000
01000000
00100000
00000000
00001000
00010000
00001000
00000010
,
00000100
00000001
00000010
00000000
00000001
00000100
00000001
00010000
,
00001000
00010000
00001000
00100000
10000000
00100000
00001000
00000000
,
01000000
00100000
01000000
00000000
00010000
01000000
00100000
10000000
,
00100000
01000000
00100000
00000000
10000000
00010000
10000000
01000000
,
00100000
00001000
00010000
00000100
00000010
00000000
00000001
00000100
,
00000001
00001000
00000100
00000001
00000100
00010000
00001000
00000000
,
01100000
00000000
01000000
10000000
00100000
00000000
00100000
01000000
,
00001000
00000000
00000000
00000000
00010000
00000000
00000000
00000000
00000100
00000000
00000000
00000000
00000010
00000000
00000000
00000110
;

//---------------dance-double - ----------------
#NOTES:
     dance-double:
     :
     Hard:
     10:
     0.473,0.496,0.280,0.076,0.276:
10000000
00100000
10000000
00001000
00010000
00010000
00000110
00000000
,
00000100
00000010
00000001
00000010
00000100
00000100
00011000
00000000
,
00100000
00010000
00110000
00000000
01000000
10000000
11000000
00000000
,
00100000
00000000
10000000
00000000
01000000
00000000
10000000
00000000
00100000
00000000
01000000
00000000
00001000
00000000
00010000
00000001
,
00010000
00000000
00000100
00000000
00000010
00000000
00000001
00000000
00000100
00000000
00001000
00000000
00000100
00000000
00000001
00001000
,
00000000
00000000
00000000
00000000
00000010
00000000
00010000
00001000
00000000
00000000
00000000
00000000
01000000
00000000
00100000
01000000
,
00100000
10000000
01000000
00010000
01000000
10000000
00001000
00000000
,
00010000
00000000
00000010
00000100
00000000
00000001
00000000
00000010
00000000
00000002
00000000
00000000
00000000
00000000
00000003
00000000
,
00001001
00000000
00001000
00000000
00000010
00000000
00010000
00000000
00001000
00000000
00001000
00000000
00100000
00000000
01000000
10000000
,
00000000
00000000
00000000
00000000
00100000
00000000
01000000
00001000
00000000
00000000
00000000
00000000
00010000
00000000
00000010
00000100
,
00000010
00000000
00001000
00000000
00000001
00000000
00010000
00000000
00001000
00000000
00001000
00000000
00100000
00000000
01000000
10000000
,
01000000
00000000
00000000
11000000
00000000
00000000
10001000
00000000
00000000
01001000
00000000
00000000
00011000
00000000
00000000
00000000
,
00010001
00010000
00000010
00001000
00000001
00000010
00010100
00000000
,
00001000
10000000
01100000
00000000
10000000
00010000
01100000
00000000
,
10000000
00010000
01000000
10000000
01000000
00001000
00011000
00000000
,
00000100
00000010
00000101
00000000
00000010
00000100
00011000
00000000
,
00200000
01000000
01000000
01000000
,
01000000
01000000
01000000
01300000
,
10010000
00000000
10000000
00010000
10000000
00000000
01000000
00000000
00100000
00010000
00100000
00000000
00001000
00000000
00010000
00000000
,
00000010
00000000
00000100
00000010
00000100
00000000
00000001
00000000
00000010
00000100
00000010
00000000
00000001
00000000
00000100
00000000
,
00000010
00000000
00010000
00001000
00010000
00000000
00001000
00000000
01000000
00100000
01000000
00000000
00010000
00000000
10000000
00000000
,
01000000
00000000
00100000
00010000
00100000
00000000
00001000
00010000
00000000
00000100
00000000
00001000
00000000
00000000
00000001
00001000
,
00000001
00000000
00001000
00000100
00010000
00000000
00001000
00000000
00100000
01000000
00100000
00000000
00010000
01000000
00010000
00000000
,
10000000
00000000
01000000
00100000
00010000
00000000
00001000
00000000
00010000
00000100
00010000
00000000
00000001
00001000
00000001
00000000
,
00000010
00000000
00000100
00001000
00010000
00000000
01000000
00000000
00010000
10000000
00010000
00000000
00100000
00000000
01000000
00000000
,
10000000
10000000
00001000
00001000
00010000
00000010
00000001
00000010
,
00020000
00001000
00000000
00031000
,
10000000
01000000
00010000
01000000
10000000
00000000
10001000
00000000
,
00002000
00010000
00000000
00013000
,
00000001
00000010
00001000
00000010
00000001
00000000
00010001
00000000
,
00020000
00001000
00001000
00031000
,
10000000
01000000
00010000
01000000
10000000
01000000
01100000
00000000
,
00002000
00010000
00010000
00013000
,
00000001
00000010
00001000
00000010
00000001
00001000
00001001
00000000
,
00000101
00000000
00000000
00010001
00000000
00000000
00011000
00000000
00000000
01001000
00000000
00000000
01000000
00100000
01000000
00000000
,
10010000
00000000
01000000
10000000
00100000
00000000
01000000
00000000
00001000
00010000
00001000
00000000
00010000
00000010
00000100
00000000
,
00001001
00000000
00000010
00000100
00001000
00000000
00010000
00000000
00001000
01000000
00001000
00000000
00100000
01000000
10000000
00000000
,
10010000
00000000
00100000
01000000
00010000
00000000
00100000
00000000
00001000
00010000
00001000
00000000
00010000
00000100
00000010
00000000
,
00000110
00000000
00000100
00000010
00000001
00000000
00000100
00000010
00000000
00001000
00000000
00010000
00000000
00000000
01000000
00100000
,
01000000
00000000
00010000
10000000
01000000
00000000
00100000
00000000
00001000
00010000
00001000
00000000
00010000
00000010
00000100
00000000
,
00001001
00000000
00000010
00000100
00001000
00000000
00010000
00000000
00001000
00100000
00001000
00000000
01000000
00100000
10000000
00000000
,
10010000
00000000
00100000
00010000
00100000
00000000
00010000
01000000
00000000
00001000
00010000
00001000
00000000
00000000
00010000
00000000
,
00000010
00000000
00000010
00000000
00000100
00000000
00000100
00000001
00000000
00001000
00000100
00000000
00010000
00000000
00001000
00100000
,
02000000
00000000
10000000
13000000
00200000
01000000
01300000
00011000
,
00020000
00000000
00000010
00000000
00030010
00000000
00000100
00000000
00000001
00000000
00000010
00000000
00000001
00001000
00000000
00001001
;

//---------------dance-double - ----------------
#NOTES:
     dance-double:
     :
     Challenge:
     13:
     0.591,0.534,0.314,0.017,0.612: // measure 1
10010000
00000000
00010000
01000000
00010000
01000000
00001000
00010000
00001000
00010000
00000010
00000100
00000010
00000100
00000000
00000000
,  // measure 2
00000000
00000000
00000001
00000010
00000001
00000010
00000100
00010000
00000000
00001000
00010000
00001000
00100000
01000000
00000000
00000000
,  // measure 3
10000000
00000000
01000000
00100000
00010000
00000000
00000000
00000000
00001000
00010000
00001000
00010000
00000010
00000100
00000010
00000000
,  // measure 4
00000000
00000000
00001000
00000001
00001000
00000001
00010000
00001000
00100000
00000000
01000000
00100000
01000000
00000000
10000000
00010000
,  // measure 5
00100000
00000000
00100000
00000000
01000000
10000000
01000000
10000000
00000000
00100000
01000000
00010000
00000000
00000000
10000000
01000000
,  // measure 6
10000000
00000000
01000000
00000000
00100000
00000000
00010000
00001000
00010000
00000010
00000000
00000100
00000010
00000000
00001000
00000100
,  // measure 7
00000010
00000000
00000001
00000100
00000001
00000000
00000010
00000000
00000100
00010000
00000100
00010000
00001000
00100000
00000000
00000000
,  // measure 8
00010000
00100000
01000000
10000000
00000000
00010000
00000000
01000000
00000000
00001000
00010000
00000010
00000100
00000001
00000010
00000100
,  // measure 9
00001000
00000000
00001001
00000000
00000001
00000000
00001001
00000000
00001000
00000100
00010000
00001000
00100000
00000000
01000000
10000000
,  // measure 10
01000000
00000000
00100000
00000000
01100000
00000000
01000000
10000000
01000000
00000000
00100000
00000000
01100000
00000000
01000000
10000000
,  // measure 11
00010000
00000000
10010000
00000000
10000000
00000000
10010000
00000000
00010000
00100000
00001000
00010000
00001000
00000000
00010000
00000000
,  // measure 12
00000010
00000100
00000000
00000001
00000010
00000000
00000100
00000010
00000000
00000001
00000100
00000000
00000001
00001000
00000000
00000000
,  // measure 13
00001001
00000001
00000010
00000100
00011000
01000000
01100000
00000000
,  // measure 14
00110000
00010000
01100000
00000000
10010000
10000000
01100000
00001000
,  // measure 15
00011000
00010000
00000010
00000100
00000101
00000001
00001001
00000000
,  // measure 16
00001010
00000010
00000110
00000000
00011000
00001000
01001000
00000000
,  // measure 17
01000000
01000000
01000000
01000000
,  // measure 18
01000000
01000000
01000000
01000000
,  // measure 19
10010000
00000000
00010000
10000000
00100000
00000000
01000000
00010000
10000000
01000000
00100000
00001000
00010000
00001000
00010000
00000000
,  // measure 20
00000100
00000000
00000010
00000001
00000100
00000000
00000001
00001000
00000001
00000100
00000010
00010000
00001000
00010000
00001000
00000000
,  // measure 21
00100000
00000000
00010000
10000000
00100000
00000000
01000000
00010000
00100000
01000000
10000000
00100000
10000000
00001000
00010000
00000000
,  // measure 22
00000010
00000000
00000100
00000001
00000010
00000100
00000010
00000100
00000000
00010000
00000000
00020000
00000000
00000000
00031000
00010000
,  // measure 23
00001000
00000000
00100000
01000000
10000000
00000000
00100000
01000000
00100000
01000000
00010000
10000000
01000000
00100000
00001000
00000000
,  // measure 24
00010000
00000000
00000010
00000100
00000001
00000000
00000010
00000100
00000010
00000100
00010000
00001000
00100000
01000000
10000000
00000000
,  // measure 25
00100000
00000000
10000000
01000000
10000000
01000000
00100000
00001000
00000000
00010000
00001000
00010000
00000000
00000000
00000001
00000000
,  // measure 26
00000100
00000010
00000100
00000010
00010000
00001000
00100000
01000000
00000000
10000000
00010000
00000000
00100000
00000000
01000000
10000000
,  // measure 27
01000000
10000000
10100000
00000000
01000000
00001000
00011000
00000000
,  // measure 28
00010000
00000010
00000001
00000010
00010000
00000100
00000110
00000000
,  // measure 29
00000001
00000100
00000101
00000000
00010000
00001000
00101000
00000000
,  // measure 30
00001000
00100000
10000000
00100000
00001000
01000000
01100000
00000000
,  // measure 31
10000000
00100000
10100000
00000000
01000000
00001000
00011000
00000000
,  // measure 32
00010000
00000010
00000001
00000010
00010000
00000100
00000110
00000000
,  // measure 33
00001000
00000100
00010100
00000000
00100000
01000000
11000000
00000000
,  // measure 34
00001000
01000000
10000000
01000000
00001000
00010000
00011000
00000000
,  // measure 35
00000010
00000100
00000000
00000001
00000100
00000000
00000001
00001000
00000000
00000100
00000010
00000000
00000001
00001000
00000001
00000000
,  // measure 36
00001001
00000000
00001000
00000010
00010000
00000000
00001000
01000000
00100000
01000000
00001000
00100000
10000000
00100000
00001000
00000000
,  // measure 37
00010000
00000000
00000100
00000010
00000001
00000000
00000100
00000010
00001000
00000010
00000100
00000001
00000010
00000100
00010000
00000000
,  // measure 38
00001000
00000000
00100000
01000000
10000000
00000000
00010000
01000000
00010000
10000000
00001000
00100000
10000000
00100000
00001000
00000000
,  // measure 39
00010000
00000000
00000100
00000010
00000001
00000010
00000100
00010000
00000000
00001000
00000000
00002000
00000000
00000000
00013000
00001000
,  // measure 40
00010000
00000000
00100000
01000000
10000000
00000000
00010000
01000000
00100000
01000000
00010000
00100000
10000000
00100000
00010000
00000000
,  // measure 41
00001000
00000000
00000010
00000100
00000001
00000000
00000010
00000100
00001000
00000100
00000010
00000001
00001000
00000010
00010000
00000000
,  // measure 42
00001000
00000000
00100000
01000000
10000000
01000000
00100000
00001000
00000000
00010000
00001000
00010000
00000000
00000000
00000100
00000000
,  // measure 43
00000010
00000001
00000100
00000001
00000010
00000000
00000100
00010000
00000000
00001000
01000000
00000000
01100000
00000000
10000000
00010000
,  // measure 44
10000000
00100000
00010000
00100000
01000000
00001000
00010000
00000010
,  // measure 45
00000001
00000000
00000010
00000000
00000100
00000000
00000001
00000000
00001000
00000000
00000100
00000000
00010000
00001000
00000000
00011000
;
