#TITLE:Elektrick U-Phoria;
#SUBTITLE:;
#ARTIST:DJ Noriken;
#TITLETRANSLIT:;
#SUBTITLETRANSLIT:;
#ARTISTTRANSLIT:;
#CREDIT:DigiMindAxel;
#BANNER:Elektrick U-Phoria.png;
#BACKGROUND:Elektrick U-Phoria-bg.png;
#LYRICSPATH:;
#CDTITLE:beatmania IIDX.png;
#MUSIC:Elektrick U-Phoria.ogg;
#METERTYPE:DDR X;
#OFFSET:-0.526;
#SAMPLESTART:44.512;
#SAMPLELENGTH:12.000;
#SELECTABLE:YES;
#BPMS:0.000=180.000,196.000=90.000,212.000=180.000;
#STOPS:;
#BGCHANGES:-4.000=Elektrick U-Phoria.avi=1.000=1=1=0,
99999=-nosongbg-=1.000=0=0=0 // don't automatically add -songbackground-
;

//---------------dance-single - ----------------
#NOTES:
     dance-single:
     :
     Easy:
     6:
     0.250,0.341,0.089,0.089,0.000:
0000
0000
0000
0000
,
0000
0000
0000
0000
,
0000
0000
0000
0000
,
0000
0000
0000
0000
,
0000
0000
0000
0000
,
0001
0001
0001
0001
,
1000
1000
1000
1000
,
0001
0001
0001
0001
,
1001
0000
0000
0000
,
0110
0000
0000
0110
,
0000
0000
0000
0000
,
1001
0000
0000
1001
,
0000
0000
0000
0000
,
0110
0000
0000
0110
,
0000
0000
0000
0000
,
1001
0000
0000
1001
,
0000
0000
0000
0000
,
0002
0000
1000
0000
,
1000
0000
1000
0000
,
2003
0000
0001
0000
,
0001
0000
0001
0000
,
3001
0010
0001
0000
,
1000
0100
1000
0000
,
0001
1000
0001
1000
,
0001
0000
0000
0000
,
1001
0000
0001
0000
,
1000
0000
0001
0000
,
0100
0000
0010
0000
,
0100
0000
0010
0000
,
1000
0000
1000
0000
,
0001
0000
0001
0000
,
1000
0001
1000
0001
,
2000
0000
0000
0000
,
3100
1000
0100
0000
,
0010
0100
0010
0000
,
0001
0010
0001
0000
,
0100
0010
0100
0010
,
0100
0001
0100
0000
,
0010
0100
0010
0000
,
1000
0010
1000
0000
,
0001
0001
0001
0000
,
1000
0001
0010
0000
,
0001
1000
0010
0000
,
1000
0001
0010
0000
,
0001
1000
0010
0000
,
1000
0001
1000
0001
,
0100
0010
0100
0010
,
1000
0100
0010
0001
,
1000
0000
0000
0000
,
0002
0000
0000
0000
,
2003
0000
0000
0000
,
3002
0000
0000
0000
,
2003
0000
3001
0000
,
1000
0000
0000
0000
,
0100
0000
0000
0000
,
0010
0000
0000
0000
,
0001
0000
0000
0000
,
0010
0100
0010
0000
,
0001
1000
0001
0000
,
1000
0001
1000
0001
,
2000
0000
0000
0000
,
3100
0010
0100
0000
,
1000
0010
0100
0010
,
1000
0001
1000
0000
,
0001
0010
0100
0000
,
0001
1000
0001
0000
,
0100
0010
0100
0001
,
0010
0001
0010
0000
,
0100
0010
0100
0000
,
1001
1000
1000
1000
,
0001
0001
0001
0001
,
0010
0010
0010
0010
,
0100
0100
0100
0000
,
1000
0001
0010
0000
,
0001
1000
0100
0000
,
1000
0001
1000
0001
,
0020
0000
0000
0000
,
0031
0000
0010
0000
,
0100
0000
1000
0000
,
0001
0000
0010
0000
,
0100
0000
2000
0000
,
3001
0000
1000
0000
,
0100
0000
0010
0000
,
0001
0000
1000
0000
,
0002
0000
1003
0000
;

//---------------dance-single - ----------------
#NOTES:
     dance-single:
     :
     Medium:
     9:
     0.466,0.548,0.420,0.202,0.012:
0000
0000
0000
0000
,
0000
0000
0000
0000
,
0000
0000
0000
0000
,
0000
0000
0000
0000
,
0000
0000
0000
0000
,
1000
0100
1000
0100
,
1000
0001
1000
0001
,
0010
0100
0010
0100
,
2000
0000
0000
0000
,
3001
0000
0000
1001
0000
0000
1001
0000
,
0000
2002
0000
0000
0000
0000
3003
0000
,
0110
0000
0000
0110
0000
0000
0110
0000
,
0000
0220
0000
0000
0000
0000
0330
0000
,
1001
0000
0000
1001
0000
0000
1001
0000
,
0000
2002
0000
0000
0000
0000
3003
0000
,
0110
0000
0000
0110
0000
0000
0110
0000
,
0000
0220
0000
0000
0000
0000
0330
0000
,
1000
0001
0010
0001
,
1000
0001
0010
0001
,
1000
0100
0010
0100
,
1000
0100
0010
0100
,
1000
0010
0110
0110
,
0100
0001
1001
1001
,
0001
0100
0001
0100
0001
1000
0001
1000
,
0002
0000
0000
0003
,
2000
0100
0100
3100
,
0020
0100
0100
0130
,
2000
0001
0001
3001
,
0200
0001
0001
0301
,
1000
0100
1000
0000
0001
1000
0001
0000
,
1000
0100
1000
0000
0001
1000
0001
0000
,
0010
0001
0010
0001
0100
0010
1000
0100
,
1000
0000
0000
0000
,
0010
0100
0010
0000
0110
0000
0110
0000
,
1000
0001
1000
0000
1100
0000
1100
0000
,
0010
0100
0010
0000
0110
0000
0110
0000
,
0100
0001
0010
0000
0001
0001
0002
0000
,
1003
0100
1000
0000
1001
0000
1001
0000
,
0010
0100
0010
0000
1010
0000
1010
0000
,
0100
0010
0100
0000
0110
0000
0110
0000
,
1001
1001
1001
0000
,
1000
0100
1000
0000
0010
0100
0001
0000
,
1000
0010
1000
0000
0100
0010
0001
0000
,
1000
0100
1000
0000
0010
0100
0001
0000
,
2002
0000
0000
0000
3003
0000
0100
0010
,
1000
0000
0000
0000
1001
0000
0010
0100
,
0001
0000
0000
0000
1000
0001
1000
0001
,
0010
0000
0000
0000
0001
1000
0001
1000
,
0100
0000
0000
0000
,
2000
0000
0000
0000
,
3002
0000
0000
0000
,
2003
0000
0000
0000
,
3002
0000
0000
0000
0000
0000
0000
1003
0000
0001
1000
0001
1000
0000
0000
0000
,
0001
0010
0100
1000
,
0001
0010
0100
1000
,
0001
0010
0100
1000
,
0001
0010
0100
1000
,
0010
0100
0010
0100
,
0001
0010
0001
0010
,
0001
1000
0001
1000
0001
1000
0001
1000
,
0200
0000
0000
0000
,
1300
0000
0010
0100
0001
0100
0001
0000
,
1000
1000
0100
0000
0010
0000
0110
0000
,
0001
0000
0010
0100
0010
0100
1000
0000
,
0010
0010
0100
0000
0001
1000
0001
0000
,
1000
0000
1001
0000
0001
0100
0010
0000
,
1000
1000
0001
0000
0010
0000
0011
0000
,
1000
0000
1001
0000
0001
0010
0100
0000
,
0010
0001
0100
0001
0010
0000
0000
0000
,
0001
1001
1100
1100
,
0010
0001
0100
0001
0020
0000
0031
0000
,
1001
1001
0101
0101
,
0010
1000
0100
1000
0020
0000
1030
0000
,
1001
0000
0000
0000
0110
0000
0010
0100
,
0001
0000
0000
0000
1000
0001
1000
0001
,
0010
0000
0000
0000
0001
1000
0001
1000
,
0100
0100
1100
0000
,
1000
0100
0010
0001
,
1000
0100
0010
0001
,
1000
0010
0100
0001
,
1000
0010
0100
0001
,
1001
0010
0100
1000
,
0001
0010
0100
1000
,
0001
0100
0010
1000
,
0110
0000
0100
0000
0002
0000
0000
0003
;

//---------------dance-single - ----------------
#NOTES:
     dance-single:
     :
     Hard:
     12:
     0.593,0.651,0.339,0.226,0.218:
0000
0000
0000
0000
,
0000
0000
0000
0000
,
0000
0000
0000
0000
,
0000
0000
0000
0000
,
0000
0000
0000
0000
,
1001
0000
1000
0000
1000
0000
1000
0001
,
0010
0000
0010
0000
0010
0000
0010
0100
,
1000
0001
1000
0001
0010
0100
1000
0001
,
0200
0000
0000
0301
,
1001
0000
0000
1100
0000
0000
0011
0000
,
0000
2002
0000
0000
0000
0000
3003
0000
,
0101
0000
0000
1010
0000
0000
1001
0000
,
0000
0220
0000
0000
0000
0000
0330
0000
,
0011
0000
0000
1100
0000
0000
0110
0000
,
0000
2002
0000
0000
0000
0000
3003
0000
,
0011
0000
0000
1100
0000
0000
0101
0000
,
0000
2020
0000
0000
0000
0000
3030
0000
,
0100
0000
1001
0000
0001
0010
0100
0000
,
1000
0000
1010
0000
0100
0001
0010
0000
,
0001
0000
0110
0000
1000
0100
0010
0000
,
0100
0000
1001
0000
0001
0100
0010
0000
,
1001
1000
1001
1100
,
0011
0010
0011
1001
,
1000
0100
0010
0001
1000
0100
0010
0100
,
2000
0000
0000
3001
,
1000
0000
0000
0100
0000
0000
1000
0000
0001
0000
0000
0100
0000
0000
0001
0000
,
1000
0000
0000
0010
0000
0000
1000
0000
0001
0000
0000
0010
0000
0000
0001
0000
,
1000
0000
0000
0100
0000
0000
1000
0000
0001
0000
0000
0100
0000
0000
0001
0000
,
1000
0000
0000
0010
0000
0000
1000
0000
0001
0000
0000
0010
0000
0000
0001
0000
,
1000
0100
0010
0001
0100
1000
0100
0000
,
0001
0010
0100
1000
0010
0001
0010
0000
,
1000
0010
0100
0001
1000
0100
0001
1000
,
0200
0000
0300
0110
,
0010
1000
0010
1000
0001
0010
0100
0000
,
0010
0001
1000
0010
0100
0010
1000
0000
,
0100
0010
0001
0100
1000
0100
0010
0000
,
1000
0000
0010
0000
0100
0000
0001
0000
1000
0001
1000
0001
1000
0000
0000
0000
,
0001
0100
1000
0100
0010
1000
0001
0000
,
1000
0010
0001
0010
0100
0001
1000
0000
,
0001
1000
0100
0001
0100
1000
0001
0000
,
0101
0101
2002
3003
,
0001
0000
0000
0001
1000
0000
0100
0000
0010
0000
0100
0000
1000
0000
0000
0000
,
0010
0000
0000
0010
0100
0000
0001
0000
1000
0000
0100
0000
0010
0000
0000
0000
,
0100
0000
0000
0100
1000
0000
0001
0000
0100
0000
0010
0000
0100
0000
0000
0000
,
2002
0000
0000
0000
0000
0000
0000
0000
3003
0000
0000
0000
0001
1000
0001
1000
,
0001
0000
0000
0000
0000
0000
0000
0000
0101
0000
0000
0000
0100
0010
0100
0010
,
0100
0000
0000
0000
0001
0001
0001
0001
,
1000
0000
0000
0000
0000
0000
0000
0000
0100
0000
0100
0000
1000
0001
1000
0001
,
1000
0000
0000
1001
,
0001
0000
0001
0000
0100
0010
0000
1000
0000
1000
0100
0010
0001
0000
0000
0000
,
1000
0000
1000
0000
0010
0100
0000
0001
0000
0001
0010
0100
1000
0000
0000
0000
,
0010
0000
0010
0000
1000
0001
0000
0100
0000
0100
0001
0010
0100
0000
0000
0000
,
1000
0000
1000
0000
0010
0100
0000
0001
0000
0001
1000
0100
0010
0000
0011
0000
,
0200
1000
0320
0001
,
0230
1000
0320
0001
,
0230
1000
0320
0001
,
0230
1000
0320
0001
,
0130
1100
0100
0110
,
0010
0011
0001
1001
,
1000
0100
1000
0100
1000
0001
0010
0100
,
2000
0000
0000
3001
,
1000
0000
0000
0001
0000
0000
0010
0000
0100
0000
0000
1000
0000
0000
0001
0000
,
0001
0100
0010
0100
0002
0000
1003
0000
,
0001
0000
0000
1000
0000
0000
0010
0000
1000
0000
0000
0001
0000
0000
1000
0000
,
1000
0100
0010
0001
0200
0000
1300
0000
,
0101
0000
0000
0001
0000
0000
1000
0000
0100
0000
0000
1000
0000
0000
0001
0000
,
0001
0100
0010
1000
0200
0000
1300
0000
,
0010
0000
0000
1000
0000
0000
0001
0000
0010
0000
0000
0001
0000
0000
1000
0000
,
1000
0001
0010
1000
0010
0001
1000
0000
,
0001
0000
0000
1000
0001
0000
0010
0000
0100
0000
0000
1000
0001
0000
0100
0000
,
0010
0000
0000
1000
0001
0000
0010
0000
0100
0000
0000
0010
0001
0000
1000
0000
,
0010
0000
0000
0100
0001
0000
0010
0000
0100
0000
0000
1000
0001
0000
1000
0000
,
0100
0000
0000
0010
0100
0000
1000
0000
0001
0000
0100
0000
0001
0000
0100
0000
,
0110
0000
0000
0000
0000
0000
0000
0000
1100
0000
0000
0000
1000
0001
1000
0001
,
1000
0000
0000
0000
0010
0010
0010
0010
,
0100
0000
0000
0000
0000
0000
0000
0000
0001
0000
0001
0000
1000
0001
1000
0001
,
2000
0100
3100
0000
,
1000
0100
0010
0000
0100
0010
0001
0000
,
1000
0010
0100
0000
0010
0100
0001
0000
,
1000
0001
0010
0000
0100
1000
0001
0000
,
0010
0100
1000
0000
0001
0010
0100
1000
,
0001
1000
0010
0000
0100
0001
1000
0000
,
0001
1000
0100
0000
0010
0001
1000
0000
,
0100
0010
0001
0000
1000
0100
0010
0001
,
1000
0000
0000
0000
0001
0010
0100
1000
;

//---------------dance-single - ----------------
#NOTES:
     dance-single:
     :
     Challenge:
     15:
     0.784,0.890,0.484,0.387,0.589:
0000
0000
0000
0000
,
0000
0000
0000
0000
,
0000
0000
0000
0000
,
0000
0000
0000
0000
,
0000
0000
0000
0000
,
0100
1000
0100
1000
0100
1000
0100
0001
,
0100
0001
0100
0001
0100
0001
0100
1000
,
0001
0000
0010
0000
0100
0000
1000
0000
0001
0100
0001
0100
0001
1000
0001
1000
,
0002
0000
0000
1003
,
2200
0000
3300
0220
0000
0330
0022
0000
,
0033
0220
0000
0000
0000
0000
0330
0000
,
0022
0000
0033
0220
0000
0330
2200
0000
,
3300
2002
0000
0000
0000
0000
3003
0000
,
2020
0000
3030
0220
0000
0330
0202
0000
,
0303
0220
0000
0000
0000
0000
0330
0000
,
0202
0000
0303
0220
0000
0330
2020
0000
,
3030
2002
0000
0000
0000
0000
3003
0000
,
1001
0000
1000
0010
0100
0001
1000
0000
,
1100
0000
0100
1000
0001
0010
0100
0000
,
0110
0000
0010
0100
0001
1000
0100
0000
,
1100
0000
1000
0100
0010
0001
0100
0000
,
0101
0110
0101
0110
,
1001
1100
1001
1100
,
1000
0000
0100
0000
0010
0000
0001
0000
1000
0010
1000
0010
1000
0001
1000
0001
,
2000
0000
0000
3001
,
1000
0000
0000
1000
0000
0000
0001
0000
0100
0000
0000
0100
0000
0000
0001
0000
,
1000
0000
0000
1000
0000
0000
0100
0000
0010
0000
0000
0010
0000
0000
0001
0000
,
1001
0000
0000
1000
0000
0000
0001
0000
0100
0000
0000
0100
0000
0000
0001
0000
,
1000
0000
0000
1000
0000
0000
0100
0000
0010
0000
0000
0010
0000
0000
0001
0000
,
1000
0000
0100
0000
0001
0000
0100
0000
1000
0000
0001
0000
0010
0000
0100
1000
,
0001
0000
0010
0000
1000
0000
0010
0000
0001
0000
1000
0000
0100
0000
0010
0001
,
1000
0000
0001
0000
1000
0000
0001
0000
1000
0001
1000
0001
1000
0100
1000
0100
,
2000
0000
3000
1001
,
1000
0000
0001
0100
0000
0001
0100
0000
0001
0000
1000
0100
0000
1000
0100
0000
,
1000
0000
0100
0010
0000
0100
0010
0000
0001
0000
1000
0010
0000
1000
0010
0000
,
0100
0000
0001
1000
0000
0001
1000
0000
0100
0000
0010
0001
0000
0010
0001
0000
,
1000
0000
0001
0100
0000
0001
0100
0000
0001
1000
0001
1000
0001
0000
0000
0000
,
0010
0000
0001
0100
0000
0001
0100
0000
0001
0000
1000
0100
0000
1000
0001
0000
,
0010
0000
0100
1000
0000
0100
1000
0000
0001
0000
0100
0001
0000
1000
0001
0000
,
0010
0000
0100
1000
0000
0100
1000
0000
0001
0000
0100
0001
0000
1000
0010
0000
,
0100
0100
0001
0001
2002
0000
3003
0000
,
0001
0000
1000
0100
0000
1000
0001
0000
0010
0000
0100
1000
0000
0001
0100
0000
,
0001
0000
1000
0100
0000
1000
0001
0000
0010
0000
0100
1000
0000
0010
0100
0000
,
0001
0000
1000
0001
0000
0010
0001
0000
1000
0000
0010
0100
0000
0001
0100
0000
,
0110
0000
0000
0000
0000
0000
0000
0000
0001
1000
0001
1000
0001
0010
0100
1000
,
0100
0000
0000
0000
0000
0000
0000
0000
0110
0000
0000
0000
0100
0010
1000
0100
,
0010
0000
0000
0000
1001
0001
1001
1000
,
1001
0000
0000
0000
0000
0000
0000
0000
1001
0000
1000
0000
0001
0010
0100
1000
,
0100
0000
0000
1001
,
0001
0000
0001
0000
1000
0001
0000
1000
0000
1000
0001
0010
0100
1000
0001
0010
,
0100
0000
0000
0000
0100
0000
0000
0000
1000
0000
0001
0000
0000
0000
0010
0000
0000
0000
0010
0000
0001
0000
1000
0000
0100
0000
1000
0100
1000
0000
0010
0000
,
0100
0000
0100
0000
0001
1000
0000
0001
0000
0001
1000
0100
0010
0001
1000
0100
,
0010
0000
0010
0000
0001
1000
0000
1010
0000
1010
1000
0001
0010
0000
1001
0000
,
0001
0000
0000
0100
0000
0000
0001
0000
1000
0000
0000
0100
0000
0000
1000
0001
,
1000
0000
0100
0000
0010
0001
0010
0001
0010
0000
0000
0001
0000
0000
1000
0000
,
0001
0000
0000
0010
0000
0000
0001
0000
1000
0000
0000
0010
0000
0000
1000
0001
,
1000
0000
0010
0000
0100
0000
0001
0000
1000
0000
0000
0100
0000
0000
1000
0000
,
1001
0101
1001
0101
,
1100
1001
1100
1001
,
0001
0000
0010
0000
0100
0000
1000
0000
0001
0100
0001
0100
0001
1000
0001
1000
,
0002
0000
0000
1003
,
0001
0000
1000
0020
0000
0000
1030
0000
0001
0000
0010
0002
0000
0000
0103
0010
,
0100
0000
0010
0000
1000
0001
1000
0001
1000
0000
0000
0100
0000
0000
0010
0000
,
0100
0000
1000
0020
0000
0000
0130
0000
0001
0000
1000
0200
0000
0000
1300
0001
,
1000
0000
0100
0000
0100
0000
0010
0000
0002
0000
0000
0100
0000
0000
0103
0000
,
1001
0000
0001
2000
0000
0000
3001
0000
0100
0000
0010
0200
0000
0000
0301
1000
,
0001
0000
0010
0000
0100
1000
0100
1000
0100
0000
1000
0002
0000
0000
0013
0000
,
0100
0000
1000
0020
0000
0000
0130
0000
0001
0000
1000
0200
0000
0000
1300
0001
,
1000
0000
0100
0000
0010
0001
0010
0001
1000
0001
1000
0001
1000
0001
1000
0000
,
0000
0000
0000
0001
1000
0000
0001
0000
0100
0000
0000
0001
1000
0000
0100
0000
,
0010
0000
0000
0100
1000
0000
0001
0000
0010
0000
0000
0001
1000
0000
0001
0000
,
0010
0000
0000
0001
1000
0000
0100
0000
0010
0000
0000
0100
1000
0000
0010
0000
,
0100
0000
0000
0001
1000
0000
0100
0000
0010
0000
0000
0001
1000
0000
0100
0000
,
1100
0000
0000
0000
0000
0000
0000
0000
1001
0000
0000
0000
1000
0100
0010
0001
,
0010
0000
0000
0000
1001
1000
1001
0001
,
1001
0000
0000
0000
0000
0000
0000
0000
1001
0000
1000
0000
0001
0100
0010
1000
,
0010
1010
1010
0000
,
1000
0100
0010
0001
1000
0100
0010
0001
,
1000
0010
0100
0001
1000
0010
0100
0001
,
1000
0100
0010
0100
1000
0100
0010
0100
,
1000
0001
0100
0010
0100
0001
0100
0001
,
1001
1000
0100
0010
0001
1000
0010
1000
,
0001
1000
0010
1000
0001
0010
0100
1000
,
0001
0010
0100
1000
0001
1000
0100
1000
,
1001
0000
0000
0000
0000
0000
0000
0000
0001
1000
0001
1000
0100
1000
0100
0000
;

//---------------dance-double - ----------------
#NOTES:
     dance-double:
     :
     Easy:
     6:
     0.269,0.341,0.129,0.194,0.000:
00000000
00000000
00000000
00000000
,
00000000
00000000
00000000
00000000
,
00000000
00000000
00000000
00000000
,
00000000
00000000
00000000
00000000
,
00000000
00000000
00000000
00000000
,
10000000
00010000
10000000
00010000
,
01000000
00100000
01000000
00100000
,
01000000
00001000
01000000
00001000
,
00011000
00000000
00000000
00000000
,
00011000
00000000
00000000
00011000
,
00000000
00000000
00000000
00000000
,
00000110
00000000
00000000
00000110
,
00000000
00000000
00000000
00000000
,
00011000
00000000
00000000
00011000
,
00000000
00000000
00000000
00000000
,
01100000
00000000
00000000
01100000
,
00000000
00000000
00000000
00000000
,
20000000
00000000
00100000
00000000
,
00100000
00000000
30100000
00000000
,
02000000
00000000
00001000
00000000
,
00001000
00000000
03001000
00000000
,
00010000
00000100
00010000
00000000
,
00000010
00000100
00000010
00000000
,
00001000
00000001
00001000
00000001
,
00001000
00000000
00000000
00000000
,
00001001
00000000
00000001
00000000
,
00010000
00000000
00000100
00000000
,
00000010
00000000
00000001
00000000
,
00000100
00000000
00000001
00000000
,
00010000
00000000
00010000
00000000
,
00001000
00000000
00001000
00000000
,
10000000
00010000
10000000
00010000
,
20000000
00000000
00000000
00000000
,
30010000
10000000
01000000
00000000
,
10000000
01000000
10000000
00000000
,
00001000
00100000
00001000
00000000
,
00010000
00001000
00010000
00000100
,
00010000
00000100
00010000
00000000
,
00000001
00001000
00000001
00000000
,
00000100
00000001
00000100
00000000
,
00000010
00000010
00000110
00000000
,
00000100
00000010
00010000
00000000
,
00001000
00100000
01000000
00000000
,
10000000
00100000
01000000
00000000
,
00010000
00100000
01000000
00000000
,
10000000
00001000
10000000
00001000
,
00010000
00000100
00010000
00000100
,
00001000
00000100
00000010
00000001
,
00010000
00000000
00000000
00000000
,
00012000
00000000
00000000
00000000
,
00203000
00000000
00000000
00000000
,
02300000
00000000
00000000
00000000
,
23000000
00000000
30010000
00000000
,
10010000
00000000
00000000
00000000
,
10000000
00000000
00000000
00000000
,
00100000
00000000
00000000
00000000
,
01000000
00000000
00000000
00000000
,
00001000
00010000
00001000
00000000
,
00010000
00000010
00010000
00000000
,
00000100
00000010
00000100
00000010
,
00000200
00000000
00000000
00000000
,
00001300
00000001
00001000
00000000
,
00000001
00000100
00000010
00000100
,
00000001
00001000
00000001
00000000
,
00000010
00000100
00010000
00000000
,
00001000
00010000
00001000
00000000
,
01000000
00100000
10000000
00100000
,
10000000
00010000
10000000
00000000
,
01000000
00100000
01000000
00000000
,
10010000
10000000
10000000
10000000
,
00010000
00010000
00010000
00010000
,
01000000
01000000
01000000
01000000
,
00001000
00001000
00001000
00000000
,
00010000
00000000
00011000
00000000
,
00010000
00000000
00010001
00000000
,
00000001
00000010
00000100
00001000
,
00020000
00000000
00000000
00000000
,
00032000
00000000
02003000
00000000
,
03200000
00000000
20300000
00000000
,
30200000
00000000
02300000
00000000
,
03002000
00000000
00023000
00000000
,
00030200
00000000
00000320
00000000
,
00000032
00000000
00000023
00000000
,
00000230
00000000
00020300
00000000
,
00032000
00000000
00013000
00000000
;

//---------------dance-double - ----------------
#NOTES:
     dance-double:
     :
     Medium:
     9:
     0.451,0.548,0.363,0.137,0.012:
00000000
00000000
00000000
00000000
,
00000000
00000000
00000000
00000000
,
00000000
00000000
00000000
00000000
,
00000000
00000000
00000000
00000000
,
00000000
00000000
00000000
00000000
,
10000000
00010000
10000000
00010000
,
01000000
00100000
01000000
00100000
,
10000000
01000000
00100000
00010000
,
02000000
00000000
00000000
00000000
,
03001000
00000000
00000000
00011000
00000000
00000000
00001000
00000000
,
00000000
00011000
00000000
00000000
00000000
00000000
00000000
00000000
,
00000010
00000000
00000000
00000110
00000000
00000000
00000010
00000000
,
00000000
00000110
00000000
00000000
00000000
00000000
00000000
00000000
,
00010000
00000000
00000000
00010100
00000000
00000000
00010000
00000000
,
00000000
00010100
00000000
00000000
00000000
00000000
00000000
00000000
,
10000000
00000000
00000000
10010000
00000000
00000000
10000000
00000000
,
00000000
10010000
00000000
00000000
00000000
00000000
00000000
00000000
,
10000000
01000000
00100000
01000000
,
10001000
00010000
00000010
00000100
,
00000001
00000100
00000010
00010000
,
00001000
00000000
00100000
00000000
01000000
00000000
10000000
00100000
,
10000000
00010000
10010000
10010000
,
00001000
00010000
00001000
00000000
00011000
00000000
00011000
00000000
,
00000010
00000100
00000001
00000100
00000010
00010000
00000100
00010000
,
00002000
00000000
00000000
00003000
,
00020000
00001000
00001000
00031000
,
02000000
00010000
00010000
03010000
,
20000000
00001000
00001000
30001000
,
00020000
00000100
00000100
00030100
,
00001000
00000001
00001000
00000000
00000001
00010000
00000001
00000000
,
00010000
00001000
00010000
00000000
00001000
01000000
00001000
00000000
,
01000000
00100000
01000000
00100000
10000000
01000000
00100000
00001000
,
00010000
00000000
00000000
00000000
,
00001000
00010000
00001000
00000000
01001000
00000000
01001000
00000000
,
00010000
00000100
00010000
00000000
10010000
00000000
10010000
00000000
,
00100000
10000000
00100000
00000000
10100000
00000000
10100000
00000000
,
10000000
00000100
00100000
00000000
00000100
00000100
00000200
00000000
,
01000300
00010000
01000000
00000000
01100000
00000000
01100000
00000000
,
10000000
00010000
10000000
00000000
11000000
00000000
11000000
00000000
,
00010000
10000000
00010000
00000000
10010000
00000000
10010000
00000000
,
01100000
01100000
01100000
00000000
,
00010000
10000000
00010000
00000000
00100000
10000000
00000100
00000000
,
00010000
00100000
00010000
00000000
10000000
00100000
00000100
00000000
,
00010000
10000000
00010000
00000000
00100000
10000000
00000100
00000000
,
00020200
00000000
00000000
00000000
00030300
00000000
10000000
00100000
,
10000000
00000000
00000000
00000000
10000000
00000000
00000100
00100000
,
00000001
00000000
00000000
00000000
10000000
00000001
10000000
00000001
,
00000100
00000000
00000000
00000000
00000001
10000000
00000001
10000000
,
00100000
00000000
00000000
00000000
,
00200000
00000000
00000000
00000000
,
00302000
00000000
00000000
00000000
,
00203000
00000000
00000000
00000000
,
00302000
00000000
00000000
00000000
00000000
00000000
00000000
00103000
00000000
00001000
00100000
00001000
00100000
00000000
00000000
00000000
,
00000010
00001000
00000001
00000100
,
00000010
00001000
00000001
00000100
,
00000010
00001000
00000001
00000100
,
00000010
00001000
00000001
00000100
,
00000001
00000100
00000001
00000100
,
00001000
00000001
00001000
00000001
,
00001000
00100000
00001000
00100000
00001000
00100000
00001000
00100000
,
00000200
00000000
00000000
00000000
,
10000300
00000000
00000100
00100000
00000001
00100000
00000001
00000000
,
10000000
10000000
00100000
00000000
00000100
00000000
00100100
00000000
,
00000001
00000000
00000100
00100000
00000100
00100000
10000000
00000000
,
00000100
00000100
00100000
00000000
00000001
10000000
00000001
00000000
,
00010000
00000000
00010100
00000000
00000100
10000000
00100000
00000000
,
00010000
00010000
00000100
00000000
00100000
00000000
00100100
00000000
,
00010000
00000000
00010100
00000000
00000100
00100000
10000000
00000000
,
00100000
00000100
10000000
00000100
00100000
00000000
00000000
00000000
,
00100000
01100000
01010000
01010000
,
10000000
00100000
00010000
00100000
20000000
00000000
30100000
00000000
,
01100000
01100000
00110000
00110000
,
10000000
01000000
00010000
01000000
20000000
00000000
31000000
00000000
,
00010100
00000000
00000000
00000000
10100000
00000000
00100000
10000000
,
00000100
00000000
00000000
00000000
00010000
00000100
00010000
00000100
,
00100000
00000000
00000000
00000000
00000100
00010000
00000100
00010000
,
10000000
10000000
10010000
00000000
,
10000000
00100000
00000100
00000001
,
10000000
00100000
00000100
00000001
,
10000000
00000100
00100000
00000001
,
10000000
00000100
00100000
00000001
,
00101000
00000001
00000100
00100000
,
00001000
00000001
00000100
00100000
,
00001000
00000100
00000001
00100000
,
00000101
00000000
00000100
00000000
00002000
00000000
00000000
00003000
;

//---------------dance-double - ----------------
#NOTES:
     dance-double:
     :
     Hard:
     12:
     0.601,0.651,0.363,0.315,0.230:
00000000
00000000
00000000
00000000
,
00000000
00000000
00000000
00000000
,
00000000
00000000
00000000
00000000
,
00000000
00000000
00000000
00000000
,
00000000
00000000
00000000
00000000
,
00011000
00000000
00001000
00000000
00001000
00000000
00001000
10000000
,
00100000
00000000
00100000
00000000
00100000
00000000
00100000
01000000
,
00001000
00010000
00001000
00010000
00000010
00000100
00000001
00010000
,
00002000
00000000
00000000
00013000
,
00011000
00000000
00000000
01100000
00000000
00000000
11000000
00000000
,
00000000
02200000
00000000
00000000
00000000
00000000
03300000
00000000
,
00011000
00000000
00000000
00000110
00000000
00000000
00000101
00000000
,
00000000
00000220
00000000
00000000
00000000
00000000
00000330
00000000
,
00011000
00000000
00000000
01100000
00000000
00000000
10100000
00000000
,
00000000
02200000
00000000
00000000
00000000
00000000
03300000
00000000
,
00011000
00000000
00000000
00000110
00000000
00000000
00000011
00000000
,
00000000
00000220
00000000
00000000
00000000
00000000
00000330
00000000
,
00001000
00000000
00001001
00000000
00000001
00000100
00000010
00000000
,
00010000
00000000
00011000
00000000
01000000
00100000
10000000
00000000
,
01000000
00000000
11000000
00000000
01000000
00100000
00010000
00000000
,
00001000
00000000
00011000
00000000
00010000
00000010
00000100
00000000
,
00001001
00001000
00001001
00000011
,
00000011
00010000
00010100
00011000
,
00010000
00001000
00100000
01000000
10000000
01000000
00100000
00001000
,
00020000
00000000
00000000
00031000
,
00010000
00000000
00000000
00001000
00000000
00000000
00010000
00000000
00000010
00000000
00000000
00000100
00000000
00000000
00000010
00000000
,
00010000
00000000
00000000
00001000
00000000
00000000
00010000
00000000
00000010
00000000
00000000
00000100
00000000
00000000
00000010
00000000
,
00010000
00000000
00000000
00001000
00000000
00000000
01000000
00000000
00010000
00000000
00000000
10000000
00000000
00000000
00010000
00000000
,
00100000
00000000
00000000
00001000
00000000
00000000
10000000
00000000
00010000
00000000
00000000
10000000
00000000
00000000
00010000
00000000
,
00100000
01000000
10000000
00010000
00100000
00010000
10000000
01000000
,
00100000
00001000
00010000
00000100
00000010
00000001
00000010
00000100
,
00001000
00000010
00001000
00000100
00010000
00001000
01000000
00100000
,
02000000
00000000
03000000
01100000
,
00010000
01000000
00010000
01000000
00001000
00100000
01000000
00000000
,
00001000
00010000
00000010
00000100
00000010
00010000
00001000
00000000
,
00010000
00000100
00000010
00000001
00000010
00000100
00010000
00000000
,
00001000
00000000
01000000
00000000
00100000
00000000
10000000
00000000
01000000
00100000
01000000
00100000
01000000
00000000
00000000
00000000
,
10000000
00100000
00010000
00100000
01000000
00001000
00010000
00000000
,
00001000
00010000
00000100
00000010
00000100
00010000
00001000
00000000
,
00010000
00000010
00000001
00000010
00000100
00000001
00010000
00000000
,
00011000
00011000
02002000
03003000
,
02000000
00000000
00000000
03200000
00000000
00000000
20300000
00000000
00000000
32000000
00000000
00000000
03000000
00000000
00000000
00000000
,
20000000
00000000
00000000
30200000
00000000
00000000
02300000
00000000
00000000
03002000
00000000
00000000
00003000
00000000
00000000
00000000
,
00020000
00000000
00000000
00030200
00000000
00000000
00000320
00000000
00000000
00000032
00000000
00000000
00000003
00000000
00000000
00000000
,
00002002
00000000
00000000
00000000
00000000
00000000
00000000
00000000
00003003
00000000
00000000
00000000
00000010
00000100
00000010
00000100
,
00000010
00000000
00000000
00000000
00000000
00000000
00000000
00000000
00011000
00000000
00000000
00000000
00001000
00010000
00001000
00010000
,
00001000
00000000
00000000
00000000
00100000
00100000
00100000
00100000
,
01000000
00000000
00000000
00000000
00000000
00000000
00000000
00000000
10000000
00000000
10000000
00000000
00001000
00010000
00001000
00010000
,
00001000
00000000
00000000
00011000
,
00000010
00000000
00000010
00000000
00001000
00000001
00000000
00001000
00000000
00001000
00000100
00000010
00000001
00000000
00000000
00000000
,
00010000
00000000
00010000
00000000
00001000
01000000
00000000
00010000
00000000
00010000
00100000
01000000
10000000
00000000
00000000
00000000
,
00001000
00000000
00001000
00000000
00010000
00000010
00000000
00001000
00000000
00001000
00000001
00000010
00000100
00000000
00000000
00000000
,
00010000
00000000
00010000
00000000
00001000
01000000
00000000
00010000
00000000
00010000
10000000
00100000
01000000
00000000
01100000
00000000
,
00200000
10000000
02300000
00010000
,
03002000
01000000
00023000
00001000
,
00032000
01000000
00023000
00000100
,
00030200
00001000
00020300
00000100
,
00030100
00010100
00000100
00001100
,
00001000
00001001
00000001
00000011
,
00000010
00000001
00010000
00000100
00010000
00001000
00100000
01000000
,
20000000
00000000
00000000
30010000
,
10000000
00000000
00000000
10000000
00000000
00000000
00010000
00000000
01000000
00000000
00000000
01000000
00000000
00000000
00001000
00000000
,
00001000
00010000
00000100
00000010
00000002
00000000
00000103
00000000
,
00000001
00000000
00000000
00000001
00000000
00000000
00001000
00000000
00000100
00000000
00000000
00000100
00000000
00000000
00010000
00000000
,
00010000
00001000
00100000
01000000
00200000
00000000
00310000
00000000
,
10010000
00000000
00000000
10000000
00000000
00000000
00100000
00000000
01000000
00000000
00000000
01000000
00000000
00000000
00001000
00000000
,
00001000
00010000
00000100
00000010
00000200
00000000
00001300
00000000
,
00000010
00000000
00000000
00000010
00000000
00000000
00001000
00000000
00000001
00000000
00000000
00000001
00000000
00000000
00000100
00000000
,
00000100
00000001
00000010
00000100
00010000
00101000
01000000
00000000
,
10000000
00000000
00000000
10000000
00010000
00000000
00100000
00000000
01000000
00000000
00000000
10000000
00001000
00000000
00100000
00000000
,
00001000
00000000
00000000
00010000
00000010
00000000
00000100
00000000
00000001
00000000
00000000
00000100
00000010
00000000
00001000
00000000
,
00010000
00000000
00000000
00001000
00100000
00000000
01000000
00000000
10000000
00000000
00000000
00010000
10000000
00000000
00100000
00000000
,
10000000
00000000
00000000
00100000
01000000
00000000
00001000
00000000
00010000
00000000
00000100
00000000
00001000
00000000
00000010
00000000
,
00000110
00000000
00000000
00000000
00000000
00000000
00000000
00000000
00001001
00000000
00000000
00000000
00001000
00000100
00001000
00000100
,
00001000
00000000
00000000
00000000
00010000
00010000
00010000
00010000
,
00001000
00000000
00000000
00000000
00000000
00000000
00000000
00000000
10000000
00000000
10000000
00000000
00100000
01000000
00100000
01000000
,
00100000
01100000
01100000
00000000
,
10000000
01000000
00100000
00000000
00100000
01000000
10000000
00000000
,
00100000
01000000
00001000
00000000
00001000
01000000
00100000
00000000
,
01000000
00001000
00010000
00000000
00010000
00000010
00000100
00000000
,
00000001
00000010
00000100
00000000
00000100
00000010
00000001
00000100
,
00000010
00010000
00001000
00000000
00100000
01000000
10000000
00000000
,
10000000
01000000
00100000
00000000
00001000
00010000
00000010
00000000
,
00000010
00010000
00001000
00000000
00010000
00000100
00000010
00000001
,
00001000
00000000
00000000
00000000
00000001
00000100
00000010
00010000
;

//---------------dance-double - ----------------
#NOTES:
     dance-double:
     :
     Challenge:
     15:
     0.792,0.890,0.476,0.460,0.589:
00000000
00000000
00000000
00000000
,
00000000
00000000
00000000
00000000
,
00000000
00000000
00000000
00000000
,
00000000
00000000
00000000
00000000
,
00000000
00000000
00000000
00000000
,
00010000
10000000
00010000
10000000
00010000
10000000
00010000
00100000
,
00001000
00010000
00001000
00010000
00001000
00010000
00000100
00000010
,
00000001
00000000
00010000
00000000
00000010
00000000
00000100
00000000
00000001
00001000
00000001
00001000
00000100
00010000
00000100
00010000
,
00000200
00000000
00000000
00010300
,
00022000
00000000
00033000
00220000
00000000
00330000
02200000
00000000
,
03300000
22000000
00000000
00000000
00000000
00000000
33000000
00000000
,
02020000
00000000
03030000
00022000
00000000
00033000
00020200
00000000
,
00030300
00000220
00000000
00000000
00000000
00000000
00000330
00000000
,
00002002
00000000
00003003
00020200
00000000
00030300
00022000
00000000
,
00033000
00202000
00000000
00000000
00000000
00000000
00303000
00000000
,
20020000
00000000
30030000
22000000
00000000
33000000
02002000
00000000
,
03003000
00022000
00000000
00000000
00000000
00000000
00033000
00000000
,
00011000
00000000
00010000
00000010
00000100
00000001
00001000
00000000
,
00001001
00000000
00000010
00000100
00010000
00000100
00000010
00000000
,
00000110
00000000
00000010
00010000
00001000
01000000
00100000
00000000
,
01100000
00000000
00100000
10000000
01000000
00100000
00001000
00000000
,
00101000
00011000
00101000
00011000
,
00011000
00010001
00001001
00000011
,
00000010
00000000
00000001
00000000
00000100
00000000
00000010
00000000
00010000
00000010
00010000
00000010
00010000
00001000
00010000
00001000
,
00020000
00000000
00000000
00031000
,
02000000
00000000
00000000
00010000
00000000
00000000
03010000
00000000
20000000
00000000
00000000
01000000
00000000
00000000
31000000
00000000
,
00200000
00000000
00000000
00001000
00000000
00000000
00001000
00300000
00020000
00000000
00000000
00000100
00000000
00000000
00030100
00000000
,
00002000
00000000
00000000
00000010
00000000
00000000
00003010
00000000
00000200
00000000
00000000
00000001
00000000
00000000
00000301
00000000
,
00020000
00000000
00000000
00000100
00000000
00000000
00030100
00000000
00020000
00000000
00000000
00001000
00000000
00000000
00031000
00000000
,
10000000
00000000
01000000
00000000
00100000
00000000
01000000
00000000
10000000
00000000
00010000
00000000
00100000
00000000
00001000
00010000
,
00001000
00000000
00010000
00000000
00000010
00000000
00000100
00000000
00000001
00000000
00000100
00000000
00000010
00000000
00010000
00001000
,
00010000
00000000
00000100
00000000
00010000
00000000
00000100
00000000
00010000
00001000
00010000
00001000
00100000
00010000
00100000
00010000
,
00200000
00000000
00300000
10010000
,
00010000
00000000
10000000
00100000
00000000
10000000
00100000
00000000
10000000
00000000
00001000
00010000
00000000
00001000
00010000
00000000
,
00000010
00000000
00000100
00000001
00000000
00000100
00000001
00000000
00001000
00000000
00000100
00010000
00000000
00000100
00010000
00000000
,
00001000
00000000
00100000
01000000
00000000
00100000
01000000
00000000
10000000
00000000
00010000
00100000
00000000
00010000
00100000
00000000
,
00001000
00000000
00010000
00000010
00000000
00010000
00000010
00000000
00000100
00000010
00000100
00000010
00000100
00000000
00000000
00000000
,
00000001
00000000
00000010
00000001
00000000
00000100
00000010
00000000
00000100
00000000
00000010
00001000
00000000
00000001
00001000
00000000
,
00000100
00000000
00010000
00001000
00000000
01000000
00010000
00000000
10000000
00000000
01000000
10000000
00000000
00010000
10000000
00000000
,
00100000
00000000
01000000
00001000
00000000
00010000
00001000
00000000
00010000
00000000
00000100
00000010
00000000
00000001
00000100
00000000
,
00000010
00000010
00010000
00010000
00022000
00000000
00033000
00000000
,
00001000
00000000
10000000
00100000
00000000
10000000
00010000
00000000
00100000
00000000
01000000
10000000
00000000
00010000
00100000
00000000
,
00001000
00000000
00010000
00000100
00000000
00001000
00000100
00000000
00010000
00000000
00000010
00000100
00000000
00000001
00000010
00000000
,
00000100
00000000
00010000
00000100
00000000
00010000
00001000
00000000
01000000
00000000
00100000
10000000
00000000
01000000
00100000
00000000
,
01100000
00000000
00000000
00000000
00000000
00000000
00000000
00000000
10000000
00010000
10000000
00010000
10000000
01000000
00100000
00010000
,
01000000
00000000
00000000
00000000
00000000
00000000
00000000
00000000
01100000
00000000
00000000
00000000
00100000
01000000
00001000
00010000
,
00001000
00000000
00000000
00000000
00011000
00010000
00010010
00000010
,
00000110
00000000
00000000
00000000
00000000
00000000
00000000
00000000
00000100
00000000
00000100
00000000
00000001
00000100
00000010
00001000
,
00000100
00000000
00000000
00001001
,
00000001
00000000
00000001
00000000
00001000
00000001
00000000
00000100
00000000
00000100
00000001
00000010
00000100
00010000
00001000
00100000
,
01000000
00000000
00000000
00000000
01000000
00000000
00000000
00000000
10000000
00000000
00010000
00000000
00000000
00000000
00100000
00000000
00000000
00000000
00100000
00000000
00010000
00000000
10000000
00000000
00100000
00000000
01000000
00100000
01000000
00000000
00001000
00000000
,
00010000
00000000
00010000
00000000
00000010
00000100
00000000
00000001
00000000
00000001
00001000
00000010
00000100
00000001
00010000
00001000
,
01000000
00000000
01000000
00000000
00100000
01000000
00000000
10010000
00000000
10010000
10000000
00001000
00011000
00000000
00010001
00000000
,
00000001
00000000
00000000
00000100
00000000
00000000
00000001
00000000
00010000
00000000
00000000
00000100
00000000
00000000
00010000
00000001
,
00010000
00000000
00000010
00000000
00000100
00000010
00000100
00000010
00000100
00000000
00000000
00000001
00000000
00000000
00001000
00000000
,
00000001
00000000
00000000
00000010
00000000
00000000
00000001
00000000
00010000
00000000
00000000
00000100
00000000
00000000
00010000
00001000
,
00010000
00000000
00000010
00000000
00000100
00000000
00000001
00000000
00020000
00000000
00000000
00001000
00000000
00000000
00031000
00000000
,
00011000
01001000
00011000
01001000
,
01001000
01100000
10010000
01100000
,
00100000
00000000
01000000
00000000
10000000
00000000
00010000
00000000
01000000
00001000
01000000
00001000
00010000
00001000
00010000
00001000
,
00020000
00000000
00000000
00031000
,
01000000
00000000
00100000
20000000
00000000
00000000
30010000
00000000
00100000
00000000
00001000
00020000
00000000
00000000
00030010
00001000
,
00000010
00000000
00000100
00000000
00000001
00001000
00000001
00001000
00000002
00000000
00000000
00010000
00000000
00000000
00010003
00000000
,
00001000
00000000
00100000
02000000
00000000
00000000
03100000
00000000
00010000
00000000
10000000
00200000
00000000
00000000
10300000
00010000
,
10000000
00000000
01000000
00000000
01000000
00000000
00100000
00000000
00002000
00000000
00000000
00010000
00000000
00000000
00013000
00000000
,
00011000
00000000
00001000
00020000
00000000
00000000
00030100
00000000
00001000
00000000
00000010
00000200
00000000
00000000
00000301
00001000
,
00000001
00000000
00000010
00000000
00000100
00010000
00000100
00010000
00000100
00000000
00000000
00010000
00000000
00000000
00001000
00000000
,
01000000
00000000
00100000
20000000
00000000
00000000
30010000
00000000
00100000
00000000
00001000
00020000
00000000
00000000
00031000
10000000
,
00001000
00000000
00100000
00000000
01000000
10000000
01000000
10000000
00001000
01000000
00001000
01000000
00001000
01000000
00001000
00000000
,
00000000
00000000
00000000
00010000
00000100
00000000
00001000
00000000
00000010
00000000
00000000
00001000
00000001
00000000
00000010
00000000
,
00000100
00000000
00000000
00010000
00000100
00000000
00010000
00000000
00001000
00000000
00000000
00100000
01000000
00000000
10000000
00000000
,
00100000
00000000
00000000
01000000
00010000
00000000
10000000
00000000
01000000
00000000
00000000
00100000
00001000
00000000
00010000
00000000
,
00000100
00000000
00000000
00001000
00000001
00000000
00000010
00000000
00000100
00000000
00000000
00010000
00001000
00000000
01000000
00000000
,
01100000
00000000
00000000
00000000
00000000
00000000
00000000
00000000
10010000
00000000
00000000
00000000
10000000
01000000
00100000
00010000
,
00100000
00000000
00000000
00000000
01100000
01000000
01001000
00001000
,
00011000
00000000
00000000
00000000
00000000
00000000
00000000
00000000
00011000
00000000
00010000
00000000
00000001
00000100
00000010
00001000
,
00000100
00001100
00001100
00000000
,
00001000
00000100
00000010
00000001
00001000
00000100
00000010
00000001
,
00010000
00000010
00000100
00000001
00010000
00000010
00000100
00000001
,
00010000
00000100
00001000
00000100
00010000
00001000
00010000
00000100
,
00001000
00000100
00010000
00001000
01000000
00100000
01000000
00010000
,
10010000
10000000
01000000
00100000
00010000
10000000
01000000
00100000
,
00001000
10000000
00100000
01000000
00001000
10000000
00100000
01000000
,
00001000
00010000
00000100
00000010
00000100
00010000
00001000
00010000
,
00010100
00000000
00000000
00000000
00000000
00000000
00000000
00000000
00010000
00000100
00010000
00000100
00000010
00000001
00000010
00000000
;

//---------------dance-single - ----------------
#NOTES:
     dance-single:
     :
     Beginner:
     2:
     0.100,0.136,0.129,0.000,0.000: // measure 1
0000
0000
0000
0000
,  // measure 2
0000
0000
0000
0000
,  // measure 3
0000
0000
0000
0000
,  // measure 4
0000
0000
0000
0000
,  // measure 5
0000
0000
0000
0000
,  // measure 6
1000
0000
0000
0000
,  // measure 7
1000
0000
0000
0000
,  // measure 8
0001
0000
0000
0000
,  // measure 9
0001
0000
0000
0000
,  // measure 10
1001
0000
0000
0000
,  // measure 11
0000
0000
0000
0000
,  // measure 12
1001
0000
0000
0000
,  // measure 13
0000
0000
0000
0000
,  // measure 14
1001
0000
0000
0000
,  // measure 15
0000
0000
0000
0000
,  // measure 16
1001
0000
0000
0000
,  // measure 17
0000
0000
0000
0000
,  // measure 18
0100
0000
0000
0000
,  // measure 19
0000
0000
0000
0000
,  // measure 20
0010
0000
0000
0000
,  // measure 21
0000
0000
0000
0000
,  // measure 22
0100
0000
0000
0000
,  // measure 23
0000
0000
0000
0000
,  // measure 24
0010
0000
0000
0000
,  // measure 25
0100
0000
0000
0000
,  // measure 26
1001
0000
0000
0000
,  // measure 27
0001
0000
0000
0000
,  // measure 28
0001
0000
0000
0000
,  // measure 29
0001
0000
0000
0000
,  // measure 30
1001
0000
0000
0000
,  // measure 31
1000
0000
0000
0000
,  // measure 32
1000
0000
0000
0000
,  // measure 33
1001
0000
0000
0000
,  // measure 34
0010
0000
0000
0000
,  // measure 35
0100
0000
0000
0000
,  // measure 36
0010
0000
0000
0000
,  // measure 37
0100
0000
0000
0000
,  // measure 38
0001
0000
0000
0000
,  // measure 39
0010
0000
0000
0000
,  // measure 40
0001
0000
0000
0000
,  // measure 41
1000
0000
0000
0000
,  // measure 42
0001
0000
0000
0000
,  // measure 43
0010
0000
0000
0000
,  // measure 44
0100
0000
0000
0000
,  // measure 45
1000
0000
0000
0000
,  // measure 46
1001
0000
0000
0000
,  // measure 47
0001
0000
0000
0000
,  // measure 48
1001
0000
0000
0000
,  // measure 49
1000
0000
0000
0000
,  // measure 50
0110
0000
0000
0000
,  // measure 51
0000
0000
0000
0000
,  // measure 52
0010
0000
0000
0000
,  // measure 53
0000
0000
0000
0000
,  // measure 54
0110
0000
0000
0000
,  // measure 55
0100
0000
0000
0000
,  // measure 56
0010
0000
0000
0000
,  // measure 57
0100
0000
0000
0000
,  // measure 58
0001
0000
0000
0000
,  // measure 59
1000
0000
0000
0000
,  // measure 60
0001
0000
0000
0000
,  // measure 61
1001
0000
0000
0000
,  // measure 62
0001
0000
0000
0000
,  // measure 63
0010
0000
0000
0000
,  // measure 64
0100
0000
0000
0000
,  // measure 65
0010
0000
0000
0000
,  // measure 66
0001
0000
1000
0000
,  // measure 67
0001
0000
0000
0000
,  // measure 68
1000
0000
0001
0000
,  // measure 69
1000
0000
0000
0000
,  // measure 70
0100
0000
1000
0000
,  // measure 71
0010
0000
0000
0000
,  // measure 72
0100
0000
0010
0000
,  // measure 73
0100
0000
0000
0000
,  // measure 74
0010
0000
0100
0000
,  // measure 75
0001
0000
0000
0000
,  // measure 76
1001
0000
0000
0000
,  // measure 77
1000
0000
0000
0000
,  // measure 78
1001
0000
0000
0000
,  // measure 79
0000
0000
0000
0000
,  // measure 80
0000
0000
0000
0000
,  // measure 81
0000
0000
0000
0000
,  // measure 82
1001
0000
0000
0000
,  // measure 83
0000
0000
0000
0000
,  // measure 84
0000
0000
0000
0000
,  // measure 85
1001
0000
0000
0000
;
