#TITLE:Electron;
#SUBTITLE:;
#ARTIST:Yuk-cheung Chun feat. Misi Ke;
#TITLETRANSLIT:;
#SUBTITLETRANSLIT:;
#ARTISTTRANSLIT:;
#CREDIT:DigiMindAxel;
#BANNER:Electron.png;
#BACKGROUND:Electron-bg.png;
#LYRICSPATH:;
#CDTITLE:Deemo.png;
#MUSIC:Electron.ogg;
#METERTYPE:DDR X;
#OFFSET:-12.530;
#SAMPLESTART:35.539;
#SAMPLELENGTH:12.000;
#SELECTABLE:YES;
#BPMS:0.000=125.000,112.000=62.500,120.000=125.000;
#STOPS:;
#BGCHANGES:;

//---------------dance-single - ----------------
#NOTES:
     dance-single:
     :
     Easy:
     5:
     0.138,0.196,0.007,0.086,0.000:
1000
0000
0000
0000
,
0001
0000
0000
0000
,
0010
0000
0000
0000
,
0100
0000
0000
0000
,
0020
0000
0000
0000
,
0032
0000
0000
0000
,
2003
0000
0000
0000
,
3002
0000
0000
0000
,
0203
0000
0000
0000
,
0320
0000
0000
0000
,
0230
0000
0000
0000
,
0302
0000
0000
0000
,
1003
0000
1000
0000
,
0001
0000
0001
0000
,
0100
0000
0100
0000
,
0010
0000
0010
0000
,
1000
0000
1000
0000
,
0100
0000
0100
0000
,
0010
0000
0010
0000
,
0001
0000
0001
0000
,
1000
0000
0001
0000
,
1000
0000
0100
0000
,
1000
0000
0010
0000
,
0100
0000
0100
0000
,
0001
0000
1000
0000
,
0001
0000
0010
0000
,
0001
0000
0100
0000
,
0010
0000
0100
0000
,
0002
0000
1003
0000
,
0002
0000
1003
0000
,
0020
0000
0100
0000
,
0130
0000
0000
0000
,
0002
0000
0010
0000
,
0013
0000
0000
0000
,
0001
0000
1000
0000
,
0001
0000
0010
0000
,
0001
0000
1000
0000
,
0100
0000
0010
0000
,
0100
0000
1000
0000
,
0001
0000
0100
0000
,
0001
0000
1000
0000
,
0010
0000
0100
0000
,
0001
1000
0001
0000
,
1000
0100
1000
0000
,
0001
0010
0001
0000
,
0100
0010
0100
0000
,
0001
1000
0001
1000
,
0001
0100
0001
0100
,
0001
1000
0001
1000
,
0100
1000
0100
1000
,
0100
0000
0010
0000
,
0001
0100
0010
0000
,
0100
0000
0001
0000
,
0010
0100
1000
0000
,
0001
0000
0001
0000
,
1000
0100
0010
0000
,
0001
0000
1000
0000
,
0100
1000
0010
0000
,
0110
0000
0000
0000
,
0100
0000
0000
0000
,
0100
0000
0000
0000
,
0100
0000
0000
0000
;

//---------------dance-single - ----------------
#NOTES:
     dance-single:
     :
     Medium:
     7:
     0.273,0.283,0.007,0.029,0.007:
1000
0100
1000
0100
,
0010
0001
0100
0001
,
0100
0010
0100
0010
,
1000
0100
0010
0001
,
1000
0000
0001
1000
0001
0000
0000
1000
,
0001
0000
0000
0000
0100
0000
0000
0001
,
1000
0000
0100
0000
0010
0000
0000
0001
,
1000
0100
1000
0000
,
0001
0000
0010
0000
0100
1000
0010
0000
,
0100
0000
0000
0000
0001
0000
0010
0100
,
0010
0001
0100
0001
,
1000
0000
0000
0100
0010
0000
0000
0000
,
0001
0000
0100
0000
0001
0000
0000
1000
,
0100
0000
0010
0000
0001
0000
1000
0100
,
0010
0001
1000
0010
,
0100
0000
0010
0000
,
1000
0000
0001
0000
0010
0000
0100
1000
,
0010
0000
0000
0100
0000
0000
0100
0001
,
1000
0100
0010
0001
,
1000
0010
0010
0010
,
0100
0100
0001
0001
,
1000
0000
0100
0010
0001
0000
0010
0000
,
0100
1000
1000
0001
,
0001
0100
0001
0000
1000
0100
1000
0000
,
0010
0100
0001
0000
1000
0000
1000
0000
,
0001
1000
1000
1000
,
0001
1000
0100
0010
,
0000
0001
1000
0000
0100
0010
0100
0010
,
0200
0000
0000
1000
0000
0000
0000
0000
1300
0000
0000
0000
0000
0000
0000
0000
,
0020
0000
0000
0100
0000
0000
0000
0000
0130
0000
0000
0000
0000
0000
0000
0000
,
0001
1000
0001
1000
,
0020
0000
0000
0030
,
0100
0010
0100
0010
,
2000
0000
0000
3000
,
0001
1000
0001
0000
0010
0000
0100
0000
,
0010
0001
0010
0000
0100
0000
1000
0000
,
0010
0100
0010
0000
1000
0000
0001
0000
,
0100
0001
0100
0000
0001
0000
1000
0000
,
0100
0010
0100
0000
1000
0010
1000
0000
,
0001
0010
0100
1000
,
0010
0100
0010
0000
0100
0001
0100
0000
,
0001
1000
0100
0010
,
0001
1000
0001
1000
0001
0000
0010
0000
,
0100
0000
1000
0000
0010
0100
0010
0100
,
0001
0010
0100
0010
,
0001
0100
0001
0100
0001
0000
0010
0000
,
0100
0000
1000
0000
0010
0100
0010
0000
,
1000
0000
0100
0000
0010
0001
0010
0000
,
0001
0000
1000
0000
0010
0100
0001
0000
,
1000
0000
0100
0000
0010
0001
0100
0000
,
0001
1000
0001
0000
1000
0001
1000
0000
,
0100
1000
0100
0000
0010
0001
0010
0000
,
0001
1000
0001
0000
1000
0010
1000
0000
,
0001
0100
0001
0000
0010
0100
0010
0000
,
0001
1000
0001
0000
0100
0010
0100
0000
,
0001
1000
0001
0000
1000
0100
1000
0000
,
0010
0100
0100
0100
,
0001
1000
0100
0010
,
1001
0000
0000
0000
,
1000
0000
0000
0000
,
1000
0000
0000
0000
,
1000
0000
0000
0000
;

//---------------dance-single - ----------------
#NOTES:
     dance-single:
     :
     Hard:
     9:
     0.389,0.392,0.036,0.121,0.129:
1000
0001
0000
0001
1000
0100
1000
0000
,
0010
0000
0100
0001
0000
0010
0000
0100
,
1000
0001
0000
0001
0000
0001
0100
0001
,
0010
0100
0000
0100
0000
0000
0000
0000
,
1000
0000
0100
0000
0010
0000
0001
0000
1000
0000
0000
0000
0000
0000
0100
0010
,
0100
0000
0000
0000
1000
0000
0000
0000
0010
0000
0000
0000
0100
0000
0001
1000
,
0001
0000
0000
0010
0000
0000
0100
0000
0200
0000
0000
0000
0000
0000
1000
0000
,
1300
0000
0100
0010
0001
0000
0010
0000
,
0100
0000
0000
1000
0000
0000
0001
0000
0010
0000
0000
0010
0000
0000
0001
0000
,
2000
0000
0001
3001
0000
1000
0010
0100
,
0010
0000
0000
1000
0000
0000
0001
0000
0010
0000
0000
0100
0000
0000
2000
0000
,
0000
0000
0001
3001
0000
0000
0000
0000
,
1000
0000
0100
0000
0010
0000
0001
0000
1000
0000
0000
0000
0000
0000
0010
1000
,
0010
0000
0000
0000
1000
0000
0000
0000
0001
0000
0000
0000
0010
0000
0100
1000
,
0100
0000
0000
1000
0000
0000
0001
0000
0100
0000
0000
0100
0000
0000
0002
0000
,
0000
0000
1000
1003
0000
0001
0000
0000
,
0010
0000
0000
0100
0000
0000
1000
0000
0001
0000
0000
0001
0000
0000
0200
0000
,
0000
0000
0010
0310
0000
1000
1000
0001
,
0001
0000
0000
0010
0000
0000
0100
0000
0010
0000
0000
0010
0000
0000
0002
0000
,
0000
1000
1000
1003
,
0001
0000
0010
0000
1000
0000
0010
0000
0001
0000
0000
1000
0000
0000
0100
0000
,
0000
0000
1000
0000
0010
0000
0001
0000
0010
0000
0000
1000
0000
0000
0001
0000
,
0000
0000
0010
0100
1000
0010
0001
0010
,
1000
0100
0010
0100
1000
0100
0010
0001
,
0100
0000
0000
0100
0000
0000
0100
0000
0001
0000
0000
0001
0000
0000
0001
0000
,
0000
0100
0001
0010
1000
0010
0001
0010
,
0100
0000
1000
0000
0000
1000
0000
0000
0001
0000
0000
0001
0000
0000
0100
0000
,
0000
0000
0010
0100
0010
0000
1000
0000
0100
0000
0010
0000
0001
0000
1000
0000
,
0100
0000
0000
0100
0000
1000
0001
0000
2002
0000
0000
0000
0000
0000
3003
0000
,
0010
0000
0000
0000
0000
0000
0010
0000
0000
0000
0001
0000
0000
1000
0000
0000
2002
0000
0000
0000
0000
0000
0000
0000
0000
0000
0000
0000
3003
0000
0000
0000
,
1000
0000
1000
0100
0010
0000
0001
0000
,
0200
0010
0010
0310
,
1000
0000
1000
0010
0100
0000
0001
0000
,
0020
0000
0000
0100
0000
0000
0130
0000
,
1000
0010
1000
0001
0010
0000
1000
0000
,
0010
0100
1000
0001
0100
0001
0010
0001
,
1000
0000
0100
0001
0100
1000
0100
0010
,
0001
1000
0001
0000
1000
0001
1000
0000
0100
0000
0010
0000
0001
0000
1000
0000
,
0100
0001
0100
0000
1000
0001
1000
0000
,
0100
0010
0100
2000
0000
0000
3010
0000
,
1000
0001
0100
0020
0000
0000
1030
0000
,
0001
0010
0100
0020
0000
0000
0031
0000
,
1000
0000
0001
0000
0001
0000
0010
0100
1000
0000
0000
1000
0000
0000
0010
0000
,
0100
0001
0010
1000
0010
0010
0001
0001
,
0000
0000
1000
0001
1000
0000
0100
0000
0010
0001
0010
0000
0001
1000
0001
0000
,
0100
0000
0010
0000
0100
0000
0010
1000
0002
0000
0000
0000
0000
0000
0000
0000
,
1003
0010
0001
0010
1000
0010
0001
0010
,
1000
0100
0001
0100
1000
0100
0001
0100
,
1000
0001
0010
1000
0010
0001
1000
0100
,
0010
0001
0100
1000
0100
0001
1000
0010
,
0100
0100
0000
0001
0001
0000
1000
1000
,
0000
0010
0010
0000
0100
0100
0000
0001
,
0001
0000
1000
1000
0000
0100
0100
0000
,
0010
0010
0000
0001
0001
0000
1000
1000
,
0001
0010
0100
0010
0001
0010
0100
0010
,
0001
1000
0010
1000
0001
1000
0010
1000
,
0001
0000
0000
0000
1000
0000
1000
0000
1000
0000
0000
0010
0000
0000
0100
0000
,
0001
0000
0000
1001
0000
0000
1100
0000
,
0110
0000
0000
0020
0000
0000
0000
0000
,
0130
0000
0000
0000
0000
0000
0001
1000
,
0001
0000
0000
0100
0000
0100
0000
0100
,
0010
0000
0000
0000
;

//---------------dance-single - ----------------
#NOTES:
     dance-single:
     :
     Challenge:
     11:
     0.490,0.637,0.214,0.100,0.304:
1000
0000
1000
0000
0000
0000
1000
0000
0010
0100
0000
0001
0000
0000
0001
0000
,
0100
0100
0010
1000
0000
1000
0000
0010
,
0100
0000
0001
0000
0000
0000
0001
0000
0000
0000
0001
0000
1000
0010
1000
0000
,
0100
0010
0000
0010
0000
0000
0000
0000
,
0001
0000
1000
0000
0100
0000
0001
0000
0200
0000
0000
0000
0000
0000
1300
0100
,
0010
0000
0000
0000
0001
0000
0100
0000
0010
0000
0000
0000
1000
0000
0100
0010
,
0001
0000
0000
0001
0100
0000
0010
0000
0200
0000
0000
0000
0000
0000
0001
0000
,
0301
0000
1000
0100
0000
0100
1000
0000
,
0001
0000
0000
0001
0100
0000
0010
0000
1000
0000
0000
1000
0001
0000
0010
0000
,
0002
0000
1000
1003
0000
0010
0010
0010
,
0100
0000
0000
0100
0001
0000
1000
0000
0100
0000
0000
0100
1000
0000
0020
0000
,
0000
0000
0100
0130
0000
0000
0001
0000
,
1000
0000
0010
0000
0001
0000
0010
0000
2000
0000
0000
0000
0000
0000
3100
0010
,
0001
0000
0000
0000
0100
0000
0010
0000
0100
0000
0010
0000
1000
0000
0100
0010
,
0001
0000
0000
0100
0010
0000
1000
0000
0100
0000
0000
0100
0010
0000
0002
0000
,
0000
0000
0100
0103
0000
0110
0000
0000
,
0100
0000
0000
0100
1000
0000
0100
0000
0010
0000
0000
0010
0001
0000
0200
0000
,
0000
0000
0010
0310
0000
1000
1000
1000
,
0001
0000
0000
0001
0100
0000
0001
0000
1000
0000
0000
1000
0100
0000
0020
0000
,
0000
0000
0031
0100
0001
1000
0100
0000
,
1000
0000
0001
0000
0010
0000
1000
0000
0010
0000
0000
0001
0000
0000
0110
0000
,
0000
0000
1000
0000
0100
0000
0001
0000
0100
0000
0000
1000
0000
0000
0110
0000
,
0000
0000
1000
0001
0100
1000
0100
0001
,
1000
0100
1000
0100
0010
0001
0010
0001
0100
0010
0100
0010
1000
0100
1000
0100
,
0010
0000
0000
0010
0001
0000
0100
0000
0010
0000
0000
0010
1000
0000
0001
0000
,
0000
1000
1000
1000
0001
0100
1000
0100
,
0001
0000
1000
0000
0100
1000
0000
0010
0100
0000
0001
0010
0000
0001
1000
0000
,
0000
0000
0000
1000
0010
0000
0100
0000
0001
0000
1000
0000
0010
0000
0001
0000
,
0010
0000
0000
1010
0000
0010
0100
0000
1002
0000
0000
0000
0000
0000
1003
0000
,
1100
0000
0000
0000
0000
0000
0110
0000
0000
0000
0010
0000
0000
0001
0000
0000
0200
0000
0000
0000
0000
0000
0000
0000
0000
0000
0310
0000
0000
0000
1000
0000
,
0100
0000
0000
0010
0000
0000
0001
0000
1000
0000
0000
0000
0010
0000
0000
1000
,
0002
1000
1000
1003
,
0110
0000
0100
1000
0000
1000
0010
0100
,
0001
0000
0000
1001
0000
0000
1010
0000
,
0100
1000
0100
0110
0000
0000
0101
0000
,
0001
0000
1000
0000
0000
1000
0000
0000
0010
0000
0000
0010
0000
0000
0110
0000
,
0000
0000
0000
0000
0000
1000
0001
1000
0100
0000
0100
0000
0010
0001
0010
0000
,
0001
1000
0001
1000
0010
1000
0010
0000
1000
0001
1000
0000
0001
0010
0001
0000
,
1000
0100
0010
0100
1000
0010
0100
0000
,
0001
1000
0100
0110
0000
0000
0101
0000
,
0001
1000
0100
0110
0000
0000
0101
0000
,
0001
1000
0100
0110
0000
0000
0101
0000
,
0001
0000
1000
0000
1000
0000
1000
0010
0100
0000
0000
0100
0000
0000
0100
0000
,
0001
0010
0000
0001
1000
0000
0100
0000
0010
0000
0010
0000
0100
0000
0100
0000
,
0000
0000
1000
0010
0100
0000
0001
0000
0010
0100
0010
0100
1000
0000
1000
0000
,
0001
0000
0100
0000
0001
0000
1000
0200
0000
0000
0000
0000
1300
0000
0000
0000
,
0001
0100
0001
0000
0100
0010
0100
0000
0001
0100
0001
0000
0100
0010
0100
0000
,
0001
1000
0001
0000
1000
0100
1000
0000
0001
1000
0001
0000
1000
0100
1000
0000
,
0010
0100
0010
0000
1000
0001
1000
0000
0100
1000
0100
0000
1000
0001
1000
0000
,
0001
0100
0001
0100
0001
1000
0100
1000
0100
0010
0001
1000
0010
1000
0010
0000
,
1001
0001
0100
0010
0010
1000
0100
0100
,
0010
0001
0001
0010
0100
0100
1000
0010
,
0010
0100
0001
0001
0010
0100
0100
1000
,
0001
0001
0100
0010
0010
1000
0001
0001
,
0010
0011
0001
1000
1010
0010
0100
0110
,
0010
0001
1001
1000
0100
0110
0010
0001
,
1001
0000
0000
0000
0100
0000
0100
0000
0100
0000
0000
1100
0000
0000
1001
0000
,
0001
0000
0000
0110
0000
0000
1100
0000
,
1000
0000
0001
0000
0010
0000
0100
0000
0000
0000
1000
0010
0000
0010
0000
0100
,
0002
0000
0000
0000
0003
0000
1000
0001
,
1000
0000
0100
0010
0000
0001
0000
0100
,
0020
0000
0030
0000
;

//---------------dance-double - ----------------
#NOTES:
     dance-double:
     :
     Easy:
     4:
     0.153,0.196,0.007,0.114,0.000:
10000000
00000000
00000000
00000000
,
00010000
00000000
00000000
00000000
,
00100000
00000000
00000000
00000000
,
00010000
00000000
00000000
00000000
,
00200000
00000000
00000000
00000000
,
00320000
00000000
00000000
00000000
,
20030000
00000000
00000000
00000000
,
30002000
00000000
00000000
00000000
,
00023000
00000000
00000000
00000000
,
00030200
00000000
00000000
00000000
,
00000320
00000000
00000000
00000000
,
00000230
00000000
00000000
00000000
,
00010300
00000000
00000010
00000000
,
00000010
00000000
00001000
00000000
,
00000100
00000000
00010000
00000000
,
00001000
00000000
00100000
00000000
,
01000000
00000000
01000000
00000000
,
10000000
00000000
10000000
00000000
,
00100000
01000000
00100000
01000000
,
00100000
00000000
10000000
00000000
,
00001000
00000000
00010000
00000000
,
00000010
00000000
00000100
00000000
,
00000001
00000000
00000010
00000000
,
00000100
00001000
00000100
00001000
,
00010000
00000000
01000000
00000000
,
00100000
01000000
00100000
01000000
,
00001000
00000000
00010000
00000000
,
00000100
00000000
00000010
00000001
,
00000200
00000000
00000310
00000000
,
00020000
00000000
00031000
00000000
,
00200000
00000000
01000000
00000000
,
01300000
00000000
00000000
00000000
,
20000000
00000000
00010000
00000000
,
30010000
00000000
00000000
00000000
,
10000000
00010000
10000000
00000000
,
00001000
01000000
00001000
01000000
,
00001000
00010000
00001000
00000000
,
00010000
00010000
00000010
00000010
,
00000200
00000000
00000310
00000000
,
00002000
00000000
00003001
00000000
,
00020000
00000000
00031000
00000000
,
02000000
00000000
03100000
00000000
,
10000000
00010000
10000000
00000000
,
00100000
01000000
00100000
00000000
,
01000000
00010000
01000000
00000000
,
00001000
00010000
00001000
00000000
,
00010000
00000100
00010000
00000100
,
00000010
00000001
00000010
00000001
,
00000100
00000010
00000100
00000010
,
00010000
00001000
00010000
00001000
,
01000000
00000000
00100000
00000000
,
10000000
00000000
01000000
00000000
,
00100000
00000000
00010000
00000000
,
00001000
00000000
00000010
00000000
,
00000100
00000000
00000001
00000000
,
00001000
00000000
00000100
00000000
,
00010000
00001000
00010000
00001000
,
00100000
00000000
01000000
00000000
,
01100000
00000000
00000000
00000000
,
01000000
00000000
00000000
00000000
,
01000000
00000000
00000000
00000000
,
01000000
00000000
00000000
00000000
;

//---------------dance-double - ----------------
#NOTES:
     dance-double:
     :
     Medium:
     7:
     0.293,0.283,0.007,0.029,0.007:
00010000
10000000
00010000
00100000
,
01000000
10000000
01000000
10000000
,
00100000
01000000
00001000
00010000
,
00001000
00010000
00000010
00000100
,
00000001
00000000
00001000
00000001
00001000
00000000
00000000
00000001
,
00001000
00000000
00000000
00000000
00000010
00000000
00000000
00010000
,
00001000
00000000
00100000
00000000
01000000
00000000
00000000
10000000
,
00010000
00100000
01000000
00000000
,
10000000
01000000
00100000
00000000
00010000
00100000
01000000
00000000
,
00100000
00000000
00001000
00000000
00010000
00001000
00010000
00001000
,
00010000
00000010
00000100
00000001
,
00010000
00000000
00000000
00001000
00010000
00000000
00000000
00000000
,
00001000
00000000
01000000
00000000
00100000
00000000
00000000
10000000
,
00010000
00000000
00100000
00000000
01000000
00000000
00100000
00010000
,
10000000
00000000
00100000
01000000
00010000
00000000
01000000
00100000
,
10000000
00010000
10000000
00000000
,
01000000
00000000
00100000
00001000
00100000
00000000
00001000
00010000
,
00001000
00000000
00010000
00000000
00000010
00000100
00000010
00000100
,
00000010
00001000
00000100
00000001
,
00000100
00001000
00000100
00010000
,
00001000
00010000
00001000
00000000
00100000
01000000
00100000
00000000
,
00010000
00000000
00100000
01000000
10000000
00000000
00100000
10000000
,
00010000
00000000
01000000
00100000
01000000
00100000
01000000
00000000
,
00100000
10000000
00001000
00000000
00010000
00000010
00000100
00000000
,
00000001
00001000
00000100
00000000
00001000
00000000
00001000
00000000
,
00000001
00000010
00000100
00000000
00010000
00000000
00010000
00000000
,
00001000
00100000
01000000
00000000
00100000
01000000
10000000
00000000
,
00000000
00100000
01000000
00000000
00010000
10000000
00010000
10000000
,
00002000
00000000
00000000
00010000
00000000
00000000
00000000
00000000
00013000
00000000
00000000
00000000
00000000
00000000
00000000
00000000
,
00000020
00000000
00000000
00000100
00000000
00000000
00000000
00000000
00000130
00000000
00000000
00000000
00000000
00000000
00000000
00000000
,
00000001
00000010
00000001
00000010
,
00000200
00000000
00000000
00000300
,
00010000
00001000
00010000
00001000
,
02000000
00000000
00000000
03000000
,
00100000
01000000
00100000
00000000
10000000
00000000
01000000
00000000
,
00100000
00001000
00100000
00001000
00100000
00001000
00100000
00000000
,
00001000
00010000
00001000
00000000
00010000
00000010
00000100
00000000
,
00000001
00001000
00000001
00000000
00010000
00000100
00010000
00000000
,
00001000
00100000
01000000
00000000
10000000
01000000
10000000
00000000
,
00010000
01000000
10000000
01000000
,
00001000
10000000
00001000
00000000
00010000
00001000
00010000
00000000
,
00000100
00000010
00000001
00001000
,
00000001
00000100
00000001
00000100
00000001
00000000
00000010
00000000
,
00000100
00000000
00010000
00000000
00001000
01000000
00001000
01000000
,
00100000
10000000
00010000
10000000
,
01000000
00000000
00100000
00001000
00010000
00000000
00000100
00000000
,
00000010
00000001
00000010
00000000
00000001
00001000
00000001
00000000
,
00000100
00000010
00000100
00000000
00010000
00000100
00010000
00000000
,
00001000
00010000
00001000
00000000
01000000
00100000
01000000
00000000
,
00010000
10000000
00010000
10000000
00010000
00000000
10000000
00000000
,
00100000
01000000
00000000
00100000
01000000
00000000
00001000
01000000
,
00000000
00001000
01000000
00000000
00010000
00001000
00000000
00010000
,
00001000
00000000
00000010
00000100
00000000
00000010
00000100
00000000
,
00000001
00000010
00000000
00000001
00000010
00000000
00000001
00010000
,
00000000
00000001
00010000
00000000
00001000
00010000
00000000
00001000
,
00010000
00000000
00001000
00100000
00000000
00001000
00100000
00000000
,
01000000
10000000
10000000
00010000
,
00100000
00000000
00000000
01000000
00000000
00000000
10000000
00000000
,
10001000
00000000
00000000
00000000
,
00001000
00000000
00000000
00000000
,
00001000
00000000
00000000
00000000
,
00001000
00000000
00000000
00000000
;

//---------------dance-double - ----------------
#NOTES:
     dance-double:
     :
     Hard:
     9:
     0.386,0.370,0.036,0.121,0.132:
10000000
10000000
00000000
01000000
00100000
00010000
10000000
00000000
,
10000000
00000000
00001000
00001000
00000000
00100000
00000000
00010000
,
00001000
00000100
00000000
00000100
00000000
00000010
00000001
00010000
,
00000100
00010000
00000000
00010000
00000000
00000000
00000000
00000000
,
00001000
00000000
00100000
00000000
01000000
00000000
10000000
00000000
00001000
00000000
00000000
00000000
00000000
00000000
00010000
00001000
,
00010000
00000000
00000000
00000000
00000010
00000000
00000000
00000000
00000100
00000000
00000000
00000000
00000001
00000000
00001000
00000010
,
00001000
00000000
00000000
00000100
00000000
00000000
00010000
00000000
00002000
00000000
00000000
00000000
00000000
00000000
00010000
00000000
,
00013000
00000000
00001000
10000000
00100000
00000000
10000000
00000000
,
01000000
00000000
00000000
00100000
00000000
00000000
00010000
00000000
10000000
00000000
00000000
10000000
00000000
00000000
00001000
00000000
,
02000000
00000000
00001000
03001000
00000000
01000000
00100000
01000000
,
00010000
00000000
00000000
00001000
00000000
00000000
00000010
00000000
00000100
00000000
00000000
00000001
00000000
00000000
00002000
00000000
,
00000000
00000000
00000001
00003001
00000000
00000000
00000000
00000000
,
00001000
00000000
00000010
00000000
00000100
00000000
00000001
00000000
00010000
00000000
00000000
00000000
00000000
00000000
00001000
00010000
,
00001000
00000000
00000000
00000000
00100000
00000000
00000000
00000000
01000000
00000000
00000000
00000000
10000000
00000000
00010000
01000000
,
00010000
00000000
00000000
10000000
00000000
00000000
00100000
00000000
01000000
00000000
00000000
01000000
00000000
00000000
00002000
00000000
,
00000000
00000000
00010000
00010000
00000000
00013000
00000000
00000000
,
00000010
00000000
00000000
00000100
00000000
00000000
00000001
00000000
00010000
00000000
00000000
00010000
00000000
00000000
00002000
00000000
,
00000000
00000000
00010000
00013000
00000000
00100000
01000000
00100000
,
00010000
00000000
00000000
10000000
00000000
00000000
00100000
00000000
01000000
00000000
00000000
01000000
00000000
00000000
00020000
00000000
,
00000000
00001000
00001000
00031000
,
00000100
00000000
00000010
00000000
00000001
00000000
00000010
00000000
00000100
00000000
00000000
00010000
00000000
00000000
00001000
00000000
,
00000000
00000000
01000000
00000000
00100000
00000000
10000000
00000000
01000000
00000000
00000000
00100000
00000000
00000000
00010000
00000000
,
00000000
00000000
10000000
01000000
00100000
00010000
01000000
10000000
,
01000000
00010000
10000000
00001000
01000000
00001000
10000000
00010000
,
00001000
00000000
00000000
00001000
00000000
00000000
00001000
00000000
00000010
00000000
00000000
00000010
00000000
00000000
00000010
00000000
,
00000000
00001000
00000001
00000010
00000100
00001000
00000010
00000001
,
00000010
00000000
00010000
00000000
00000000
00010000
00000000
00000000
00001000
00000000
00000000
00001000
00000000
00000000
00010000
00000000
,
00000000
00000000
01000000
00100000
01000000
00000000
10000000
00000000
00100000
00000000
01000000
00000000
00001000
00000000
00010000
00000000
,
00001000
00000000
00000000
00010000
00000000
00000010
00000100
00000000
00000220
00000000
00000000
00000000
00000000
00000000
00000330
00000000
,
00000001
00000000
00000000
00000000
00000000
00000000
00000001
00000000
00000000
00000000
00000010
00000000
00000000
00000001
00000000
00000000
00000022
00000000
00000000
00000000
00000000
00000000
00000000
00000000
00000000
00000000
00000000
00000000
00000033
00000000
00000000
00000000
,
00000001
00000000
00000001
00000010
00000100
00000000
00010000
00000000
,
00002000
00010000
00010000
00013000
,
00001000
00000000
00001000
01000000
00100000
00000000
10000000
00000000
,
02000000
00000000
00000000
10000000
00000000
00000000
13000000
00000000
,
00010000
10000000
01000000
00100000
01000000
00000000
10000000
00000000
,
00010000
00000000
01000000
00000000
00000000
01000000
00000000
00000000
00001000
00000000
00000000
00001000
00000000
00000000
00010000
00000000
,
00000000
00000000
00000100
00000010
00000001
00001000
00000001
00000100
,
00000010
00000100
00000010
00000000
00010000
00000100
00010000
00000000
00001000
00000000
00100000
00000000
01000000
00000000
00100000
00000000
,
00001000
10000000
00100000
00000000
01000000
00100000
01000000
00000000
,
00010000
10000000
00010000
02000000
00000000
00000000
03010000
00000000
,
10000000
01000000
00100000
00020000
00000000
00000000
00031000
00000000
,
00000010
00000100
00000001
00000020
00000000
00000000
00000031
00000000
,
00000100
00000000
00000100
00000000
00000100
00000000
00000001
00000010
00000100
00000000
00000000
00010000
00000000
00000000
00001000
00000000
,
01000000
00100000
01000000
00010000
10000000
10000000
00100000
00100000
,
00000000
00000000
10000000
00010000
10000000
00000000
01000000
00000000
00100000
00000000
00001000
00010000
00001000
00000000
00010000
00000000
,
00000100
00000000
00000010
00000000
00000100
00000000
00000010
00000001
00000200
00000000
00000000
00000000
00000000
00000000
00000000
00000000
,
00000310
00010000
00000100
00010000
00000001
00010000
00000100
00010000
,
00001000
01000000
00100000
01000000
00001000
10000000
01000000
10000000
,
00001000
00100000
01000000
10000000
01000000
00100000
00001000
00010000
,
00000010
00000100
00000010
00001000
00000001
00000010
00000100
00001000
,
00010000
00010000
00000000
00001000
00001000
00000000
01000000
01000000
,
00000000
00100000
00100000
00000000
10000000
10000000
00000000
00001000
,
00001000
00000000
00100000
00100000
00000000
00010000
00010000
00000000
,
00001000
00001000
00000000
00000010
00000010
00000000
00000100
00000100
,
00000001
00000010
00000100
00000010
00000001
00010000
00000010
00010000
,
00001000
01000000
00100000
01000000
00001000
10000000
01000000
10000000
,
00100000
00000000
00000000
00000000
01000000
00000000
01000000
00000000
01000000
00000000
00000000
00001000
00000000
00000000
00010000
00000000
,
00000010
00000000
00000000
00000110
00000000
00000000
00000101
00000000
,
00001001
00000000
00000000
00000200
00000000
00000000
00000000
00000000
,
00000310
00000000
00000000
00000000
00000000
00000000
00010000
00001000
,
00010000
00000000
00001000
01000000
00000000
01000000
00000000
01000000
,
00100000
00000000
00000000
00000000
;

//---------------dance-double - ----------------
#NOTES:
     dance-double:
     :
     Challenge:
     11:
     0.494,0.725,0.214,0.100,0.318:
10000000
00000000
10000000
00000000
00000000
00000000
10000000
00000000
00010000
01000000
00000000
01000000
00000000
00000000
00001000
00000000
,
00010000
00010000
00000100
00000010
00000000
00000010
00000000
00000001
,
00000100
00000000
00000010
00000000
00000000
00000000
00000010
00000000
00000000
00000000
00000010
00000000
00010000
00000100
00010000
00000000
,
00001000
01000000
00000000
01000000
00000000
00000000
00000000
00000000
,
00100000
00000000
01000000
00000000
00010000
00000000
00100000
00000000
00020000
00000000
00000000
00000000
00000000
00000000
00130000
01000000
,
10000000
00000000
00000000
00000000
01000000
00000000
10000000
00000000
00010000
00000000
00000000
00000000
01000000
00000000
00100000
10000000
,
01000000
00000000
00000000
10000000
00001000
00000000
01000000
00000000
00002000
00000000
00000000
00000000
00000000
00000000
00010000
00000000
,
00013000
00000000
00000010
00000100
00000000
00000100
00000010
00000000
,
00001000
00000000
00000000
00001000
00000001
00000000
00000010
00000000
00000100
00000000
00000000
00000100
00010000
00000000
00001000
00000000
,
00200000
00000000
01000000
01300000
00000000
10000000
10000000
10000000
,
00010000
00000000
00000000
00010000
00100000
00000000
00001000
00000000
00010000
00000000
00000000
00010000
00000010
00000000
00000200
00000000
,
00000000
00000000
00000010
00000310
00000000
00000000
00001000
00000000
,
00000100
00000000
00000010
00000000
00000001
00000000
00000010
00000000
00000200
00000000
00000000
00000000
00000000
00000000
00010300
00001000
,
00100000
00000000
00000000
00000000
00010000
00000000
00100000
00000000
00010000
00000000
10000000
00000000
01000000
00000000
10000000
01000000
,
00100000
00000000
00000000
00010000
10000000
00000000
01000000
00000000
00100000
00000000
00000000
00010000
01000000
00000000
00002000
00000000
,
00000000
00000000
00010000
00013000
00000000
00011000
00000000
00000000
,
00000010
00000000
00000000
00000010
00000100
00000000
00000001
00000000
00000010
00000000
00000000
00000001
00010000
00000000
00000200
00000000
,
00000000
00000000
00010000
00010300
00000000
00001000
00001000
00001000
,
00100000
00000000
00000000
00100000
01000000
00000000
10000000
00000000
00100000
00000000
00000000
01000000
00010000
00000000
20000000
00000000
,
00000000
00000000
30010000
00100000
01000000
10000000
00010000
00000000
,
01000000
00000000
00100000
00000000
10000000
00000000
01000000
00000000
10000000
00000000
00000000
00001000
00000000
00000000
10001000
00000000
,
00000000
00000000
00010000
00000000
00001000
00000000
00010000
00000000
00000010
00000000
00000000
00000100
00000000
00000000
00001001
00000000
,
00000000
00000000
00000001
00000010
00001000
00000010
00000001
00001000
,
00000010
00010000
00000010
00010000
00001000
00100000
00001000
00100000
00010000
10000000
00010000
10000000
01000000
00100000
01000000
00100000
,
00010000
00000000
00000000
10000000
00100000
00000000
10000000
00000000
00010000
00000000
00000000
01000000
00001000
00000000
00010000
00000000
,
00000000
00000010
00000010
00000010
00000100
00000001
00000010
00001000
,
00000010
00000000
00000001
00000000
00010000
00001000
00000000
00010000
00001000
00000000
00100000
01000000
00000000
00100000
01000000
00000000
,
00000000
00000000
00000000
10000000
00010000
00000000
00100000
00000000
01000000
00000000
10000000
00000000
00001000
00000000
00100000
00000000
,
00001000
00000000
00000000
00011000
00000000
00010000
00000010
00000000
00000120
00000000
00000000
00000000
00000000
00000000
00000130
00000000
,
00000011
00000000
00000000
00000000
00000000
00000000
00001001
00000000
00000000
00000000
00001000
00000000
00000000
00000100
00000000
00000000
00020000
00000000
00000000
00000000
00000000
00000000
00000000
00000000
00000000
00000000
00031000
00000000
00000000
00000000
01000000
00000000
,
00100000
00000000
00000000
10000000
00000000
00000000
00010000
00000000
00100000
00000000
00000000
00000000
00010000
00000000
00000000
01000000
,
00200000
01000000
01000000
01300000
,
10010000
00000000
00010000
01000000
00000000
01000000
00001000
00010000
,
00001000
00000000
00000000
00011000
00000000
00000000
00010010
00000000
,
00000010
00000100
00000010
00000110
00000000
00000000
00000011
00000000
,
00000001
00000000
00000100
00000000
00000000
00000010
00000000
00000000
00010000
00000000
00000000
00001000
00000000
00000000
00011000
00000000
,
00000000
00000000
00000000
00000000
00000000
01000000
00100000
01000000
00010000
00000000
00010000
00000000
10000000
00100000
10000000
00000000
,
00100000
01000000
00100000
01000000
00001000
00100000
00001000
00000000
00010000
00001000
00010000
00000000
00000010
00000100
00000010
00000000
,
00001000
00000010
00000001
00000010
00001000
00000100
00010000
00000000
,
00001000
01000000
00010000
10010000
00000000
00000000
11000000
00000000
,
00001000
01000000
00010000
10010000
00000000
00000000
11000000
00000000
,
00001000
01000000
00010000
10010000
00000000
00000000
11000000
00000000
,
10000000
00000000
00010000
00000000
00010000
00000000
00010000
00100000
01000000
00000000
00000000
10000000
00000000
00000000
00010000
00000000
,
01000000
00001000
00000000
00010000
00001000
00000000
00010000
00000000
00000010
00000000
00000010
00000000
00000100
00000000
00000100
00000000
,
00000000
00000000
00000001
00000010
00000100
00000000
00000100
00000000
00010000
00001000
00010000
00001000
01000000
00000000
01000000
00000000
,
00100000
00000000
10000000
00000000
01000000
00000000
00100000
00020000
00000000
00000000
00000000
00000000
10030000
00000000
00000000
00000000
,
01000000
10000000
01000000
00000000
00100000
01000000
00100000
00000000
00001000
00100000
00001000
00000000
00010000
00001000
00010000
00000000
,
00000010
00000100
00000010
00000000
00000100
00000001
00000100
00000000
00000001
00001000
00000001
00000000
00010000
00001000
00010000
00000000
,
00001000
00100000
00001000
00100000
00001000
00100000
01000000
00100000
01000000
10000000
01000000
10000000
00001000
01000000
00001000
01000000
,
00010000
00001000
00010000
00001000
00000010
00000100
00000010
00000100
00000001
00000010
00000001
00000010
00000001
00000010
00000100
00000000
,
00010010
00010000
00001000
01000000
01000000
00100000
10000000
10000000
,
01000000
00100000
00100000
00010000
01000000
01000000
00001000
00010000
,
00010000
00000100
00000010
00000010
00000001
00001000
00001000
00000010
,
00010000
00010000
00001000
00100000
00100000
01000000
10000000
10000000
,
00100000
01100000
01000000
00001000
00011000
00010000
00000100
00000110
,
00000010
00000001
00001001
00001000
00000100
00001100
00001000
00010000
,
01010000
00000000
00000000
00000000
01000000
00000000
01000000
00000000
01000000
00000000
00000000
11000000
00000000
00000000
01100000
00000000
,
00100000
00000000
00000000
00101000
00000000
00000000
00011000
00000000
,
00010000
00000000
00000100
00000000
00000010
00000000
00000001
00000000
00000000
00000000
00000100
00000001
00000000
00000001
00000000
00010000
,
00002000
00000000
00000000
00000000
00003000
00000000
01000000
00100000
,
01000000
00000000
00010000
10000000
00000000
00100000
00000000
00010000
,
00200000
00000000
00300000
00000000
;

//---------------dance-single - ----------------
#NOTES:
     dance-single:
     :
     Beginner:
     2:
     0.086,0.109,0.007,0.000,0.000: // measure 1
1000
0000
0000
0000
,  // measure 2
0010
0000
0000
0000
,  // measure 3
0100
0000
0000
0000
,  // measure 4
0001
0000
0000
0000
,  // measure 5
1000
0000
0000
0000
,  // measure 6
1000
0000
0000
0000
,  // measure 7
0001
0000
0000
0000
,  // measure 8
0001
0000
0000
0000
,  // measure 9
0010
0000
0000
0000
,  // measure 10
0010
0000
0000
0000
,  // measure 11
0100
0000
0000
0000
,  // measure 12
0100
0000
0000
0000
,  // measure 13
1000
0000
0000
0000
,  // measure 14
0001
0000
0000
0000
,  // measure 15
0010
0000
0000
0000
,  // measure 16
0001
0000
0000
0000
,  // measure 17
1000
0000
0010
0000
,  // measure 18
0100
0000
0000
0000
,  // measure 19
0001
0000
1000
0000
,  // measure 20
0100
0000
0000
0000
,  // measure 21
1000
0000
0001
0000
,  // measure 22
0010
0000
0001
0000
,  // measure 23
1000
0000
0000
0000
,  // measure 24
0001
0000
0010
0000
,  // measure 25
0100
0000
1000
0000
,  // measure 26
0010
0000
0000
0000
,  // measure 27
0100
0000
0010
0000
,  // measure 28
1000
0000
0001
0000
,  // measure 29
1000
0000
0000
0000
,  // measure 30
1000
0000
0000
0000
,  // measure 31
1000
0000
1000
0000
,  // measure 32
1000
0000
0000
0000
,  // measure 33
0001
0000
0001
0000
,  // measure 34
0001
0000
0000
0000
,  // measure 35
0010
0000
0001
0000
,  // measure 36
0010
0000
0000
0000
,  // measure 37
0100
0000
0010
0000
,  // measure 38
0100
0000
0000
0000
,  // measure 39
1000
0000
0010
0000
,  // measure 40
1000
0000
0001
0000
,  // measure 41
0010
0000
0100
0000
,  // measure 42
1000
0000
0000
0000
,  // measure 43
0001
0000
0010
0000
,  // measure 44
0001
0000
0100
0000
,  // measure 45
0010
0000
1000
0000
,  // measure 46
0001
0000
0000
0000
,  // measure 47
1000
0000
1000
0000
,  // measure 48
0100
0000
0100
0000
,  // measure 49
0010
0000
0010
0000
,  // measure 50
0001
0000
0001
0000
,  // measure 51
1000
0000
0000
0000
,  // measure 52
0010
0000
0000
0000
,  // measure 53
0100
0000
0000
0000
,  // measure 54
0001
0000
0000
0000
,  // measure 55
1000
0000
0000
0000
,  // measure 56
0010
0000
0000
0000
,  // measure 57
0100
0000
0000
0000
,  // measure 58
0010
0000
0000
0000
,  // measure 59
0110
0000
0000
0000
,  // measure 60
0100
0000
0000
0000
,  // measure 61
0000
0000
0000
0000
,  // measure 62
0100
0000
0000
0000
;
