#TITLE:Dead Music;
#SUBTITLE:;
#ARTIST:Camellia VS lapix;
#TITLETRANSLIT:;
#SUBTITLETRANSLIT:;
#ARTISTTRANSLIT:;
#CREDIT:DigiMindAxel;
#BANNER:Dead Music.png;
#BACKGROUND:Dead Music-bg.png;
#LYRICSPATH:;
#CDTITLE:DigiMindAxel original simfile.png;
#MUSIC:Dead Music.ogg;
#METERTYPE:DDR X;
#OFFSET:-14.869;
#SAMPLESTART:57.595;
#SAMPLELENGTH:12.000;
#SELECTABLE:YES;
#BPMS:0.000=146.000,79.000=73.000,80.000=146.000,157.000=73.000,158.000=146.000,198.000=73.000,199.000=146.000,219.000=73.000,220.000=146.000;
#STOPS:;
#BGCHANGES:;

//---------------dance-single - ----------------
#NOTES:
     dance-single:
     :
     Easy:
     6:
     0.234,0.228,0.055,0.094,0.000: // measure 1
2001
0000
0001
0000
,  // measure 2
0000
3001
1000
0001
,  // measure 3
0020
0000
0001
0000
,  // measure 4
0000
0031
1000
0100
,  // measure 5
2000
0000
0100
0000
,  // measure 6
0000
3100
2000
0000
,  // measure 7
0000
0000
3002
0000
,  // measure 8
2000
0000
0000
3003
,  // measure 9
0100
0000
1000
0000
,  // measure 10
0100
0000
0010
0000
,  // measure 11
0001
0000
0010
0000
,  // measure 12
0100
0000
1000
1000
,  // measure 13
0001
0000
0100
0000
,  // measure 14
0010
0000
1000
0000
,  // measure 15
0010
0000
0100
0000
,  // measure 16
0010
0010
0010
0010
,  // measure 17
0110
0000
0100
0001
,  // measure 18
0100
0000
0010
1000
,  // measure 19
0010
0000
0100
0010
,  // measure 20
0100
0000
0001
1001
,  // measure 21
0000
0010
0001
0010
,  // measure 22
0000
0100
0010
0100
,  // measure 23
0000
1000
0100
2000
,  // measure 24
0000
0000
0000
3001
,  // measure 25
0000
0000
0000
2002
,  // measure 26
0000
0000
3003
1000
,  // measure 27
0001
1000
0001
0010
,  // measure 28
0001
0010
0000
0001
,  // measure 29
1000
0001
1000
0010
,  // measure 30
0000
0010
0000
1000
,  // measure 31
0001
1000
0001
0100
,  // measure 32
0001
0100
0000
0001
,  // measure 33
1000
0001
1000
0100
,  // measure 34
0000
0100
0000
1001
,  // measure 35
0001
1000
0001
0010
,  // measure 36
0000
0010
0000
0001
,  // measure 37
1000
0001
1000
0100
,  // measure 38
0000
0100
0000
1000
,  // measure 39
0010
1000
0010
0100
,  // measure 40
0000
0100
0001
0010
,  // measure 41
0001
0010
0002
0000
,  // measure 42
0000
0000
1003
0001
,  // measure 43
0010
0100
1000
1000
,  // measure 44
0001
0001
1000
0100
,  // measure 45
0010
0001
1000
1000
,  // measure 46
0001
0001
0100
0010
,  // measure 47
0100
0000
0001
1000
,  // measure 48
0001
0010
0001
0000
,  // measure 49
1000
0001
2000
0000
,  // measure 50
0000
0000
3001
1001
,  // measure 51
1000
0001
0010
0001
,  // measure 52
1000
0001
0010
0100
,  // measure 53
1000
0001
0001
1000
,  // measure 54
1000
0100
0010
0100
,  // measure 55
0010
0001
0100
0001
,  // measure 56
1000
0010
1000
0000
,  // measure 57
0001
0000
1001
0000
,  // measure 58
1000
0100
0010
0001
,  // measure 59
0010
0100
1000
0001
,  // measure 60
1000
0010
0100
0001
,  // measure 61
0100
0010
0100
0010
,  // measure 62
0100
0001
0010
0100
,  // measure 63
1000
0001
1000
0001
,  // measure 64
0010
0100
1000
0001
,  // measure 65
0020
0000
0000
0000
,  // measure 66
0031
0000
0000
0000
;

//---------------dance-single - ----------------
#NOTES:
     dance-single:
     :
     Medium:
     9:
     0.398,0.406,0.133,0.226,0.000:
1001
0000
1100
0000
,
0000
0100
0100
0000
,
0110
0000
0101
0000
,
0000
1000
0001
0010
,
0011
0000
1001
0000
,
0000
0000
0010
0000
0100
0010
2000
0000
,
0000
0000
3002
0000
,
0200
0000
0000
0303
,
0110
0010
0100
0010
,
1000
0100
0010
0001
,
1000
1000
0001
0001
,
0010
0001
0010
0001
,
0100
0010
0100
0001
,
1000
1000
0001
0001
,
0010
0100
1000
0001
,
0220
0000
0000
0330
,
0010
0100
0010
0000
1000
0001
1000
0000
,
0100
1000
0100
0000
1000
0001
1000
0000
,
0001
0010
0001
0000
0100
0010
0100
0000
,
0001
0100
0001
0000
1000
0001
2000
0000
,
3001
0000
0010
0100
0010
0000
0001
1000
,
0100
0000
1000
0100
1000
0000
0010
0100
,
0001
1001
0110
2002
,
0000
0000
3003
2200
,
0000
0000
0300
0002
,
0000
0000
0000
0000
3003
0000
0001
0100
,
0001
0000
1000
0100
1000
0000
0001
0010
,
0100
1000
0001
0000
0001
0000
1000
0100
,
1000
0000
0001
1000
0001
0000
2000
0000
,
3100
0000
2000
0000
3100
0000
1000
0001
,
1000
0000
0001
0100
0001
0000
0010
0100
,
1000
0100
0010
0000
0010
0000
0001
1000
,
0001
0000
1000
0010
1000
0000
0020
0000
,
0130
0000
0020
0000
0130
0000
0001
0100
,
0001
0000
1000
0100
1000
0000
0002
0000
,
1003
0000
0002
0000
1003
0000
0010
0100
,
0010
0000
1000
0010
1000
0000
0020
0000
,
0130
0000
0020
0000
0130
0000
0001
0010
,
0001
0000
1000
0010
1000
0000
0020
0000
,
0130
0000
0220
0330
1001
0000
0000
0000
,
2100
0000
3001
1000
,
0100
0000
0010
0000
0001
1000
0001
1000
,
0001
1000
0100
0000
1000
0001
1000
0001
,
1000
0001
0100
0000
0001
1000
0001
1000
,
0001
1000
0010
0000
1000
0001
1000
0001
,
1000
0001
0010
0000
0001
1000
0001
1000
,
0001
1000
0100
0000
1000
0001
1000
0001
,
1000
0001
0100
0000
0001
1000
0001
1000
,
0001
1000
0001
1000
0002
0000
0000
0000
,
0000
0000
1003
1001
,
0001
0000
1000
0100
1000
0000
0100
1000
,
0001
0000
0100
0010
0100
0000
0010
0100
,
0001
0000
1000
0001
1000
0000
0100
0010
,
0001
0000
0010
0100
0010
0000
0001
0100
,
0010
0000
1000
0100
0010
0000
0012
0000
,
1003
0010
0100
0000
0010
0100
0010
0010
,
2000
0000
0000
0000
0000
3002
0000
0000
,
1003
0100
1000
0100
1000
0100
1000
0000
,
0001
1000
0001
1000
0001
1000
0001
0000
,
0010
0001
0010
0001
0010
0001
0010
0000
,
0100
0010
0100
0010
0100
0010
0001
0000
,
0100
0001
0100
0001
0100
0001
1000
0000
,
0001
1000
0001
1000
0001
1000
0100
0000
,
0010
0001
0010
0001
0010
0001
0010
0001
,
0200
0000
0320
0000
,
0130
0000
0000
0000
;

//---------------dance-single - ----------------
#NOTES:
     dance-single:
     :
     Hard:
     13:
     0.532,0.507,0.180,0.297,0.148:
0110
0000
0000
0100
0000
0000
0202
0000
0000
0000
0000
0000
0000
0000
0000
0000
,
0300
1000
1000
0003
,
1001
0000
0000
0001
0000
0000
0202
0000
0000
0000
0000
0000
0000
0000
0000
0000
,
0003
0010
0010
0300
,
0110
0000
0000
0010
0000
0000
2002
0000
0000
0000
0000
0000
0000
0000
0000
0000
,
0003
0000
0000
0000
3001
0000
0000
0000
1000
0000
0001
0000
0000
0101
0000
0000
,
0100
0000
0000
0110
0000
0000
0020
0000
0000
0000
0000
0000
0000
0000
1000
0000
,
2000
0000
0000
3030
,
1001
0000
0001
0100
0010
0000
0100
0001
,
0010
0010
0001
1000
0100
0000
1000
0100
,
0010
0100
1000
0000
0001
0010
0100
0000
,
0010
0001
1000
1000
0010
0100
0020
0000
,
1030
0001
0010
0000
0001
0010
0100
0100
,
0010
0001
0100
0010
0100
0001
0010
0000
,
0001
0100
0010
0000
0100
0010
1000
1000
,
2002
0000
0000
3003
,
0001
0100
0001
0100
0010
0100
0001
1000
,
0100
1000
0010
0100
0001
0010
0100
0000
,
0010
0001
0010
0001
1000
0010
0100
0010
,
1000
0001
0010
0100
1000
0010
0200
0301
,
1000
0100
1000
0010
1000
0100
0001
0100
,
1000
0001
0010
0100
0010
0000
0001
0010
,
0001
0000
1000
0000
0010
0000
0000
0010
0000
0000
0020
0000
2000
0000
0000
0000
,
0000
0000
3030
2002
,
0000
0000
0000
0000
0000
0000
0000
0000
3003
0000
0000
0000
0110
0000
0000
0100
,
0000
0000
0010
0000
0000
0100
0000
0000
0001
0000
0000
0000
1000
0000
0100
0000
,
0001
0000
0100
1000
0100
0010
0001
0100
,
1000
0000
0100
0001
0010
0100
1000
0010
,
0001
0000
0000
0000
0010
0000
1000
0000
0001
0000
0010
0000
0100
0000
1000
0002
,
0000
0000
0003
0000
0100
0000
0001
2000
0000
0000
3000
0000
0001
0000
0010
0000
,
1000
0000
0010
0001
0010
0100
1000
0100
,
0001
0000
0100
1000
0001
0000
1000
0100
,
0001
0000
0000
0000
0100
0000
1000
0000
0001
0000
0100
0000
0010
0000
1000
0002
,
0000
0000
0003
0000
0010
0000
0001
2000
0000
0000
3000
0000
0001
0000
0001
0000
,
1000
0000
0001
0100
0001
0000
1000
0000
0100
0000
0010
0000
0001
0000
1000
0200
,
0000
0000
0300
0000
1000
0000
0001
0200
0000
0000
0301
0000
1000
0000
1000
0000
,
0001
0000
1000
0010
1000
0000
0001
0000
0010
0000
0100
0000
1000
0000
0001
0200
,
0000
0000
0300
0000
0001
0000
1000
0200
0000
0000
1300
0000
0001
0000
0001
0000
,
0100
0000
0001
1000
0001
0000
0010
0000
0100
0000
0010
0000
0001
0000
0100
0020
,
0000
0030
2002
3003
0010
0100
0001
0000
,
0201
0000
0320
0000
1030
0000
0110
0010
,
0100
1000
0002
0000
1003
0100
1000
0001
,
0100
1000
0100
0010
1000
0010
1000
0001
,
0010
1000
0010
0100
0001
0010
0001
1000
,
0010
0001
0010
0100
0001
0100
0001
1000
,
0100
0001
0100
0010
1000
0100
1000
0001
,
0100
1000
0001
0010
1000
0100
1000
0001
,
0100
1000
0001
0010
1000
0001
0010
0100
,
1000
0001
0010
0100
2000
0000
0000
0000
,
0000
0000
3000
0000
2002
3003
0110
0000
,
0110
0000
0100
0000
0001
0000
0010
0000
1000
0000
0010
0000
0001
0000
0100
0010
,
0000
1000
0100
0000
1000
0000
0010
0000
0001
0000
0010
0000
1000
0000
0001
0100
,
0000
0010
0100
0000
0001
0000
1000
0100
0000
1000
0001
0000
0010
0000
0100
0000
,
0100
0000
0010
0000
0001
0000
0100
0000
1000
0000
0100
0000
0001
0000
0010
0100
,
0000
1000
0010
0000
0100
0000
0001
1000
0000
0100
1000
0000
2001
0000
0000
0000
,
3001
0010
0200
0000
0310
0001
1000
1000
,
0002
0000
0000
0000
0000
0000
0000
0000
0000
0000
0103
0000
0010
0100
0010
0100
,
0010
1000
0010
1000
0001
0100
1000
0100
,
0010
1000
0001
1000
0001
0010
1000
0010
,
0100
0000
0001
0000
1000
0001
1000
0001
1000
0000
0100
0000
1000
0000
0100
0000
,
1000
0010
0001
0010
0100
0000
1010
0000
,
1000
0001
1000
0001
0100
1000
0100
0010
,
1000
0000
0001
0000
0100
0001
0100
0000
0001
0000
1000
0000
0100
0000
1000
0000
,
1000
0000
0010
0000
0010
0000
0100
0001
0100
0001
1000
0000
0100
0000
0010
0000
,
0001
0000
0000
1001
0000
0000
0220
0000
0000
0000
0000
0000
0000
0000
0330
0000
,
1001
0000
0000
0000
;

//---------------dance-single - ----------------
#NOTES:
     dance-single:
     :
     Challenge:
     15:
     0.709,0.685,0.375,0.250,0.636:
1001
0000
0000
0110
0000
0000
1002
0000
1000
0000
0000
0000
0000
0000
0000
0000
,
0000
0000
2000
3000
2000
3000
0003
0000
,
1010
0000
0000
0101
0000
0000
2001
0000
0001
0000
0000
0000
0000
0000
0000
0000
,
0000
0000
3001
0010
0001
0000
0020
0000
0000
0000
0000
0000
0030
0000
0000
0000
,
1100
0000
0000
0011
0000
0000
1002
0000
1000
0000
0000
0000
0000
0000
0000
0000
,
0000
0000
0000
0000
2000
0000
3003
0000
2000
0000
3001
0000
0000
0101
0000
0000
,
1010
0000
0000
0110
0000
0000
2001
0000
0001
0000
0000
0000
0000
0000
0100
0000
,
0200
0000
0000
3300
,
2001
0000
0000
0000
3001
0000
0100
0001
0200
0000
0000
0000
0310
0000
1000
0100
,
1000
0001
0001
0100
0010
0100
0001
0010
,
0200
0000
0000
0000
0310
0000
0001
1000
0002
0000
0000
0000
0103
0000
0010
0100
,
0010
1000
1000
0001
0100
0010
0200
0000
,
0301
0000
1000
0000
0100
0000
1000
0001
2000
0000
0000
0000
3001
0000
0100
0001
,
0100
0000
0001
0000
1000
0000
0010
0100
0010
0000
1000
0000
0200
0000
0000
0000
,
1300
0000
0010
0000
0100
0000
0001
1000
0002
0000
0000
0000
0013
0000
0100
1000
,
0200
0000
0000
0300
,
1001
0000
1000
0000
0001
0000
1000
0100
1000
0000
0001
0000
0100
0000
0010
0100
,
0010
0000
0100
0000
0001
0000
1000
0100
1000
0000
0100
0000
0010
0000
0000
0000
,
0001
0000
1000
0000
0100
0000
1000
0100
1000
0000
0001
0000
0010
0000
0100
0010
,
0100
0000
0010
0000
0001
0000
1000
0010
1000
0000
0100
0000
0020
0000
0130
0000
,
0110
0000
0010
1000
0100
0000
1000
0000
0001
0000
0010
0100
1000
0000
0001
0000
,
0010
0000
0001
0100
0010
0000
0100
0000
0001
0000
1000
0000
0100
0000
0010
0000
,
0100
0000
1000
0010
0100
0000
0000
0110
0000
0000
0110
0000
0102
0000
0000
0000
,
0000
0000
1003
2002
,
0000
0000
0000
0000
0000
0000
0000
0000
3003
0000
0000
0000
1100
0000
0000
0110
,
0000
0000
0011
0000
0000
0110
0000
0000
1100
0000
0000
0000
1000
0000
0010
0100
,
0000
0000
0001
0100
0001
0000
1000
0001
1000
0000
0100
0000
0010
0000
0001
0100
,
0000
0000
0010
0100
0010
0100
0010
0100
0010
0000
0000
0000
1000
0000
0001
0100
,
0000
0000
0010
0100
0010
0000
1000
0100
1000
0000
0100
0000
0010
0000
0001
1000
,
0001
0000
0000
0000
0010
0000
0001
1000
0001
0000
0000
0000
1000
0000
0010
0100
,
0000
0000
0001
0100
0001
0000
1000
0100
1000
0000
0010
0000
0100
0000
0001
0100
,
0000
0000
0001
1000
0001
1000
0001
1000
0001
0000
0000
0000
0100
0000
0010
1000
,
0000
0000
0010
0100
0010
0000
1000
0001
1000
0000
0100
0000
0010
0000
0001
1000
,
0001
0000
0000
0000
0010
0000
0001
1000
0001
1000
0001
1000
0001
0000
0100
0001
,
0100
0000
0001
1000
0001
1000
0100
1000
0100
0010
0001
0000
1000
0000
0001
0100
,
0000
0100
0001
0000
1000
0000
0001
0100
0000
0100
0001
0000
1000
0000
0100
1000
,
0100
0000
1000
0001
1000
0001
0100
0001
0100
0010
1000
0000
0001
0000
1000
0100
,
0000
0100
1000
0000
0001
0000
1000
0100
0000
0100
1000
0000
0001
0000
0100
0001
,
0100
0000
0001
1000
0001
1000
0100
1000
0100
0010
0001
0000
1000
0000
0001
0100
,
0000
0100
0001
0000
2002
0000
3003
1000
1001
0000
0001
0000
0101
0000
0000
0000
,
0200
0010
0010
0310
0110
0000
1100
1000
,
1001
0000
0001
0000
0101
0000
0100
0000
0010
0000
1000
0100
0000
0100
0010
0000
,
0001
1000
0001
0000
1000
0010
1000
0000
0001
0000
0010
0100
0000
0100
1000
0000
,
0001
0000
0100
0001
0000
0001
1000
0000
0001
0000
0010
0100
1000
0000
0001
0000
,
0100
0000
0001
1000
0000
1000
0100
0000
1000
0000
0001
0010
0100
0000
0010
0000
,
0001
0000
2000
0000
0010
0000
0010
0000
3010
0000
1000
0001
0000
0001
0100
0000
,
0001
0000
1000
0100
0000
0100
0010
0000
0001
0000
0100
0001
0000
0001
1000
0000
,
0010
0000
0100
0001
1000
0000
0100
0010
0001
0000
1000
0001
0000
0001
0010
0000
,
0001
1000
0100
0010
0001
1000
0100
0010
0002
0000
0000
0000
0000
0000
0000
0000
,
1000
0000
0000
0000
0000
0000
0000
0000
0000
0000
0000
0000
0000
0000
0000
0000
1000
0000
0000
0000
0000
0000
0000
0000
0000
0000
0000
0000
0000
0000
0000
0000
1000
0000
0000
0000
0000
0000
0000
0000
0000
0000
0000
0000
0000
0000
0000
0000
1000
0000
0000
0000
0000
0000
0000
0000
0000
0000
0000
0000
0000
0000
0000
0000
0000
0000
0000
0000
0000
0000
0000
0000
1003
0000
0000
0000
0000
0000
0000
0000
0000
0000
0000
0000
0000
0000
0000
0000
0000
0000
0000
0000
0000
0000
0000
0000
1001
0000
0000
0000
0000
0000
0000
0000
0000
0000
0000
0000
0001
0000
0000
0000
0000
0000
0100
0000
0000
0000
0000
0000
0001
0000
0000
0000
0000
0000
0000
0000
0000
0000
0000
0000
0000
0000
0000
0000
0000
0000
0000
0000
0000
0000
0000
0000
1001
0000
0000
0000
0000
0000
0000
0000
0000
0000
0000
0000
0000
0000
0000
0000
0000
0000
0000
0000
0000
0000
0000
0000
1000
0000
0000
0000
0000
0000
0000
0000
0000
0000
0000
0000
0000
0000
0000
0000
0000
0000
0000
0000
0000
0000
0000
0000
,
1100
0000
0100
0000
1000
0000
0001
0100
0000
0100
0010
0000
1000
0100
0010
0001
,
0000
0001
1000
0000
0001
0000
0010
0100
0000
0100
1000
0000
0001
0100
0010
1000
,
0000
0001
1000
0000
0001
0010
0100
1000
0000
0001
1000
0000
0001
0000
0100
0001
,
0010
0100
1000
0000
0001
0000
0100
0001
0000
0001
1000
0000
0001
0010
0100
1000
,
0000
0001
0100
0000
0001
0100
0010
1000
0000
0001
0010
0000
0022
0000
0000
0033
,
1001
1000
1010
0010
1001
0001
0011
0011
,
0110
0000
0000
0110
0000
0000
0210
0000
0000
0000
0301
0000
1000
0001
1000
0001
,
1000
0000
0001
0100
0010
0100
0001
0000
0100
0000
0010
1000
0100
0010
0001
0000
,
0100
0000
0001
0010
0100
0010
0001
0000
1000
0000
0001
0100
0010
1000
0010
0000
,
1000
0000
0001
0100
0010
0100
0010
0100
0010
0000
0100
0001
0010
0100
1000
0000
,
0001
1000
1100
0100
0110
0010
0011
0000
,
0001
0000
1000
0010
0000
0100
0000
0010
1000
0000
1000
0000
0001
0000
0001
0000
,
0010
0000
0100
0000
1000
0001
1000
0000
0001
0100
0001
0000
1000
0100
1000
0000
,
0100
0000
0010
0000
0001
1000
0001
1000
0001
0000
0010
0100
0010
0100
1000
0010
,
1000
0010
0100
0001
0100
0010
2000
0000
0000
0000
0000
0000
0000
0000
3000
0000
,
1001
0000
0000
0000
;

//---------------dance-double - ----------------
#NOTES:
     dance-double:
     :
     Easy:
     6:
     0.242,0.254,0.101,0.180,0.000:
20010000
00000000
00010000
00000000
,
00000000
30020000
00000000
00030000
,
00200000
00000000
00001000
00000000
,
00000000
00301000
00000000
00000000
,
00020000
00000000
00000010
00000000
,
00000000
00030010
00000200
00000000
,
00000000
00000000
00000302
00000000
,
00002000
00000000
00000000
00003003
,
00001000
00000000
00000100
00000000
,
00001000
00000000
00000010
00000000
,
00000100
00000000
00000010
00000000
,
00001000
00000000
00000100
00020000
,
00031000
00000000
00010000
00000000
,
00001000
00000000
01000000
00000000
,
00100000
00000000
01000000
00000000
,
02200000
00000000
00000000
03300000
,
01100000
00000000
00100000
10000000
,
00100000
00000000
01000000
00010000
,
01000000
00000000
00100000
01000000
,
00100000
00000000
00000000
00000000
10000000
00000000
20020000
30030000
,
00000000
00001000
00010000
00001000
,
00000000
00100000
00001000
00100000
,
00000000
00011000
00000000
00012000
,
00000000
00000000
00000000
00023000
,
00000000
00000000
00030000
00020200
,
00000000
00000000
00030300
00000100
,
00001000
00000100
00001000
00000001
,
00001000
00000001
00000000
00010000
,
00000010
00010000
00000010
00001000
,
00000000
00001000
00000000
00000010
,
00010000
00000010
00010000
00000100
,
00010000
00000100
00000000
00001000
,
00000001
00001000
00000001
00000010
,
00000000
00000010
00000000
00001001
,
00001000
00000001
00001000
00000100
,
00000000
00000100
00000000
00010000
,
00001000
00010000
00001000
00100000
,
00000000
00100000
00000000
00010000
,
10000000
00010000
10000000
01000000
,
00000000
02000000
03100000
00000000
,
01100000
00000000
02200000
00000000
,
00000000
03300000
10010000
10000000
,
01000000
00100000
00001000
00001000
,
00010000
00010000
00001000
00100000
,
01000000
10000000
00001000
00001000
,
01000000
01000000
00001000
00010000
,
00001000
00000000
00010000
00000100
,
00010000
00000100
00001000
00000000
,
00000001
00001000
00000002
00000000
,
00000000
00000000
00001003
00001001
,
00001000
00000001
00000010
00000001
,
00001000
00000001
00000100
00000010
,
00010000
00001000
00001000
00010000
,
00010000
00000010
00000100
00000001
,
00000100
00000010
00001000
00000010
,
00010000
00001000
00010000
00010000
,
00022000
00000000
00000000
00033000
,
00001000
00100000
01000000
10000000
,
01000000
00100000
00001000
00010000
,
00000010
00000100
00000001
00000100
,
00000010
00010000
00001000
00100000
,
01000000
10000000
01000000
00100000
,
00001000
00010000
00000010
00000100
,
00000001
00000100
00000010
00010000
,
00002000
00000000
00000000
00000000
,
00013000
00000000
00000000
00000000
;

//---------------dance-double - ----------------
#NOTES:
     dance-double:
     :
     Medium:
     9:
     0.412,0.431,0.195,0.242,0.000:
10010000
00000000
11000000
00000000
,
00000000
00100000
00100000
00000000
,
01100000
00000000
01010000
00000000
,
00000000
00002000
00000000
00003000
,
00011000
00000000
00010100
00000000
,
00000000
00000000
00010000
00000000
00001000
00010000
00000200
00000000
,
00000000
00000000
00002300
00000000
,
00000002
00000000
00000000
00003003
,
00001001
00001000
00000100
00001000
,
00000001
00000010
00000100
00001000
,
00000100
00000100
00010000
00010000
,
00001000
00100000
00001000
00200000
,
00310000
00100000
00010000
01000000
,
00100000
00100000
01000000
01000000
,
00100000
10000000
00100000
01000000
,
02200000
00000000
00000000
03300000
,
01000000
00100000
01000000
00000000
00010000
10000000
00010000
00000000
,
00100000
00010000
00100000
00000000
00001000
00010000
00001000
00000000
,
00010000
00000100
00010000
00000000
00000010
00000100
00000010
00000000
,
00000100
00000001
00000100
00000000
00000001
00001000
00000200
00000000
,
00010300
00000000
00001000
00010000
00001000
00000000
00100000
00001000
,
00100000
00000000
00010000
10000000
00010000
00000000
10000000
01000000
,
10000000
10010000
01100000
20020000
,
00000000
00000000
30030000
00022000
,
00000000
00000000
00030000
00200000
,
00000000
00000000
00000000
00000000
00303000
00000000
00001000
00010000
,
00001000
00000000
01000000
00100000
10000000
00100000
01000000
00010000
,
00100000
00000000
00001000
00000000
00001000
00000000
00010000
00000100
,
00000010
00000000
00000001
00000010
00000100
00001000
00000020
00000000
,
00000130
00000000
00000020
00000000
00000130
00000000
00000001
00001000
,
00000100
00000000
00001000
00000100
00010000
00000100
00001000
00000100
,
00010000
00000000
00001000
00100000
01000000
00000000
10000000
01000000
,
00100000
00010000
10000000
00100000
10000000
00000000
00200000
00000000
,
01300000
00000000
00200000
00000000
01300000
00000000
00010000
10000000
,
00000000
10000000
01000000
00100000
00000000
00000000
00210000
00000000
,
00301000
00000000
00210000
00000000
00301000
00000000
00010000
00000010
,
00000000
00000010
00001000
00000100
00000000
00000000
00020100
00000000
,
00031000
00000000
00020100
00000000
00031000
00000000
00010000
00000010
,
00000000
00000010
00000100
00000001
00000000
00000000
00000210
00000000
,
00000301
00000000
00000220
00000330
00001001
00001000
00000001
00000000
,
00001002
00000000
00001003
00000110
,
00010100
00000000
00011000
00000000
00010000
00001000
00010000
00001000
,
00010000
00001000
00100000
00000000
00010000
01000000
00010000
01000000
,
00010000
01000000
00100000
00000000
10000000
01000000
10000000
01000000
,
10000000
01000000
00100000
00000000
00001000
01000000
00001000
01000000
,
00001000
00010000
00001000
00000000
00010000
00000100
00010000
00000100
,
00010000
00000100
00001000
00000000
00000010
00000100
00000010
00000100
,
00000010
00000100
00000001
00000000
00010000
00000010
00010000
00000010
,
00010000
00000010
00010000
00000010
00002000
00000000
00000000
00000000
,
00000000
00000000
00003100
00001100
,
00001100
00000000
00000100
00010000
00001000
00000000
00010000
00001000
,
10000000
00000000
00010000
00100000
01000000
00000000
00100000
00010000
,
01000000
00000000
00100000
10000000
01000000
00000000
10000000
01000000
,
00100000
00000000
00001000
01000000
00001000
01000000
00001000
00100000
,
01000000
00000000
10000000
00100000
10000000
00100000
02000000
00000000
,
03001000
00010000
00001000
00000000
00010000
00000100
00000010
00000010
,
00000002
00000000
00002003
00000000
,
00003100
00001000
00000100
00001000
00000100
00001000
00000100
00000000
,
00100000
00001000
00100000
00001000
00100000
00001000
00100000
00000000
,
00010000
10000000
00010000
10000000
00010000
10000000
00010000
00000000
,
01000000
00001000
01000000
00001000
01000000
00001000
01000000
00000000
,
00001000
00010000
00001000
00010000
00001000
00010000
00000010
00000000
,
00000100
00000001
00000100
00000001
00000100
00000001
00010000
00000000
,
00000100
00010000
00000100
00010000
00000100
00010000
00000100
00010000
,
00002000
00000000
00023000
00000000
,
00031000
00000000
00000000
00000000
;

//---------------dance-double - ----------------
#NOTES:
     dance-double:
     :
     Hard:
     13:
     0.543,0.533,0.226,0.297,0.152:
10010000
00000000
00000000
10000000
00000000
00000000
20020000
00000000
00000000
00000000
00000000
00000000
00000000
00000000
00000000
00000000
,
30000000
00100000
00100000
00030000
,
01001000
00000000
00000000
00001000
00000000
00000000
02002000
00000000
00000000
00000000
00000000
00000000
00000000
00000000
00000000
00000000
,
03000000
00010000
00013000
00000000
,
00010010
00000000
00000000
00010000
00000000
00000000
00020020
00000000
00000000
00000000
00000000
00000000
00000000
00000000
00000000
00000000
,
00000030
00000000
00000000
00000000
00031000
00000000
00000000
00000000
00001000
00000000
00011000
00000000
00000000
00010100
00000000
00000000
,
00000110
00000000
00000000
00000011
00000000
00000000
00001002
00000000
00000000
00000000
00000000
00000000
00000000
00000000
00000010
00000000
,
00000020
00000000
00000000
00000033
,
00001001
00000000
00001000
00000010
00000100
00000000
00000001
00010000
,
00001000
00001000
00010000
00000010
00000100
00000000
00000001
00000010
,
00000100
00000010
00000001
00000000
00000010
00000100
00010000
00000000
,
00001000
01000000
00100000
00100000
01000000
00001000
00020000
00000000
,
00031000
01000000
00100000
00000000
10000000
01000000
00100000
00100000
,
01000000
10000000
00001000
00100000
00001000
00100000
01000000
00000000
,
10000000
01000000
00100000
00000000
00001000
00010000
00001000
00001000
,
00022000
00000000
00000000
00033000
,
00010000
00000100
00001000
00000100
00010000
00000001
00000010
00000001
,
00000100
00000010
00001000
00000100
00001000
00000010
00000100
00000000
,
00000001
00000010
00000001
00000010
00000100
00010000
00000010
00010000
,
00000100
00000010
00000001
00010000
00001000
00010000
00000020
00000130
,
00000001
00000010
00000001
00000100
00000001
00000010
00001000
00000010
,
00000001
00000100
00000010
00010000
00001000
00000000
00010000
00001000
,
00100000
00000000
01000000
00000000
10000000
00000000
00000000
10000000
00000000
00000000
20000000
00000000
00200000
00000000
00000000
00000000
,
00000000
00000000
30300000
02200000
,
00000000
00000000
00000000
00000000
00000000
00000000
00000000
00000000
03300000
00000000
00000000
00000000
10010000
00000000
00000000
10010000
,
00000000
00000000
10010000
00000000
00000000
10010000
00000000
00000000
10010000
00000000
00000000
00000000
10000000
00000000
01000000
00000000
,
00010000
00000000
01000000
10000000
00010000
00100000
01000000
00100000
,
00001000
00000000
00010000
00000100
00001000
00000100
00000001
00000100
,
00001000
00000000
00000000
00000000
00000100
00000000
00000010
00000000
00000001
00000000
00000010
00000000
00000100
00000000
00001000
00000020
,
00000000
00000000
00000030
00000000
00000100
00000000
00000010
00002000
00000000
00000000
00003000
00000000
00000001
00000000
00000100
00000000
,
00001000
00000000
00000100
00000001
00001000
00000010
00000100
00000010
,
00010000
00001000
00100000
01000000
10000000
00000000
00010000
01000000
,
10000000
00000000
00000000
00000000
01000000
00000000
00010000
00000000
10000000
00000000
01000000
00000000
00100000
00000000
00010000
02000000
,
00000000
00000000
03000000
00000000
00100000
00000000
01000000
00020000
00000000
00000000
00030000
00000000
10000000
00000000
10000000
00000000
,
00100000
00000000
01000000
00010000
01000000
00000000
00001000
00000000
01000000
00000000
00100000
00000000
10000000
00000000
00001000
00020000
,
00000000
00000000
00030000
00000000
00001000
00000000
10000000
00020000
00000000
00000000
00130000
00000000
00001000
00000000
00001000
00000000
,
00010000
00000000
00000010
00000100
00000010
00000000
00010000
00000000
00000010
00000000
00000100
00000000
00000001
00000000
00010000
00002000
,
00000000
00000000
00003000
00000000
00010000
00000000
00000001
00002000
00000000
00000000
00003100
00000000
00010000
00000000
00010000
00000000
,
00001000
00000000
00100000
01000000
00100000
00000000
00010000
00000000
01000000
00000000
00100000
00000000
10000000
00000000
00001000
00020000
,
00000000
00030000
00022000
00033000
00000010
00001000
00001010
00000000
,
00000201
00000000
00000302
00000000
00001003
00000000
00001100
00000100
,
00010000
00001000
00200000
00000000
00310000
00100000
00010000
10000000
,
00010000
00100000
10000000
00100000
00010000
10000000
00100000
01000000
,
00001000
00010000
00000100
00000010
00000001
00000100
00001000
00000100
,
00000001
00000010
00000100
00010000
00001000
01000000
00100000
10000000
,
00010000
00100000
10000000
00100000
00010000
01000000
00001000
00010000
,
00000100
00000010
00000001
00000010
00001000
00000010
00000001
00000100
,
00000010
00010000
00001000
00100000
01000000
10000000
01000000
00100000
,
00001000
00010000
00000100
00000010
00000002
00000000
00000000
00000000
,
00000000
00000000
00000003
00000000
00002002
00003003
00000110
00000000
,
00000110
00000000
00000100
00000000
00000001
00000000
00000010
00000000
00001000
00000000
00000010
00000000
00000001
00000000
00000100
00000010
,
00000000
00001000
00000100
00000000
00010000
00000000
00000100
00000000
00000010
00000000
00000100
00000000
00010000
00000000
00001000
00100000
,
00000000
00010000
00100000
00000000
00001000
00000000
01000000
00100000
00000000
01000000
00001000
00000000
02000000
00000000
00100000
00000000
,
03100000
00000000
00000000
00000000
10000000
00000000
00100000
00000000
00010000
00000000
00100000
00000000
10000000
00000000
01000000
00100000
,
00000000
00010000
00100000
00000000
00001000
00000000
00010000
00000100
00000000
00001000
00000100
00000000
00002001
00000000
00000000
00000000
,
00003001
00000100
00000020
00000000
00000130
00000001
00010000
00010000
,
00002000
00000000
00000000
00000000
00000000
00000000
00000000
00000000
00000000
00000000
00013000
00000000
00001000
00010000
00001000
00010000
,
00001000
10000000
01000000
10000000
00010000
01000000
10000000
01000000
,
00010000
00100000
01000000
00100000
01000000
10000000
00001000
00100000
,
00001000
00000000
10000000
00000000
00001000
00010000
00001000
00010000
00001000
00000000
00010000
00000000
00000010
00000000
00000100
00000000
,
00000010
00010000
00000100
00000001
00000100
00000000
00010100
00000000
,
00010000
00000010
00010000
00000010
00000100
00000001
00000100
00001000
,
00000100
00000000
00000001
00000000
00010000
00000010
00010000
00000000
00000001
00000000
00000010
00000000
00000100
00000000
00000010
00000000
,
00000001
00000000
00010000
00000000
00010000
00000000
00000010
00010000
00000010
00010000
00000001
00000000
00000010
00000000
00000100
00000000
,
00010000
00000000
00001000
00000000
01000000
00100000
01000000
00100000
02000000
00000000
00000000
00000000
00000000
00000000
03000000
00000000
,
10010000
00000000
00000000
00000000
;

//---------------dance-double - ----------------
#NOTES:
     dance-double:
     :
     Challenge:
     15:
     0.702,0.660,0.359,0.250,0.628:
10100000
00000000
00000000
01100000
00000000
00000000
01002000
00000000
01000000
00000000
00000000
00000000
00000000
00000000
00000000
00000000
,
00000000
00000000
00020000
00030000
00020000
00030000
00003000
00000000
,
00011000
00000000
00000000
00010100
00000000
00000000
00000120
00000000
00000100
00000000
00000000
00000000
00000000
00000000
00000000
00000000
,
00000000
00000000
00000130
00000001
00000100
00000000
00000002
00000000
00000000
00000000
00000000
00000000
00000003
00000000
00000000
00000000
,
00001001
00000000
00000000
00001010
00000000
00000000
00020010
00000000
00000010
00000000
00000000
00000000
00000000
00000000
00000000
00000000
,
00000000
00000000
00000000
00000000
00002000
00000000
00003000
00000000
00032000
00000000
00103000
00000000
00000000
00101000
00000000
00000000
,
01100000
00000000
00000000
10100000
00000000
00000000
20010000
00000000
00010000
00000000
00000000
00000000
00000000
00000000
00100000
00000000
,
00200000
00000000
00000000
30300000
,
01200000
00000000
00000000
00000000
10300000
00000000
00010000
00100000
00020000
00000000
00000000
00000000
10030000
00000000
00001000
00100000
,
00001000
10000000
10000000
00010000
00100000
00010000
10000000
01000000
,
00200000
00000000
00000000
00000000
00301000
00000000
00010000
00001000
00020000
00000000
00000000
00000000
00030100
00000000
00001000
00000001
,
00001000
00000001
00000001
00000100
00000010
00010000
00002000
00000000
,
00103000
00000000
01000000
00000000
00100000
00000000
00010000
10000000
00020000
00000000
00000000
00000000
01030000
00000000
00001000
00010000
,
00001000
00000000
00010000
00000000
00000100
00000000
00000010
00000001
00000010
00000000
00000001
00000000
00002000
00000000
00000000
00000000
,
00003010
00000000
00010000
00000000
00001000
00000000
01000000
00010000
02000000
00000000
00000000
00000000
03100000
00000000
10000000
00010000
,
20000000
00000000
00000000
30000000
,
10010000
00000000
00010000
00000000
10000000
00000000
00010000
00100000
00010000
00000000
10000000
00000000
00001000
00000000
00010000
00001000
,
00010000
00000000
00000010
00000000
00000100
00000000
00000001
00000100
00000001
00000000
00000010
00000000
00000100
00000000
00000000
00000000
,
00001000
00000000
00000001
00000000
00000010
00000000
00000001
00000010
00000001
00000000
00001000
00000000
00000100
00000000
00000010
00000100
,
00000010
00000000
00000100
00000000
00010000
00000000
00001000
00100000
00001000
00000000
00100000
00000000
02000000
00000000
03100000
00000000
,
10010000
00000000
10000000
00010000
00100000
00000000
00010000
00000000
10000000
00000000
01000000
00100000
00001000
00000000
00010000
00000000
,
00000100
00000000
00000010
00000001
00000100
00000000
00000010
00000000
00000100
00000000
00000001
00000000
00010000
00000000
00001000
00000000
,
01000000
00000000
00100000
10000000
01000000
00000000
00000000
11000000
00000000
00000000
11000000
00000000
10020000
00000000
00000000
00000000
,
00000000
00000000
00130000
00022000
,
00000000
00000000
00000000
00000000
00000000
00000000
00000000
00000000
00033000
00000000
00000000
00000000
00011000
00000000
00000000
00001100
,
00000000
00000000
00000110
00000000
00000000
00000011
00000000
00000000
00001001
00000000
00000000
00000000
00000001
00000000
00001000
00000100
,
00000000
00000000
00010000
00000100
00010000
00000000
00000010
00000100
00000010
00000000
00001000
00000000
00000100
00000000
00010000
00001000
,
00000000
00000000
01000000
00001000
01000000
00001000
01000000
00001000
01000000
00000000
00000000
00000000
00010000
00000000
10000000
01000000
,
00000000
00000000
10000000
00010000
10000000
00000000
00100000
01000000
00100000
00000000
10000000
00000000
01000000
00000000
00100000
00010000
,
00100000
00000000
00000000
00000000
00001000
00000000
00010000
00001000
00010000
00000000
00000000
00000000
00000010
00000000
00001000
00000100
,
00000000
00000000
00001000
00000010
00001000
00000000
00000010
00000100
00000010
00000000
00001000
00000000
00000100
00000000
00010000
00001000
,
00000000
00000000
00100000
00001000
00100000
00001000
00100000
00001000
00100000
00000000
00000000
00000000
00010000
00000000
10000000
01000000
,
00000000
00000000
10000000
00010000
10000000
00000000
00010000
01000000
00010000
00000000
01000000
00000000
00100000
00000000
01000000
00001000
,
01000000
00000000
00000000
00000000
00001000
00000000
00010000
00000100
00010000
00000100
00010000
00000100
00010000
00000000
00000010
00000100
,
00000010
00000000
00001000
00000001
00001000
00000001
00000010
00000001
00000010
00000100
00001000
00000000
00000001
00000000
00010000
00000010
,
00000000
00000010
00010000
00000000
00000001
00000000
00010000
00000010
00000000
00000010
00010000
00000000
00001000
00000000
00100000
01000000
,
00100000
00000000
00010000
01000000
00010000
01000000
00100000
10000000
00100000
10000000
00010000
00000000
10000000
00000000
00001000
00100000
,
00000000
00100000
00001000
00000000
10000000
00000000
00001000
00100000
00000000
00100000
00001000
00000000
00010000
00000000
00000010
00010000
,
00000010
00000000
00001000
00000100
00001000
00000100
00000010
00000001
00000010
00000001
00001000
00000000
00000001
00000000
00010000
00000100
,
00000000
00000100
00010000
00000000
00022000
00000000
00033000
00001000
01000000
00000000
00100000
00000000
01100000
00000000
00000000
00000000
,
00020000
10000000
10000000
10030000
10010000
00000000
01100000
00100000
,
10100000
00000000
10000000
00000000
10010000
00000000
00010000
00000000
10000000
00000000
00100000
10000000
00000000
10000000
00010000
00000000
,
00100000
00010000
00100000
00000000
00001000
00010000
00001000
00000000
00010000
00000000
00000100
00001000
00000000
00001000
00000010
00000000
,
00000100
00000000
00000001
00001000
00000000
00001000
00000001
00000000
00000010
00000000
00000100
00000010
00000100
00000000
00010000
00000000
,
00001000
00000000
00100000
00010000
00000000
00010000
10000000
00000000
00010000
00000000
00100000
01000000
10000000
00000000
00010000
00000000
,
01000000
00000000
00020000
00000000
10000000
00000000
10000000
00000000
10030000
00000000
00010000
00100000
00000000
00100000
00001000
00000000
,
00010000
00000000
00000100
00001000
00000000
00001000
00000010
00000000
00000100
00000000
00000001
00000010
00000000
00000010
00000100
00000000
,
00010000
00000000
00000100
00010000
00000100
00000000
00100000
00010000
00100000
00000000
01000000
10000000
00000000
10000000
00010000
00000000
,
10000000
00010000
00100000
01000000
10000000
00010000
00100000
01000000
20000000
00000000
00000000
00000000
00000000
00000000
00000000
00000000
,
00000000
00000000
00000000
00000000
00000000
00000000
00000000
00000000
00000000
00000000
00000000
00000000
30000000
00000000
00000000
00000000
10010000
00000000
00010000
00100000
00010000
00000000
00000000
00000000
00110000
00000000
00000000
00000000
00100000
00000000
00000000
00000000
,
00101000
00000000
00001000
00000000
00010000
00000000
00000010
00000100
00000000
00000100
00000001
00000000
00001000
00000100
00000010
00000001
,
00000000
00000001
00001000
00000000
00000010
00000000
00010000
00001000
00000000
00001000
00100000
00000000
00010000
01000000
00100000
10000000
,
00000000
00010000
10000000
00000000
00010000
00100000
01000000
10000000
00000000
00010000
10000000
00000000
00001000
00000000
10000000
01000000
,
00100000
01000000
10000000
00000000
00001000
00000000
00010000
00000010
00000000
00000010
00000100
00000000
00000001
00000010
00000100
00001000
,
00000000
00000001
00001000
00000000
00000001
00000100
00000010
00001000
00000000
00000010
00000100
00000000
00000220
00000000
00000000
00000330
,
00000110
00000010
00010010
00010000
00001000
01000000
01100000
01100000
,
10010000
00000000
00000000
10010000
00000000
00000000
10020000
00000000
00000000
00000000
01030000
00000000
00100000
01000000
00100000
01000000
,
00100000
00000000
10000000
00010000
00100000
00010000
10000000
00000000
00010000
00000000
00100000
00001000
00010000
00001000
00100000
00000000
,
00001000
00000000
00010000
00000100
00000010
00000100
00010000
00000000
00000001
00000000
00000010
00000001
00000100
00000010
00001000
00000000
,
00000100
00000000
00010000
00001000
01000000
00001000
01000000
00001000
01000000
00000000
00010000
10000000
01000000
00100000
00010000
00000000
,
10000000
01000000
01100000
00100000
00110000
00010000
00011000
00000000
,
00001000
00000000
00010000
00000010
00000000
00000100
00000000
00000010
00010000
00000000
00010000
00000000
00000001
00000000
00000001
00000000
,
00000010
00000000
00000100
00000000
00010000
00000010
00010000
00000000
00001000
00010000
00001000
00000000
01000000
00100000
01000000
00000000
,
00001000
00000000
00010000
00000000
00000010
00001000
00000010
00001000
00000010
00000000
00000100
00000001
00000100
00000001
00001000
00000100
,
00001000
00000100
00010000
00001000
01000000
00100000
20000000
00000000
00000000
00000000
00000000
00000000
00000000
00000000
30000000
00000000
,
10010000
00000000
00000000
00000000
;

//---------------dance-single - ----------------
#NOTES:
     dance-single:
     :
     Beginner:
     3:
     0.127,0.178,0.117,0.000,0.000: // measure 1
1001
0000
0000
0000
,  // measure 2
0000
0000
0000
0000
,  // measure 3
0110
0000
0000
0000
,  // measure 4
0000
0000
0000
0000
,  // measure 5
1001
0000
0000
0000
,  // measure 6
0000
0000
0000
0110
,  // measure 7
0000
0000
0000
0000
,  // measure 8
0000
0000
0000
0000
,  // measure 9
1000
0000
0000
0000
,  // measure 10
0100
0000
0000
0000
,  // measure 11
0010
0000
0000
0000
,  // measure 12
0001
0000
0000
0000
,  // measure 13
1000
0000
0000
0000
,  // measure 14
0010
0000
0000
0000
,  // measure 15
0100
0000
0000
0000
,  // measure 16
1001
0000
0000
0000
,  // measure 17
0001
0000
0001
0000
,  // measure 18
0001
0000
0000
0000
,  // measure 19
1000
0000
1000
0000
,  // measure 20
1000
0000
0000
0000
,  // measure 21
1001
0000
0000
0001
,  // measure 22
0000
0000
0000
1000
,  // measure 23
0000
1000
0000
1001
,  // measure 24
0000
0000
0000
0010
,  // measure 25
0000
0000
0000
0110
,  // measure 26
0000
0000
0000
1000
,  // measure 27
0000
0010
0000
1000
,  // measure 28
0000
0010
0000
0100
,  // measure 29
0000
0001
0000
0100
,  // measure 30
0000
0000
0000
0001
,  // measure 31
0000
1000
0000
0001
,  // measure 32
0000
1000
0000
0010
,  // measure 33
0000
0100
0000
0010
,  // measure 34
0000
0000
0000
1000
,  // measure 35
0000
0001
0000
1000
,  // measure 36
0000
0001
0000
0010
,  // measure 37
0000
0100
0000
0010
,  // measure 38
0000
0000
0000
0001
,  // measure 39
0000
1000
0000
0001
,  // measure 40
0000
1000
1001
0000
,  // measure 41
1001
0000
1001
0000
,  // measure 42
0000
0000
0001
0000
,  // measure 43
0010
0000
0001
0000
,  // measure 44
0010
0000
0100
0000
,  // measure 45
1000
0000
0100
0000
,  // measure 46
1000
0000
0001
0000
,  // measure 47
1000
0000
0001
0000
,  // measure 48
1000
0000
0010
0000
,  // measure 49
0010
0000
0010
0000
,  // measure 50
0000
0000
0110
0100
,  // measure 51
0000
0010
0000
0100
,  // measure 52
0000
0010
0000
1000
,  // measure 53
0000
0010
0000
1000
,  // measure 54
0000
0001
0000
0010
,  // measure 55
0000
0001
0000
0010
,  // measure 56
1001
0000
0001
0000
,  // measure 57
1001
0000
0000
0000
,  // measure 58
1000
0000
1000
0000
,  // measure 59
0100
0000
0100
0000
,  // measure 60
0010
0000
0010
0000
,  // measure 61
0001
0000
0001
0000
,  // measure 62
1000
0000
1000
0000
,  // measure 63
0010
0000
0010
0000
,  // measure 64
1000
0000
0001
0000
,  // measure 65
0010
0000
0000
0000
,  // measure 66
1001
0000
0000
0000
;
