#TITLE:Dark Fall;
#SUBTITLE:;
#ARTIST:黒龍;
#TITLETRANSLIT:;
#SUBTITLETRANSLIT:;
#ARTISTTRANSLIT:KOKURYU;
#CREDIT:DigiMindAxel;
#BANNER:Dark Fall.png;
#BACKGROUND:Dark Fall-bg.png;
#LYRICSPATH:;
#CDTITLE:EXIT TUNES.png;
#MUSIC:Dark Fall.ogg;
#METERTYPE:DDR X;
#OFFSET:-5.307;
#SAMPLESTART:67.083;
#SAMPLELENGTH:12.000;
#SELECTABLE:YES;
#BPMS:0.000=202.000;
#STOPS:12.000=0.891
,201.000=0.891
,326.000=0.891
;
#BGCHANGES:;

//---------------dance-single - ----------------
#NOTES:
     dance-single:
     :
     Easy:
     6:
     0.296,0.346,0.086,0.086,0.000:
1001
0000
0000
0000
,
0000
0000
0000
0000
,
1000
0000
0000
0000
,
0000
0001
1000
0001
,
0000
1000
0100
1000
,
0000
0001
1000
0001
,
0000
1000
0100
1000
,
0000
0010
0100
0010
,
0000
0100
0001
0100
,
0000
0010
0100
0010
,
0000
0100
0001
0100
,
0000
0001
1000
0001
,
1000
0100
1000
0100
,
1000
0001
1000
0001
,
1000
0100
1000
0100
,
1000
1001
0000
0000
,
0000
0001
0000
0000
,
0000
0001
0000
1000
,
0000
0001
0000
0000
,
0000
0100
0010
0100
,
0000
0010
0100
0010
,
0000
0100
0010
0100
,
0000
0010
0100
0010
,
0000
1000
0001
1000
,
0000
0001
1000
0001
,
0000
1000
0001
1000
,
0000
0001
1000
0001
,
0000
1000
0100
1000
,
0000
0010
0100
0010
,
0000
1000
0100
1000
,
0000
0001
0010
0001
,
0000
0210
0000
0000
,
0000
0320
0000
0000
,
0000
0230
0000
0000
,
0000
0320
0000
0000
,
0000
0130
0000
0000
,
0000
0000
0000
0000
,
0000
0000
0000
0000
,
0000
0000
0000
0000
,
0000
0002
0000
0000
,
0000
0000
0000
0000
,
0000
0000
0000
0003
,
0000
2000
0000
0000
,
0000
3001
0000
0000
,
0000
0000
0000
0000
,
0000
0000
0000
0000
,
0000
1001
0000
0000
,
0000
0001
0000
1000
,
0000
0001
0000
1000
,
0000
0010
0000
0100
,
0000
0010
0100
0010
,
0100
0010
0100
0001
,
0100
0001
0100
0010
,
0100
0010
0100
0001
,
0100
0001
1000
0100
,
1000
0100
1000
0001
,
1000
0001
1000
0100
,
1000
0100
1000
0001
,
1000
0000
0001
0100
,
0001
0100
0001
1000
,
0001
1000
0001
0100
,
0001
0100
0001
1000
,
0001
1000
0100
0000
,
0000
0000
1001
0000
,
0000
0000
0110
0010
,
0100
0010
0100
0000
,
0000
0000
0001
1000
,
0001
1000
0100
1000
,
0001
0001
1000
0001
,
1000
0001
1000
0100
,
1000
1000
0010
0100
,
0010
0100
0001
0100
,
0001
0001
1000
0100
,
1000
0100
2000
0000
,
0000
3000
1001
1000
,
0001
0001
1000
1000
,
0010
0100
0001
0001
,
1000
1000
0001
0001
,
0100
0010
2000
0000
,
0000
0000
0000
0000
,
0000
0000
3002
0000
,
0000
0000
1003
0010
,
0100
0010
0100
0001
,
0100
0001
0100
0010
,
0100
0010
0100
0001
,
0100
0001
0100
0110
,
0000
0000
0000
0010
,
0000
0000
0000
0110
,
0000
1001
0000
0020
,
0000
0000
0000
0030
;

//---------------dance-single - ----------------
#NOTES:
     dance-single:
     :
     Medium:
     10:
     0.508,0.538,0.205,0.223,0.000:
1001
0000
0001
0000
,
0001
0000
2000
0000
,
3001
0000
0001
0000
,
1001
1000
0100
1000
,
0010
0100
0001
1000
,
0100
1000
0010
0100
,
0001
1000
0100
1000
,
0010
0100
0001
1000
,
0100
1000
0010
0100
,
0001
0010
0100
1000
,
0010
0100
0100
0100
,
0000
0000
0110
0000
0010
0000
0100
0001
,
0010
0000
0001
0000
1000
0000
0001
1000
,
0100
0000
1000
0000
0100
0000
1000
0100
,
0010
0000
0001
0000
1000
0000
0001
1000
,
0010
1002
0000
1003
,
0000
2001
0000
3001
,
0000
0110
0010
0110
,
0000
1001
0000
0000
,
0000
0000
0110
0000
0100
0000
0001
1000
,
0100
0000
1000
0000
0100
0000
1000
0100
,
0010
0000
0100
0000
0010
0000
0001
1000
,
0010
0000
0100
0000
0010
0000
0100
0010
,
0100
0000
0010
1000
0100
0000
1000
0000
,
0001
0000
0100
0001
0100
0000
0001
0000
,
1000
0000
0001
1000
0100
0000
1000
0000
,
0100
0000
1000
0010
0100
0000
0010
0000
,
0100
0000
0001
0100
0001
0000
0100
0001
,
0100
0000
0001
1000
0001
0000
1000
0100
,
1000
0000
0010
0100
0010
0000
0100
0010
,
0100
0000
0001
1000
0001
0000
1000
0100
,
1000
1002
1000
1000
,
1003
0020
0100
0100
,
0130
0002
1000
1000
,
1003
0020
0000
0000
,
0000
0230
0000
0000
,
0000
0000
0302
0000
0000
2003
0000
0000
,
3001
2000
0000
0000
,
0000
0000
3200
0000
0000
2300
0000
0000
,
3100
2000
0000
0000
,
0000
0000
3020
0000
0000
0230
0000
0000
,
0320
0230
0000
0000
,
0000
0302
0000
0000
,
0000
0000
1003
0000
0000
1000
0000
0000
,
0000
0000
0001
0000
0000
0001
0000
0000
,
0000
0000
0010
0000
0000
0010
0000
0000
,
0000
0000
1001
0000
0000
1000
0000
0000
,
0000
0001
0010
0100
,
1000
0100
0010
0001
,
0010
0100
1000
0100
,
0010
0001
1001
1000
,
0010
1000
0100
1000
0100
0000
0010
0000
,
0001
0100
0001
0100
0010
0000
0100
0000
,
0001
1000
0001
1000
0100
0000
0010
0000
,
0001
0100
0001
0100
0010
0000
0100
0000
,
0001
1000
0001
1000
0100
0000
0010
0000
,
0100
1000
0100
1000
0010
0000
0100
0000
,
0010
1000
0010
1000
0001
0000
0010
0000
,
0100
0000
1001
0001
,
0010
0001
0010
0001
1000
0000
0100
0000
,
0010
0001
0010
0001
0100
0000
0010
0000
,
1000
0010
1000
0010
0100
0000
0001
0000
,
1000
0001
0010
0000
0011
0000
0000
0000
,
0001
0000
1001
0000
,
1001
0000
0110
0110
,
0110
0100
0100
0000
,
0000
0000
0000
0000
0001
1000
0100
0000
,
1000
0100
1000
0000
0001
0010
0001
0000
,
1000
0001
1000
0001
1000
0001
0100
0000
,
0001
0100
0001
0000
1000
0010
1000
0000
,
0001
1000
0001
0000
0100
0001
0010
0000
,
0001
0010
0001
0000
0100
0010
0100
0000
,
0001
1000
0001
1000
0001
1000
0010
0000
,
0100
0010
0100
0000
0002
0000
1000
0000
,
1000
0000
1003
0000
0001
0010
0001
0000
,
1000
0100
1000
0000
0001
0010
0001
0000
,
0100
0010
0100
0010
1000
0100
1000
0000
,
0001
0010
0001
0000
1000
0100
1000
0000
,
0010
0100
0010
0100
0002
0000
0000
0000
,
0000
0000
0000
0000
,
0000
0000
0000
0000
1003
0000
0001
1000
,
0001
1000
0001
1000
0100
0000
1001
0000
,
1000
0000
0010
1000
0100
0000
1000
0000
,
0001
0000
0010
0100
1000
0000
0001
0000
,
0010
0000
0001
1000
0010
0000
1000
0000
,
0001
0000
0010
0100
1000
0000
1100
0000
,
0000
0000
0000
0110
,
0000
0010
0010
0022
,
0033
2002
3003
0200
,
0000
0000
0000
0300
;

//---------------dance-single - ----------------
#NOTES:
     dance-single:
     :
     Hard:
     14:
     0.718,0.806,0.265,0.214,0.291: // measure 1
1000
0100
1000
0100
,  // measure 2
1000
0000
0001
0000
0010
0100
0010
0100
,  // measure 3
0010
0000
0001
1000
0010
1000
0010
1000
,  // measure 4
0001
0000
0000
0000
1001
0000
0000
0000
1100
0000
0000
0000
0100
0000
0000
1000
,  // measure 5
0000
0000
0001
0000
0010
0000
0000
0000
0011
0000
0000
0000
0001
0000
0000
1000
,  // measure 6
0000
0000
0010
0000
0100
0000
0000
0000
0110
0000
0000
0000
0100
0000
0000
0001
,  // measure 7
0000
0000
1000
0000
0100
0000
0000
0000
1100
0000
0000
0000
0100
0000
0000
1000
,  // measure 8
0000
0000
0001
0000
0100
0000
0000
0000
0101
0000
0000
0000
0001
0000
0000
0010
,  // measure 9
0000
0000
0100
0000
0010
0000
0000
0000
0110
0000
0000
0000
0010
0000
0000
1000
,  // measure 10
0000
0000
0010
0000
0100
0000
0000
0000
0110
0000
0000
0000
0010
0000
0000
0001
,  // measure 11
0000
1000
0100
0000
0100
0000
0100
0000
,  // measure 12
0000
0000
0000
0000
1000
0000
0010
0000
0100
0000
0000
0000
0001
0000
0000
0100
,  // measure 13
0000
0000
1000
0000
0100
0000
0001
0000
1000
0000
0000
0000
0001
0000
0000
0010
,  // measure 14
0000
0000
1000
0000
0010
0000
0001
0000
1000
0000
0000
0000
0001
0000
0000
0100
,  // measure 15
0000
0000
1000
0000
0100
0000
0001
0000
1000
0000
0000
0000
0001
0000
0000
1000
,  // measure 16
0000
0000
0100
0000
1100
0000
0000
0000
0000
0000
0000
0000
0000
0000
1000
0001
,  // measure 17
1000
0001
1000
0001
1000
0000
0000
0000
0000
0000
0000
0000
1001
0000
0000
0000
,  // measure 18
0001
0000
0000
0000
0010
0000
0001
0000
0100
0000
0010
0000
1000
0000
0001
1000
,  // measure 19
0001
1000
0001
1000
0001
0000
0000
0000
0000
0000
0000
0000
0000
0000
0000
0000
,  // measure 20
0000
0000
0000
0000
0110
0000
0000
0000
0010
0000
1000
0000
0001
0000
0000
0010
,  // measure 21
0000
0000
0100
0000
0010
0000
0001
0000
0100
0000
0010
0000
0100
0000
0000
0001
,  // measure 22
0000
0000
1000
0000
0100
0000
0010
0000
0100
0000
1000
0000
0010
0000
0000
0100
,  // measure 23
0000
0000
0001
0000
1000
0000
0001
0000
0010
0000
0100
0000
1000
0000
0000
0001
,  // measure 24
0000
0000
0010
0000
0001
0000
1000
0000
0010
0000
0100
0000
0001
0000
0000
1000
,  // measure 25
0000
0000
0100
0000
1000
0000
0001
0000
0010
0000
0100
0000
0010
0000
0000
0001
,  // measure 26
0000
0000
1000
0000
0010
0000
0100
0000
0010
0000
1000
0000
0001
0000
0000
0010
,  // measure 27
0000
0000
0100
0000
0010
0000
0001
0000
1000
0000
0100
0000
1000
0000
0000
0001
,  // measure 28
0000
0000
0100
0000
0110
0000
0000
0000
0100
0000
0010
0000
1000
0000
0000
0100
,  // measure 29
0000
0000
0010
0000
0001
0000
1000
0000
0001
0000
0010
0000
0100
0000
0000
0010
,  // measure 30
0000
0000
0001
0000
0100
0000
0010
0000
0100
0000
0001
0000
1000
0000
0000
0100
,  // measure 31
0000
0000
0010
0000
0100
0000
1000
0000
0010
0000
0100
0000
0001
0000
0000
1000
,  // measure 32
0000
0100
1100
0000
1000
0000
1000
0000
,  // measure 33
1000
0001
0001
0001
,  // measure 34
0001
0000
0000
0000
1000
0000
0000
0000
1000
0000
0000
0000
1000
0000
0001
1000
,  // measure 35
0001
1000
0001
1000
0002
0000
0000
0000
0000
0000
0000
0000
0000
0000
0000
0000
,  // measure 36
0003
2002
0000
0000
,  // measure 37
3000
0000
0203
0000
0000
0320
0000
0000
,  // measure 38
2030
0002
0000
0000
,  // measure 39
3000
0000
0023
0000
0000
0230
0000
0000
,  // measure 40
2300
0002
0000
0000
,  // measure 41
3000
0000
0203
0000
0000
0320
0000
0000
,  // measure 42
2030
0002
0000
0000
,  // measure 43
3003
2002
0000
0000
,  // measure 44
3003
0000
0101
0000
0001
0100
0000
0001
,  // measure 45
0100
0010
1000
0000
0100
0010
0000
0100
,  // measure 46
0010
0001
1000
0000
0100
1000
0000
0100
,  // measure 47
1000
0000
0010
0000
0110
0000
0000
0000
0100
0000
0001
0000
0000
0000
0100
0001
,  // measure 48
0100
0001
0100
0001
0100
0000
0010
0000
0100
0000
0000
0000
0001
0000
1000
0000
,  // measure 49
0001
0000
1000
0100
1000
0000
0001
1000
,  // measure 50
0001
0000
0000
0000
1001
0000
0001
0000
1000
0000
0000
0000
0010
0000
0100
0010
,  // measure 51
0100
0010
0100
0010
0100
0000
0000
0000
1001
0000
0000
0000
1010
0000
0000
0000
,  // measure 52
0010
0000
0000
0010
1000
0000
0100
0000
0010
0000
0000
0000
0011
0000
0000
0000
,  // measure 53
0001
0000
0000
0001
1000
0000
0010
0000
0100
0000
0000
0000
0110
0000
0000
0000
,  // measure 54
0100
0000
0000
0100
1000
0000
0001
0000
0010
0000
0000
0000
0011
0000
0000
0000
,  // measure 55
0001
0000
0000
0001
1000
0000
0010
0000
0100
0000
0000
0000
0101
0000
0000
0000
,  // measure 56
0001
0000
0000
0001
1000
0000
0100
0000
0010
0000
0000
0000
0110
0000
0000
0000
,  // measure 57
0100
0000
0000
0100
0001
0000
0010
0000
0100
0000
0000
0000
1100
0000
0000
0000
,  // measure 58
1000
0000
0000
1000
0100
0000
0010
0000
0002
0000
0000
0000
1000
0000
0000
0000
,  // measure 59
1003
0000
0000
0000
0001
0100
0010
0100
,  // measure 60
0001
0000
0000
0001
1000
0000
0100
0000
0010
0000
0001
0000
0100
0000
0001
0000
,  // measure 61
0010
0000
0000
0010
0100
0000
1000
0000
0001
0000
0010
0000
0001
0000
1000
0000
,  // measure 62
0010
0000
0000
0010
1000
0000
0100
0000
0010
0000
0001
0000
0100
0000
0001
0000
,  // measure 63
0010
0000
0000
0010
0100
0000
1000
0000
1001
0000
0000
0000
0000
0000
0000
0000
,  // measure 64
0000
0000
0001
1000
0001
1000
0001
1000
0001
0000
0000
0000
0000
0000
0000
0000
,  // measure 65
1001
1000
0000
0010
0100
0001
0100
0010
,  // measure 66
0100
0000
0001
1000
0001
1000
0001
1000
0001
0000
0000
0000
0000
0000
0000
0000
,  // measure 67
0000
0000
0000
0000
1000
0100
0001
0100
,  // measure 68
1000
0100
0001
0100
1000
0100
0001
0100
,  // measure 69
1000
1000
0010
0010
0100
0001
0010
1000
,  // measure 70
0010
0001
0010
1000
0010
0001
0100
0001
,  // measure 71
1000
1000
2000
0000
3001
0100
1000
0100
,  // measure 72
0001
0100
1000
0100
0001
0100
1000
0100
,  // measure 73
0001
0001
0010
0010
0100
1000
0010
0001
,  // measure 74
0010
1000
0010
0001
0010
1000
0002
0000
,  // measure 75
2000
0000
3000
0000
2000
0000
3000
0000
1003
0000
0001
0000
1000
0100
1000
0000
,  // measure 76
0100
0000
0010
0000
0001
1000
0001
1000
0001
0000
1000
0000
0100
1000
0100
0000
,  // measure 77
1000
0000
1000
0000
0001
0000
0001
0000
0100
0000
0010
0000
1000
0001
1000
0000
,  // measure 78
0100
0000
1000
0000
0010
0100
0010
0100
0010
0000
1000
0000
0100
0010
0100
0000
,  // measure 79
1000
1000
0001
0001
0100
0010
0000
0010
,  // measure 80
0000
0010
0000
0010
0000
0100
0000
0100
,  // measure 81
0000
0000
0100
0000
0000
0000
0100
0000
0001
1000
0001
0000
1000
0000
1000
0000
,  // measure 82
0100
0000
1000
0001
1000
0001
1000
0001
1000
0000
0000
0000
1001
0000
0000
0000
,  // measure 83
0001
0100
0000
0100
0010
1000
0100
0000
,  // measure 84
0010
0100
0000
0100
1000
0001
0100
0000
,  // measure 85
0001
1000
0000
1000
0010
0100
0001
0000
,  // measure 86
0010
0100
0000
0100
1000
0010
0220
0000
,  // measure 87
0000
0000
0330
1002
,  // measure 88
0000
0000
0100
0000
0103
0000
0001
0001
,  // measure 89
1000
0010
1000
0000
0100
0000
0010
0000
0001
0000
0001
0000
1000
0000
0000
0000
,  // measure 90
0010
0100
0000
0010
0100
0001
0000
0000
;

//---------------dance-double - ----------------
#NOTES:
     dance-double:
     :
     Easy:
     6:
     0.313,0.346,0.120,0.103,0.000:
10010000
00000000
10000000
00000000
,
10000000
00000000
00000000
00000000
,
20020000
00000000
00000000
00000000
,
30030000
10000000
01000000
10000000
,
00000000
00100000
01000000
00100000
,
00000000
10000000
01000000
10000000
,
00000000
00010000
01000000
00010000
,
00000000
01000000
00100000
01000000
,
00000000
00001000
01000000
00001000
,
00000000
00010000
00001000
00010000
,
00000000
00001000
00001000
00001000
,
00000000
00010000
00000100
00010000
,
00000100
00010000
00001000
00010000
,
00001000
00010000
00000010
00010000
,
00000010
00010000
00001000
00010000
,
00001000
00011000
00000000
00000000
,
00000000
00011000
00000000
00001000
,
00000000
00010000
00001000
00010000
,
00000100
00002000
00000000
00000000
,
00000000
00003001
00001000
00000001
,
00000000
00000010
00000001
00000010
,
00000000
00000001
00001000
00000001
,
00000000
00001000
00000010
00001000
,
00000000
00000010
00010000
00000010
,
00000000
00010000
00001000
00010000
,
00000000
00000010
00010000
00000010
,
00000000
00010000
00001000
00010000
,
00000000
00001000
01000000
00001000
,
01000000
00001000
00100000
00010000
,
00000000
01000000
00001000
01000000
,
00001000
01000000
00010000
00100000
,
00000000
10020000
00000000
00000000
,
00000000
20030000
00000000
00000000
,
00000000
30020000
00000000
00000000
,
00000000
10030000
00000000
00000000
,
00000000
10010000
00000000
00000000
,
00000000
00000000
00000000
00000000
,
00000000
00000000
00000000
00000000
,
00000000
00000000
00000000
00000000
,
00000000
00200000
00000000
00000000
,
00000000
00000000
00000000
00000000
,
00000000
00000000
00000000
00300000
,
00000000
02000000
00000000
00000000
,
00000000
03100000
00000000
00000000
,
00000000
00000000
00000000
00000000
,
00000000
00000000
00000000
00000000
,
00000000
01100000
00000000
00000000
,
00000000
10000000
00000000
01000000
,
00000000
00100000
00000000
00001000
,
00000000
00000010
00000000
00000100
,
00000000
00000001
00001000
00000001
,
00001000
00000001
00001000
00000100
,
00001000
00000100
00001000
00000001
,
00001000
00000001
00010000
00000100
,
00010000
00000100
00010000
00001000
,
00010000
00001000
00100000
00001000
,
00100000
00001000
01000000
00100000
,
01000000
00100000
01000000
00010000
,
10000000
00000000
01000000
10000000
,
01000000
10000000
00100000
01000000
,
00100000
01000000
00010000
00100000
,
00010000
00100000
00001000
01000000
,
00001000
01000000
00011000
00000000
,
00000000
00000000
00011000
00000000
,
00010000
00000000
00011000
00010000
,
00001000
00010000
00001000
00000000
,
00000000
00000000
00010000
00000100
,
00010000
00000100
00010000
00000010
,
00010000
00010000
00000010
00000100
,
00000010
00000100
00000001
00001000
,
00000001
00000001
00000010
00000100
,
00000010
00000100
00010000
00001000
,
00010000
00010000
00001000
00100000
,
00001000
00100000
00020000
00000000
,
00000000
00030000
10010000
10000000
,
00010000
00010000
10000000
10000000
,
01000000
00100000
00001000
00001000
,
00010000
00010000
00001000
00001000
,
00100000
01000000
20000000
00000000
,
00000000
00000000
00000000
00000000
,
00000000
00000000
30020000
00000000
,
00000000
00000000
10030000
00100000
,
01000000
00100000
01000000
00001000
,
01000000
00001000
01000000
00001000
,
00010000
00001000
00010000
00000100
,
00010000
00000100
00010000
00000100
,
00000000
00000000
00000000
00000110
,
00000000
00000000
00000000
00001001
,
00000000
00001001
00000000
00000200
,
00000000
00000000
00000000
00000300
;

//---------------dance-double - ----------------
#NOTES:
     dance-double:
     :
     Medium:
     10:
     0.505,0.538,0.205,0.197,0.000:
00001001
00000000
00001000
00000000
,
00000100
00000000
00020000
00000000
,
00031000
00000000
00001000
00010000
,
00011000
10000000
01000000
10000000
,
00010000
00100000
00001000
01000000
,
00100000
01000000
00010000
00100000
,
00001000
01000000
00100000
01000000
,
00010000
00100000
00001000
01000000
,
00010000
00100000
00001000
00010000
,
00000100
00001000
00000001
00001000
,
00000001
00001000
00001000
00001000
,
00000000
00000000
00001001
00000000
00001000
00000000
00010000
00000100
,
00001000
00000000
00000010
00000000
00010000
00000000
00000010
00010000
,
00001000
00000000
00010000
00000000
00001000
00000000
00010000
00001000
,
01000000
00000000
00100000
00000000
01000000
00000000
00100000
01000000
,
00001000
00012000
00000000
00013000
,
00000000
00021000
00000000
00031000
,
00000000
01100000
01100000
01100000
,
00000000
10010000
00000000
00000000
,
00000000
00000000
01100000
00000000
00100000
00000000
10000000
00001000
,
00010000
00000000
00000100
00000000
00010000
00000000
00000100
00010000
,
00001000
00000000
00010000
00000000
00000010
00000000
00010000
00000010
,
00000100
00000000
00000001
00000000
00000010
00000000
00000001
00000010
,
00000001
00000000
00000010
00000001
00010000
00000000
00001000
00000000
,
00010000
00000000
00001000
00100000
00001000
00000000
00100000
00000000
,
00010000
00000000
00100000
00010000
10000000
00000000
00100000
00000000
,
01000000
00000000
00100000
10000000
00001000
00000000
00010000
00000000
,
00001000
00000000
00010000
00000010
00000100
00000000
00000010
00000100
,
00000001
00000000
00000010
00000100
00001000
00000000
00010000
00001000
,
00010000
00000000
00001000
00010000
00001000
00000000
00010000
00100000
,
01000000
00000000
10000000
00010000
10000000
00000000
00001000
00010000
,
00001000
00011000
00010000
00010000
,
00010000
00000010
00000010
00000010
,
00000010
00000100
00000100
00000100
,
00000100
00000002
00000000
00000000
,
00000000
00020003
00000000
00000000
,
00000000
00000000
00032000
00000000
00000000
00203000
00000000
00000000
,
00301000
02000000
00000000
00000000
,
00000000
00000000
03200000
00000000
00000000
20300000
00000000
00000000
,
30010000
00200000
00000000
00000000
,
00000000
00000000
00302000
00000000
00000000
00023000
00000000
00000000
,
00030200
00002300
00000000
00000000
,
00000000
00003002
00000000
00000000
,
00000000
00000000
00001003
00000000
00000000
00001000
00000000
00000000
,
00000000
00000000
00000100
00000000
00000000
00000100
00000000
00000000
,
00000000
00000000
00010000
00000000
00000000
00010000
00000000
00000000
,
00000000
00000000
00011000
00000000
00000000
00001000
00000000
00000000
,
00000000
10000000
01000000
00100000
,
00010000
00100000
01000000
10000000
,
00001000
00010000
00000010
00000100
,
00000001
00000100
00001001
00000001
,
00010000
00000100
00001000
00000100
00001000
00000000
00000100
00000000
,
00010000
00001000
00010000
00001000
00100000
00000000
00010000
00000000
,
01000000
00010000
01000000
00010000
10000000
00000000
01000000
00000000
,
00100000
00001000
00100000
00001000
00010000
00000000
00001000
00000000
,
00010000
00000100
00010000
00000100
00001000
00000000
00000001
00000000
,
00000010
00000001
00000010
00000001
00000100
00000000
00000010
00000000
,
00010000
00001000
00010000
00001000
00100000
00000000
00001000
00000000
,
00100000
00000000
10010000
10000000
,
01000000
10000000
01000000
10000000
00001000
00000000
00010000
00000000
,
00001000
00010000
00001000
00010000
00000010
00000000
00000100
00000000
,
00000001
00001000
00000001
00001000
00000100
00000000
00010000
00000000
,
00001000
01000000
00100000
00000000
01100000
00000000
00000000
00000000
,
01000000
00000000
01001000
00000000
,
00001000
00000000
00011000
00011000
,
00011000
00010000
00001000
00000000
,
00000000
00000000
00000000
00000000
00010000
00000100
00001000
00000000
,
00000100
00001000
00000100
00000000
00010000
00001000
00010000
00000000
,
00000010
00010000
00000010
00010000
00000010
00010000
00000100
00000000
,
00010000
00000100
00010000
00000000
00001000
01000000
00001000
00000000
,
00010000
00000010
00010000
00000000
00001000
00100000
00001000
00000000
,
00010000
00001000
10000000
00000000
01000000
00100000
00010000
00000000
,
01000000
00001000
01000000
00001000
00010000
00000100
00001000
00000000
,
00000010
00000100
00000010
00000000
00002000
00000000
00000001
00000000
,
00000001
00000000
00003001
00000000
00010000
00001000
00010000
00000000
,
00001000
00010000
00001000
00000000
00010000
00000100
00010000
00000000
,
00000100
01000000
00000100
01000000
00001000
00010000
00001000
00000000
,
00010000
00001000
00010000
00000000
00000010
00000100
00000010
00000000
,
00001000
00000100
00001000
00000100
00020000
00000000
00000000
00000000
,
00000000
00000000
00000000
00000000
,
00000000
00000000
00000000
00000000
00031000
00000000
00010000
00001000
,
01000000
00100000
10000000
01000000
10000000
00000000
10010000
00000000
,
10000000
00000000
00010000
01000000
00100000
00000000
01000000
00000000
,
00001000
00000000
00100000
01000000
10000000
00000000
00001000
00000000
,
00001000
00000000
01000000
00100000
10000000
00000000
00010000
00000000
,
00100000
00000000
00001000
00010000
00000010
00000000
00000110
00000000
,
00000000
00000000
00000000
00001001
,
00000000
00010000
00001000
00022000
,
00033000
02200000
03300000
20000000
,
00000000
00000000
00000000
30000000
;

//---------------dance-double - ----------------
#NOTES:
     dance-double:
     :
     Hard:
     15:
     0.718,0.806,0.257,0.223,0.291:
00010000
00001000
00010000
00001000
,
00010000
00000000
00001000
00000000
00010000
00100000
00010000
00100000
,
00001000
00000000
00010000
00000001
00000100
00000001
00000100
00000001
,
00010000
00000000
00000000
00000000
00011000
00000000
00000000
00000000
00010001
00000000
00000000
00000000
00000001
00000000
00000000
00000100
,
00000000
00000000
00000010
00000000
00010000
00000000
00000000
00000000
00011000
00000000
00000000
00000000
00001000
00000000
00000000
10000000
,
00000000
00000000
00100000
00000000
01000000
00000000
00000000
00000000
01100000
00000000
00000000
00000000
10000000
00000000
00000000
00100000
,
00000000
00000000
01000000
00000000
00001000
00000000
00000000
00000000
00011000
00000000
00000000
00000000
00010000
00000000
00000000
00000001
,
00000000
00000000
00000010
00000000
00000100
00000000
00000000
00000000
00000110
00000000
00000000
00000000
00000001
00000000
00000000
00001000
,
00000000
00000000
00000100
00000000
00010000
00000000
00000000
00000000
00011000
00000000
00000000
00000000
00001000
00000000
00000000
10000000
,
00000000
00000000
01000000
00000000
00100000
00000000
00000000
00000000
01100000
00000000
00000000
00000000
10000000
00000000
00000000
00010000
,
00000000
01000000
00001000
00000000
00001000
00000000
00001000
00000000
,
00000000
00000000
00000000
00000000
10000000
00000000
01000000
00000000
00100000
00000000
00000000
00000000
00001000
00000000
00000000
00100000
,
00000000
00000000
10000000
00000000
00100000
00000000
00001000
00000000
10000000
00000000
00000000
00000000
00001000
00000000
00000000
01000000
,
00000000
00000000
10000000
00000000
01000000
00000000
00001000
00000000
10000000
00000000
00000000
00000000
00001000
00000000
00000000
00100000
,
00000000
00000000
10000000
00000000
00100000
00000000
00001000
00000000
10000000
00000000
00000000
00000000
00001000
00000000
00000000
00010000
,
00000000
00000000
00000010
00000000
00000110
00000000
00000000
00000000
00000000
00000000
00000000
00000000
00000000
00000000
00000010
00000100
,
00000010
00000100
00000010
00000100
00000010
00000000
00000000
00000000
00000000
00000000
00000000
00000000
00001001
00000000
00000000
00000000
,
00001000
00000000
00000000
00000000
00000001
00000000
00000010
00000000
00000100
00000000
00010000
00000000
00001000
00000000
00010000
00001000
,
00010000
00001000
00010000
00001000
00010000
00000000
00000000
00000000
00000000
00000000
00000000
00000000
00000000
00000000
00000000
00000000
,
00000000
00000000
00000000
00000000
00011000
00000000
00000000
00000000
00010000
00000000
00000001
00000000
00000010
00000000
00000000
00000100
,
00000000
00000000
00010000
00000000
00001000
00000000
10000000
00000000
00100000
00000000
01000000
00000000
00100000
00000000
00000000
01000000
,
00000000
00000000
00001000
00000000
00010000
00000000
00000010
00000000
00000100
00000000
00000010
00000000
00001000
00000000
00000000
00000100
,
00000000
00000000
00010000
00000000
00001000
00000000
10000000
00000000
01000000
00000000
10000000
00000000
00010000
00000000
00000000
01000000
,
00000000
00000000
00001000
00000000
00010000
00000000
00000001
00000000
00000010
00000000
00000001
00000000
00001000
00000000
00000000
00000010
,
00000000
00000000
00010000
00000000
00001000
00000000
01000000
00000000
00100000
00000000
01000000
00000000
00010000
00000000
00000000
00100000
,
00000000
00000000
00001000
00000000
00010000
00000000
00000001
00000000
00000100
00000000
00000001
00000000
00001000
00000000
00000000
00000100
,
00000000
00000000
00010000
00000000
00001000
00000000
00100000
00000000
01000000
00000000
00100000
00000000
00001000
00000000
00000000
00100000
,
00000000
00000000
00001000
00000000
00011000
00000000
00000000
00000000
00001000
00000000
00010000
00000000
00000100
00000000
00000000
00001000
,
00000000
00000000
00000001
00000000
00000010
00000000
00000100
00000000
00010000
00000000
00001000
00000000
00100000
00000000
00000000
00010000
,
00000000
00000000
10000000
00000000
00100000
00000000
01000000
00000000
00001000
00000000
00010000
00000000
00000100
00000000
00000000
00000010
,
00000000
00000000
00000001
00000000
00000010
00000000
00000100
00000000
00010000
00000000
00001000
00000000
00100000
00000000
00000000
01000000
,
00000000
10000000
10010000
00000000
00010000
00000000
00010000
00000000
,
00011000
00001000
00001000
00001000
,
00001000
00000000
00000000
00000000
00010000
00000000
00000000
00000000
00001000
00000000
00000000
00000000
00010000
00000000
00001000
00010000
,
00001000
00010000
00001000
00010000
00002000
00000000
00000000
00000000
00000000
00000000
00000000
00000000
00000000
00000000
00000000
00000000
,
00003000
02002000
00000000
00000000
,
03000000
00000000
20003000
00000000
00000000
32000000
00000000
00000000
,
03200000
00002000
00000000
00000000
,
00300000
00000000
00023000
00000000
00000000
00030020
00000000
00000000
,
00000230
00000002
00000000
00000000
,
00000300
00000000
00020003
00000000
00000000
00032000
00000000
00000000
,
20003000
00002000
00000000
00000000
,
30003000
20020000
00000000
00000000
,
30030000
00000000
10010000
00000000
10000000
00100000
00000000
10000000
,
00001000
00100000
01000000
00000000
10000000
00100000
00000000
10000000
,
00001000
00100000
01000000
00000000
10000000
00001000
00000000
00100000
,
00001000
00000000
00010000
00000000
00011000
00000000
00000000
00000000
00001000
00000000
00010000
00000000
00000000
00000000
00001000
00010000
,
00001000
00010000
00001000
00010000
00001000
00000000
00010000
00000000
00000100
00000000
00000000
00000000
00000100
00000000
00001000
00000000
,
00000001
00000000
00000001
00000010
00000100
00000000
00000100
00010000
,
00001000
00000000
00000000
00000000
00001000
00000000
01000000
00000000
00100000
00000000
00000000
00000000
10000000
00000000
00010000
10000000
,
00010000
10000000
00010000
10000000
00010000
00000000
00000000
00000000
10010000
00000000
00000000
00000000
11000000
00000000
00000000
00000000
,
10000000
00000000
00000000
00010000
00100000
00000000
00001000
00000000
00010000
00000000
00000000
00000000
00011000
00000000
00000000
00000000
,
00010000
00000000
00000000
00000010
00000100
00000000
00000001
00000000
00001000
00000000
00000000
00000000
00001001
00000000
00000000
00000000
,
00000001
00000000
00000000
00001000
00000100
00000000
00010000
00000000
00001000
00000000
00000000
00000000
00011000
00000000
00000000
00000000
,
00001000
00000000
00000000
01000000
00100000
00000000
10000000
00000000
00010000
00000000
00000000
00000000
10010000
00000000
00000000
00000000
,
10000000
00000000
00000000
00010000
01000000
00000000
00001000
00000000
00010000
00000000
00000000
00000000
00011000
00000000
00000000
00000000
,
00010000
00000000
00000000
00000100
00000010
00000000
00000001
00000000
00001000
00000000
00000000
00000000
00001001
00000000
00000000
00000000
,
00000001
00000000
00000000
00001000
00000010
00000000
00010000
00000000
00002000
00000000
00000000
00000000
00010000
00000000
00000000
00000000
,
00013000
00000000
00000000
00000000
00000001
00000100
00000010
00000100
,
00000001
00000000
00000000
00000001
00001000
00000000
00000100
00000000
00000010
00000000
00000001
00000000
00010000
00000000
00001000
00000000
,
00010000
00000000
00000000
00010000
00000100
00000000
00010000
00000000
00001000
00000000
01000000
00000000
00100000
00000000
01000000
00000000
,
00010000
00000000
00000000
00010000
10000000
00000000
01000000
00000000
00100000
00000000
00001000
00000000
00010000
00000000
00000100
00000000
,
00001000
00000000
00000000
00001000
00000001
00000000
00001000
00000000
00001001
00000000
00000000
00000000
00000000
00000000
00000000
00000000
,
00000000
00000000
00000010
00000100
00000010
00000100
00000010
00000100
00000010
00000000
00000000
00000000
00000000
00000000
00000000
00000000
,
00001000
00000001
00000000
00010000
00001000
01000000
00100000
10000000
,
01000000
00000000
00100000
00001000
00100000
00001000
00100000
00001000
00100000
00000000
00000000
00000000
00000000
00000000
00000000
00000000
,
00000000
00000000
00000000
00000000
00001000
01000000
10000000
01000000
,
00001000
01000000
10000000
01000000
00001000
01000000
10000000
01000000
,
00001000
00001000
00010000
00010000
00000001
00000100
00001000
00000100
,
00000001
00000100
00001000
00000100
00000001
00010000
00000100
00010000
,
00001000
00001000
00002000
00000000
10003000
00100000
00010000
00100000
,
10000000
00100000
00010000
00100000
10000000
00001000
00100000
00001000
,
00010000
00010000
00001000
00001000
00010000
00000010
00000001
00000010
,
00010000
00000010
00000001
00000010
00010000
00001000
00020000
00000000
,
00002000
00000000
00003000
00000000
00002000
00000000
00003000
00000000
00031000
00000000
01000000
00000000
00100000
01000000
00100000
00000000
,
10000000
00000000
01000000
00000000
00100000
00010000
00100000
00010000
00100000
00000000
00001000
00000000
00010000
00001000
00010000
00000000
,
00010000
00000000
00010000
00000000
00000100
00000000
00000100
00000000
00001000
00000000
00000001
00000000
00000010
00000001
00000010
00000000
,
00000100
00000000
00010000
00000000
00001000
00010000
00001000
00010000
00001000
00000000
01000000
00000000
00100000
01000000
00100000
00000000
,
10000000
10000000
00001000
00001000
00010000
00001000
00000000
00001000
,
00000000
00001000
00000000
00001000
00000000
00100000
00000000
00100000
,
00000000
00000000
00010000
00000000
00000000
00000000
00010000
00000000
10000000
00010000
10000000
00000000
00100000
00000000
00100000
00000000
,
01000000
00000000
00001000
00100000
00001000
00100000
00001000
00100000
00001000
00000000
00000000
00000000
00011000
00000000
00000000
00000000
,
00010000
00001000
00000000
00001000
10000000
01000000
00100000
00000000
,
00001000
00010000
00000000
00010000
00000001
00000010
00000100
00000000
,
00010000
00001000
00000000
00001000
10000000
00100000
01000000
00000000
,
00001000
00010000
00000000
00010000
00000001
00000100
00000220
00000000
,
00000000
00000000
00000330
00022000
,
00003000
00000000
00001000
00000000
00031000
00000000
10000000
10000000
,
00010000
01000000
00010000
00000000
00100000
00000000
00001000
00000000
00010000
00000000
00010000
00000000
00000100
00000000
00000000
00000000
,
00001000
00000001
00000000
00001000
00000001
00010000
00000000
00000000
;

//---------------dance-single - ----------------
#NOTES:
     dance-single:
     :
     Beginner:
     3:
     0.124,0.152,0.094,0.000,0.000:
1000
0000
0000
0000
,
0000
0000
0000
0000
,
1000
0000
0000
0000
,
0000
0001
0000
0000
,
0000
1000
0000
0000
,
0000
0001
0000
0000
,
0000
1000
0000
0000
,
0000
0010
0000
0000
,
0000
0100
0000
0000
,
0000
0010
0000
0000
,
0000
0100
0000
0000
,
0000
0001
0000
0000
,
0000
1000
0000
0000
,
0000
0001
0000
0000
,
0000
1000
0000
0000
,
0000
0100
0000
0000
,
0000
0100
0000
0000
,
0000
0100
0000
0000
,
0000
0100
0000
0000
,
0000
1001
0000
0000
,
0000
0001
0000
0000
,
0000
1000
0000
0000
,
0000
0001
0000
0000
,
0000
1000
0000
0000
,
0000
0001
0000
0000
,
0000
1000
0000
0000
,
0000
0001
0000
0000
,
0000
0100
0000
0000
,
0000
0010
0000
0000
,
0000
0100
0000
0000
,
0000
0010
0000
0000
,
0000
0100
0000
0000
,
0000
0000
0000
0000
,
0000
0000
0000
0000
,
0000
0100
0000
0000
,
0000
0110
0000
0000
,
0000
0000
0000
0000
,
0000
0000
0000
0000
,
0000
0000
0000
0000
,
0000
0010
0000
0000
,
0000
0000
0000
0000
,
0000
0000
0000
0000
,
0000
0110
0000
0000
,
0000
1001
0000
0000
,
0000
0000
0000
0000
,
0000
0000
0000
0000
,
0000
1001
0000
0000
,
0000
0001
0000
0000
,
0000
0000
0000
0000
,
0000
1000
0000
0000
,
0000
0000
1001
0000
,
0001
0000
1000
0000
,
0000
0000
0001
0000
,
1000
0000
0001
0000
,
0000
0000
1000
0000
,
0001
0000
1000
0000
,
0000
0000
0001
0000
,
1000
0000
0001
0000
,
0000
0000
0100
0000
,
0010
0000
0100
0000
,
0000
0000
0010
0000
,
0100
0000
0010
0000
,
0000
0000
0100
0000
,
0000
0000
0100
0000
,
0000
0000
0110
0000
,
0000
0000
0000
0000
,
0000
0000
0001
0000
,
0001
0000
0001
0000
,
0000
0000
1000
0000
,
1000
0000
1000
0000
,
0000
0000
0001
0000
,
0001
0000
0001
0000
,
0000
0000
1000
0000
,
1000
0000
1000
0000
,
0000
0000
0001
0000
,
0100
0000
0010
0000
,
0000
0000
1000
0000
,
0010
0000
0100
0000
,
0000
0000
1001
0000
,
0000
0000
0000
0000
,
0000
0000
0001
0000
,
0000
0000
0000
1001
,
0000
0000
0000
0010
,
0000
0000
0000
0010
,
0000
0000
0000
0010
,
0000
0000
0000
0110
,
0000
0000
0000
1001
,
0000
1000
0000
0001
,
0000
1000
0000
0100
;
