#TITLE:童話回廊;
#SUBTITLE:;
#ARTIST:DJ TOTTO;
#TITLETRANSLIT:DOUWA KAIROU;
#SUBTITLETRANSLIT:;
#ARTISTTRANSLIT:;
#CREDIT:DigiMindAxel;
#BANNER:DOUWA KAIROU.png;
#BACKGROUND:DOUWA KAIROU-bg.png;
#LYRICSPATH:;
#CDTITLE:GITADORA.png;
#MUSIC:DOUWA KAIROU.ogg;
#METERTYPE:DDR X;
#OFFSET:-0.555;
#SAMPLESTART:43.780;
#SAMPLELENGTH:12.000;
#SELECTABLE:YES;
#BPMS:0.000=262.000;
#STOPS:;
#BGCHANGES:-4.000=DOUWA KAIROU.avi=1.000=1=1=0,
99999=-nosongbg-=1.000=0=0=0 // don't automatically add -songbackground-
;

//---------------dance-single - ----------------
#NOTES:
     dance-single:
     :
     Easy:
     6:
     0.315,0.408,0.176,0.202,0.000:
0000
0000
0000
0000
,
0000
0000
0000
0000
,
0000
0000
0000
0000
,
0000
0000
0000
0000
,
0000
0000
0000
0000
,
2000
0000
0000
0000
,
0000
3002
0000
0000
,
0000
0000
2003
0000
,
0000
0000
0000
3001
,
0000
0000
0000
0000
,
1000
0000
0000
0100
,
1000
0010
0000
0000
,
0100
0100
0001
0000
,
0000
0010
0100
0010
,
0000
0000
0001
0000
,
1001
0000
0000
1000
,
0010
1000
0000
0000
,
1001
0000
0001
0100
,
0000
0001
1000
0100
,
0000
0000
1000
0000
,
0000
1001
0000
0000
,
0000
0000
0000
0001
,
0000
0000
0000
0000
,
0000
1000
0000
0100
,
0000
1000
0100
0010
,
0000
0001
0100
0010
,
0100
0001
0000
1000
,
0000
0100
0000
0010
,
0000
0001
1000
0000
,
0010
0100
0000
0010
,
0000
1000
0000
0001
,
0000
0010
0100
1000
,
0100
2000
0000
3010
,
0100
0010
1000
0001
,
0000
0000
1001
0000
,
0000
0001
0000
0100
,
0010
0100
0000
0001
,
0000
0000
1000
0000
,
0000
0100
0000
0010
,
0001
0010
0001
0100
,
0000
0000
0010
0000
,
0000
1000
0000
0001
,
0010
0100
1000
0001
,
0000
1000
0100
0010
,
0001
1000
0000
0000
,
0010
0100
0010
0100
,
0000
0000
0000
0000
,
0000
0002
0000
0000
,
1003
0100
0010
0000
,
0000
0001
0000
2000
,
0000
0000
3010
0100
,
0001
0000
0000
0001
,
0000
0200
0000
0000
,
0310
1000
0100
0000
,
0000
0100
0000
2000
,
0000
0000
3001
1000
,
0100
0010
0000
0001
,
0000
0000
1001
0000
,
0000
1000
0000
0000
,
0010
0100
0001
0100
,
0000
0000
0001
0000
,
0000
1000
0000
0000
,
0100
1000
0010
0100
,
0000
0000
1001
0000
,
0000
0001
0000
0000
,
0010
0001
0010
0100
,
0000
0000
1001
0000
,
0000
1000
0000
0000
,
0100
0010
0001
0010
,
0100
0000
2001
0000
,
0000
0000
0000
0000
,
3002
0000
0000
0000
,
0000
0000
2003
0000
,
0000
0000
0000
0000
,
3002
0000
0000
0000
,
0000
0003
2001
0000
,
0000
0000
0000
0000
,
3020
0000
0000
0000
,
0000
0000
0130
0000
,
0000
0100
0000
0000
,
0100
0000
0000
0110
,
0000
0000
2001
0000
,
0000
3002
0000
0000
,
1003
0100
0010
0001
,
0000
0000
2000
0000
,
0000
3002
0000
0000
,
0013
0100
1000
0010
,
0000
0000
0200
0000
,
0000
0302
0000
0000
,
1003
0100
0010
0001
,
0000
0000
2000
0000
,
0000
3002
0000
0000
,
0103
0010
1000
0010
,
0000
0000
0110
0000
,
0000
0110
0000
0000
,
1001
0000
0000
1001
,
0000
0000
0001
0000
,
0000
1000
0100
1000
,
0100
1000
0010
0100
,
0000
0000
1001
0000
,
0000
0010
0100
0010
,
0100
0001
0010
0100
,
0000
0000
1001
0000
,
0000
1000
0000
0000
,
1001
0000
0000
0001
,
0000
0000
0110
0000
,
0000
0100
0000
0000
,
0110
0000
0000
0010
,
0000
0000
1000
0001
,
1000
0001
0100
0001
,
0100
0001
1000
0100
,
1000
0100
0020
0000
,
0000
0000
0000
0000
,
0000
0000
0000
0000
,
0000
0000
0000
0000
,
0000
0000
0000
0000
,
0000
0030
0000
0000
;

//---------------dance-single - ----------------
#NOTES:
     dance-single:
     :
     Medium:
     10:
     0.497,0.663,0.369,0.132,0.000:
0000
0000
0000
0000
,
0000
0000
0000
0000
,
0000
0000
0000
0000
,
0000
0000
0000
0000
,
0000
0000
0000
0000
,
1000
0000
0000
1000
0000
0000
1000
0000
,
0000
0000
0100
0000
0000
0100
0000
0000
,
0100
0000
0000
0000
0010
0000
0000
0010
,
0000
0010
0000
1001
,
0000
1000
0000
0000
1001
0000
0000
0000
,
0010
0100
0010
0100
,
0010
0100
0001
0100
,
0001
0000
1000
0100
,
1000
0100
1000
0001
,
1000
0001
1000
0000
,
0010
0100
0010
0100
,
0010
0100
0001
0010
,
0001
0000
1000
0100
,
1000
0100
1000
0001
,
1000
0001
0010
0100
,
1000
0002
0000
0000
,
0000
0000
0000
1003
,
0000
0000
0000
0000
,
0000
1001
0000
0100
,
0000
0010
0100
1000
,
0000
0001
1000
0000
1000
0000
0100
0000
,
0010
0001
0000
0100
,
0000
0001
0010
0100
,
0000
1000
0001
0000
0100
0000
0001
0000
,
1000
0100
0000
1000
,
0100
0001
0100
2000
,
0000
3001
0100
1000
,
0100
0000
0001
0000
0000
0010
0000
0000
,
0100
1000
0010
0200
,
0000
0000
0310
0000
,
0000
0000
1001
0000
0000
1000
0001
0000
,
0010
0100
1000
0010
,
0000
0100
0010
0100
,
0001
0000
0001
0000
0000
1000
0001
0000
,
0010
0001
0100
0010
,
0000
1000
0001
0000
1000
0000
0100
0000
,
0010
0000
0100
0000
0000
1000
0001
0000
,
0010
0100
1000
0001
,
0000
1000
0001
0000
0010
0000
0100
0000
,
1000
0000
0010
0000
0000
1000
0001
0000
,
0100
0010
1000
2002
,
0000
0000
3003
0000
,
0000
1000
0100
1000
,
0001
1000
0001
0010
,
0001
0100
0100
0010
,
1000
0010
1000
0100
,
1000
0010
0100
0001
,
0000
0010
0100
0010
,
0100
1000
0001
1000
,
0001
0100
0001
0100
,
0010
1000
0100
1000
,
1000
0100
0010
0001
,
0001
1000
0010
1010
,
0000
0010
0100
0000
,
1001
0100
0010
0001
,
0000
1000
0001
0000
0010
0000
0110
0000
,
0000
0100
0010
0000
,
1001
0100
0010
0001
,
0000
0000
0110
0100
,
0000
0001
1000
0000
,
1001
0010
0100
0001
,
0000
0000
0100
0110
,
0000
0010
1000
0000
,
0100
0000
0010
0001
0010
0000
0001
0000
,
0010
0001
0210
0000
,
0000
0000
0000
0000
,
0320
0000
0000
0000
,
0000
0000
0230
0000
,
0000
0000
0000
0000
,
0320
0000
0000
0000
,
0030
0000
0100
0010
0200
0000
0000
0000
,
0000
0000
0000
0000
,
0302
0000
0000
0000
,
0000
0000
1003
0001
,
1000
0001
1000
0001
,
1000
0001
1000
1001
,
0000
0000
0010
1010
,
0000
0001
1001
0000
,
1100
1000
0010
0110
,
0000
0000
0101
0100
,
0000
0110
0010
0000
,
1001
0001
0100
0110
,
0000
0000
1100
1000
,
0000
0110
0100
0000
,
0101
0001
1000
1100
,
0000
0000
0110
0010
,
0000
0101
0001
0000
,
0110
0010
0100
1100
,
1000
0001
1001
1000
,
0000
0110
0010
0000
,
0011
0001
0000
0110
,
0100
0000
1001
0100
,
0010
0000
0001
1000
0001
0000
1000
0000
,
0100
1100
1000
1001
,
0000
0000
0110
0010
,
0000
1000
0001
0010
,
0110
0100
1000
1001
,
0000
0000
1010
0010
,
0100
0010
0100
0000
0100
0000
0001
1000
,
0001
0000
0001
0000
1000
0100
1000
0100
,
1000
0000
1001
0001
,
0010
0001
0010
0000
0010
0000
0100
0010
,
0100
0000
0100
0000
1000
0001
1000
0001
,
1000
0000
0000
0000
0100
1000
0100
0000
,
0100
0000
0010
0001
0010
0000
0010
0000
,
0001
1000
0001
0000
0001
0000
1000
0010
,
1000
0010
1000
0000
0002
0000
0000
0000
,
0000
0000
0003
2000
,
0000
0000
0000
3000
,
0002
0000
0000
0000
,
0003
2000
0000
0000
,
0000
3000
0000
0000
;

//---------------dance-single - ----------------
#NOTES:
     dance-single:
     :
     Hard:
     14:
     0.695,0.766,0.606,0.246,0.000:
0000
0000
0000
0000
,
0000
0000
0000
0000
,
0000
0000
0000
0000
,
0000
0000
0000
0000
,
0000
0000
0000
0000
,
2000
0000
0001
0000
0000
0001
0000
0000
,
3001
0000
0200
0000
0010
0000
0000
0010
,
0000
0310
2000
0100
,
0000
0100
0000
0000
3100
0000
1000
0001
,
0000
1000
0001
0000
1000
0100
1000
0010
,
0100
0000
0001
1000
0100
0000
0100
0000
,
0010
0000
0010
0000
0001
0010
0100
0000
,
0100
0000
1000
0000
1000
0000
0100
0010
,
0001
0001
0100
0100
,
0001
0010
0100
0000
0010
0001
0010
0001
,
1000
0000
0010
0100
0001
0000
0001
0000
,
0100
0000
0100
0000
0010
1000
0100
0000
,
0100
0000
0010
0000
0010
0000
0001
0010
,
0100
0100
0010
0010
,
0001
0010
0100
0000
1000
0010
1000
0010
,
1000
0100
0020
0000
0000
0000
0000
0000
,
0000
0000
0000
0031
,
0000
0000
0000
0000
,
0000
0000
1001
0000
0000
0001
0100
0001
,
0000
0100
0001
0010
0100
0000
1000
0000
,
0000
0010
0100
0000
0100
0000
0001
0000
,
0001
0000
1000
0000
0000
0001
0010
0001
,
0000
0010
0001
0100
0010
0000
0100
0000
,
0000
0001
1000
0000
1000
0000
0010
0000
,
0010
1001
0000
0001
,
0100
1000
0100
0002
,
0000
0000
1003
0100
0010
0000
0010
0000
,
0100
0000
0002
0000
0000
1000
0000
0000
,
1003
0000
0001
0000
0100
0000
0001
0100
,
0001
0100
0010
1000
0100
0000
0000
0000
,
0000
0000
1001
0000
0000
1000
0001
1000
,
0000
0001
1000
0100
0010
0000
0001
0000
,
0000
0100
0010
0000
0010
0000
1000
0000
,
1000
0000
0001
0000
0000
1000
0010
1000
,
0000
0010
1000
0100
0010
0000
0001
0000
,
0000
0100
0010
0000
0110
0000
0100
0000
,
0101
0000
1001
0000
0000
0000
0100
0001
,
0100
0001
1000
0100
0010
0001
1000
0000
,
0000
0010
0100
0000
0100
0000
0001
1000
,
0001
1000
0001
0000
0000
0100
0010
0000
,
0010
0000
1000
0000
1000
0000
0100
0010
,
0100
0010
0100
0010
0001
0100
0001
0100
,
0001
0000
1000
0000
0001
0010
0100
0000
,
0010
0000
0010
0000
0001
0000
1000
0010
,
0100
0010
0010
1000
,
0100
0010
0001
0000
1000
0000
1000
0000
,
0010
1000
0010
1000
0001
0010
0100
1000
,
0001
0000
0100
0000
0001
0010
0100
0000
,
1000
0000
1000
0000
0001
0000
1000
0010
,
0100
0010
0010
1001
,
0001
0010
0100
0000
0010
0000
0010
0000
,
1001
0000
1000
0010
0100
0000
1001
0000
,
0010
0100
1000
0001
0100
0000
0101
0000
,
1000
0100
1000
0000
1100
0000
0010
0100
,
0010
0110
0100
1001
,
0000
0000
0001
0100
0010
0000
0110
0000
,
1000
0100
1000
0000
1100
0000
0001
0100
,
0001
0101
0100
1100
,
0000
0000
1001
1001
,
0001
0010
0001
0000
0011
0000
1000
0010
,
1000
1010
0010
1001
,
0000
0000
0001
0010
0100
0000
0110
0000
,
1000
0010
1000
0000
1010
0000
0100
0010
,
0100
0010
1000
0010
1000
0010
1000
0001
,
1000
0001
0010
0100
2000
0000
0000
0000
,
0000
0000
0000
0000
,
3020
0000
0000
0000
,
0000
0000
0230
0000
,
0000
0000
0000
0000
,
0302
0000
0000
0000
,
0000
1003
0100
1000
0002
0000
0000
0000
,
0000
0000
0000
0000
,
0023
0000
0000
0000
,
0000
0030
1000
0100
,
0001
0100
1000
0100
,
0001
0100
1000
2002
,
0000
3003
1010
1010
,
1000
0001
0010
0000
0011
0000
0000
0000
,
1001
0100
1100
0022
,
0000
0033
1001
1001
,
0001
1000
0010
0000
1010
0000
0000
0000
,
0110
0100
1010
2002
,
0000
3003
0110
0110
,
0100
0010
0001
0000
0011
0000
0000
0000
,
1010
0010
1001
0220
,
0000
0330
1100
1100
,
1000
0010
0100
0000
0110
0000
0000
0000
,
1001
0010
0100
1000
,
0010
0100
1001
1000
,
0000
1001
0001
0000
,
0110
0100
0000
1001
,
1000
0001
1000
0000
0010
0000
0100
0001
,
0010
0000
0100
1000
0100
1000
0010
0100
,
0001
0101
1100
0220
,
0000
0000
0330
0000
0010
0000
0001
0010
,
0100
0000
0010
0000
0001
0100
0010
0000
,
1010
0110
0101
2020
,
0000
3030
1001
1001
,
0001
1000
0010
0000
1010
0000
0100
0001
,
0010
0000
0011
0000
0100
1000
0100
1000
,
0010
0100
0001
0000
1001
0000
1001
0000
,
1000
0100
0010
0000
0110
0000
0001
1000
,
0010
0000
1010
0000
0100
0010
0100
0010
,
1000
0100
0010
0001
1000
0100
0010
0000
,
0101
0000
0001
1000
0010
0000
1001
0000
,
0100
0010
0001
0000
0110
0000
0100
1000
,
0010
1000
0100
1000
0002
0000
0000
0000
,
0000
0000
0003
0200
,
0000
0000
0000
0300
,
0020
0000
0000
0000
,
0030
2000
0000
0000
,
0000
3000
0000
0000
;

//---------------dance-single - ----------------
#NOTES:
     dance-single:
     :
     Challenge:
     16:
     0.912,0.868,0.500,0.140,0.000:
0000
0000
0000
0000
,
0000
0000
0000
0000
,
0000
0000
0000
0000
,
0000
0000
0000
0000
,
0000
0000
0000
0000
,
1000
0100
0010
0001
1000
0000
0010
0100
,
0010
0000
1000
0100
0010
0001
1000
0000
,
0010
0100
0010
0000
1000
0010
0100
0001
,
1000
0000
0100
0010
0100
1000
0010
1000
,
0000
1000
0001
1000
0100
0010
0001
0010
,
0100
1000
0100
1000
0100
0010
0001
0010
,
0001
0100
0001
0100
0001
0100
0001
0100
,
0010
1000
0100
0000
1000
0100
1000
0100
,
1000
0100
0010
0100
0010
0100
0010
0001
,
0010
0001
1000
0100
0010
0001
1000
0000
,
0100
0010
0100
0010
0100
0010
0001
0100
,
0001
0100
0010
1000
0010
1000
0010
1000
,
0001
0010
0100
0000
1000
0010
1000
0010
,
1000
0001
0010
0001
0010
0001
0100
0010
,
0100
0010
1000
0100
0001
0100
1000
0001
,
0010
0100
2000
0000
0000
0000
0000
0000
,
0000
0000
0000
3001
,
0000
0000
0000
0000
,
0000
0000
1001
0000
1000
0100
1000
0001
,
0000
0001
0010
0100
0010
0001
0200
0000
,
0301
1000
0001
0010
0100
0000
1100
0000
,
0110
0000
0110
0000
0000
0000
1000
0001
,
0000
0001
1000
0100
0010
0100
2000
0000
,
3001
0010
0200
0000
0310
0000
0101
0000
,
1010
0000
1001
0000
0000
0000
0100
1000
,
0001
0101
0110
2100
,
0000
0000
3100
0010
0001
0010
0100
0000
,
1100
0000
0100
0001
0000
0001
1000
0000
,
0100
0010
0001
0010
0100
1000
0010
0100
,
0001
0100
1000
0100
0001
1000
0100
1000
,
0001
0000
1001
0000
1000
0100
1000
0001
,
0000
0001
0100
0010
1000
0100
0010
0000
,
0001
1000
0010
1000
0001
0000
0011
0000
,
1100
0000
1002
0000
0000
0000
1003
0001
,
0000
0001
1000
0010
0100
0001
0010
0000
,
0001
0010
0100
1000
0001
0000
1001
0000
,
1100
0000
0012
0000
0000
0000
1003
0010
,
0001
0010
0100
0001
1000
0010
0100
0000
,
0001
1000
0100
0001
0100
1000
0010
0100
,
0010
0100
0001
0000
0010
0100
1000
0100
,
1000
0010
0100
0000
0101
0000
0001
0100
,
1000
0100
0010
1000
0001
0010
0100
1000
,
0001
0000
0010
0001
0010
0001
0100
0010
,
0100
0010
1000
0100
1000
0100
1000
0100
,
1000
0010
0100
0010
0100
0000
0001
1000
,
0001
1000
0010
1000
0010
1000
0001
0010
,
0001
0010
0001
1000
0010
0100
0001
1000
,
0100
0000
0010
0001
0010
0001
1000
0010
,
1000
0010
1000
0001
1000
0001
0100
0010
,
0100
0010
0100
0010
1000
0000
0001
0010
,
0001
0010
0100
1000
0100
1000
0010
0100
,
0010
0100
0001
0010
0100
0010
0001
1000
,
0100
0001
0100
1000
0001
0000
1001
0000
,
1000
0100
0010
0000
0110
0000
0100
0001
,
1000
1001
1100
0012
,
0000
0000
0013
0100
1000
0000
1100
0000
,
0100
0001
0010
0000
0011
0000
0010
0100
,
1000
1100
0011
2001
,
0000
3000
0010
0110
,
0100
0001
0010
0000
0011
0000
0001
0010
,
0100
1100
1001
0210
,
0000
0000
0310
1000
0001
0000
1001
0000
,
0100
1000
0010
0000
0110
0000
0100
0001
,
1000
0100
1000
0100
0010
0001
0010
0001
,
0100
0010
1000
0100
2000
0000
0000
0000
,
0000
0000
0000
0000
,
3200
0000
0000
0000
,
0000
0000
2300
0000
,
0000
0000
0000
0000
,
3002
0000
0000
0000
,
0003
1000
0100
1000
0001
0000
0000
0000
,
1000
0100
0000
1000
0100
0000
0000
0000
,
1001
0000
0000
0001
,
0000
0000
0001
1000
0100
0000
0100
0000
,
0100
0010
0010
0010
,
1001
0000
0001
0100
0000
0001
1000
0100
,
0010
0001
1000
0100
0010
0000
0101
0000
,
0001
1000
0100
0000
1000
0001
0100
1000
,
0100
0001
1000
0000
1100
0000
0101
0000
,
0001
1000
0001
1000
0010
0000
0110
0000
,
0100
0001
1000
0001
0100
1000
0100
0001
,
0010
0100
1000
0000
1100
0000
0220
0000
,
0000
0330
1100
1100
,
1000
0001
0100
0000
0001
1000
0010
0001
,
0010
1000
0100
0000
1100
0000
1001
0000
,
0001
1000
0001
1000
0100
0000
1100
0000
,
1000
0001
0100
0000
0001
1000
0010
0001
,
0010
1000
0001
0010
0100
1000
0001
0100
,
0001
1000
0100
0000
1001
0000
1001
0000
,
0000
0101
0101
0000
,
0110
0110
0000
1100
,
1000
0100
0010
0001
1000
0000
0001
0100
,
0001
0000
0010
0100
0010
0100
1000
0010
,
0001
0010
0100
0001
1000
0100
0010
0001
,
0010
0001
0100
0010
0100
0000
0001
1000
,
0001
0000
0100
0010
0100
0010
1000
0100
,
1000
0001
0100
1000
0100
0001
1000
0010
,
1000
0010
0100
0000
1001
0000
0001
0100
,
0001
1000
0100
1000
0001
0010
0001
1000
,
0010
0100
0001
1000
0010
0100
0001
1000
,
0001
0010
0100
1000
0001
0000
1000
0001
,
1000
0010
1000
0001
0010
0001
1000
0100
,
1000
0001
0100
1000
0100
0001
0010
0100
,
1000
0001
0010
0100
1000
0010
0001
0010
,
1000
0001
1000
0100
0010
1000
0010
0001
,
1000
0001
0010
1000
0001
0010
0100
0001
,
1000
0100
0001
0100
1000
0001
0010
0100
,
1000
0000
0010
0100
0010
0000
1000
0100
,
0010
0001
1000
0000
0010
0100
0010
0000
,
1000
0010
0100
0001
1000
0000
0100
0010
,
0100
0000
1000
0010
0100
0001
1000
0000
,
0100
0010
0100
0000
0000
0000
0000
0000
;

//---------------dance-double - ----------------
#NOTES:
     dance-double:
     :
     Easy:
     6:
     0.340,0.408,0.158,0.211,0.000:
00000000
00000000
00000000
00000000
,
00000000
00000000
00000000
00000000
,
00000000
00000000
00000000
00000000
,
00000000
00000000
00000000
00000000
,
00000000
00000000
00000000
00000000
,
20000000
00000000
00000000
00000000
,
00000000
30020000
00000000
00000000
,
00000000
00000000
20030000
00000000
,
00000000
00000000
00000000
30010000
,
00000000
00010000
00000000
00000000
,
10010000
00000000
00000000
10000000
,
01000000
00100000
00000000
00000000
,
00100000
00010000
00100000
00000000
,
00000000
00001000
00010000
00000010
,
00000000
00000000
00000010
00000000
,
00000110
00000000
00000000
00000010
,
00000001
00000100
00000000
00000000
,
00000100
00000010
00000100
00000000
,
00000000
00000001
00000100
00000010
,
00000000
00000000
00000010
00000000
,
00000000
00000110
00000000
00000000
,
00000000
00000000
00000000
00000100
,
00000000
00000000
00000000
00000000
,
00000000
00000010
00000000
00001000
,
00000000
00000010
00001000
00000001
,
00000000
00000010
00000100
00010000
,
00001000
00010000
00000000
00001000
,
00000000
01000000
00000000
00100000
,
00000000
10000000
00010000
00000000
,
00010000
10000000
00000000
01000000
,
10000000
01000000
10000000
00100000
,
00000000
01000000
00001000
00010000
,
00001000
00020000
00000000
00030010
,
00000100
00000001
00000010
00000100
,
00000000
00000000
00000100
00000000
,
00000000
00001001
00000000
00001000
,
00000001
00000010
00000100
00000000
,
00000000
00001000
00000010
00000100
,
00000010
00000100
00000000
00000001
,
00000100
00000010
00010000
00001000
,
00000000
00001000
10000000
00100000
,
10000000
00100000
00000000
10000000
,
00010000
00100000
01000000
10000000
,
00000000
00010000
10000000
00100000
,
01000000
00001000
00000000
00010000
,
00000010
00000100
00000010
00010000
,
00000000
00000000
00000000
00000000
,
00000000
00000002
00000000
00000000
,
00000013
00000100
00001000
00000000
,
00000000
00001000
00000001
00002000
,
00000000
00000000
00003001
00010000
,
00001000
00000000
00000000
00100000
,
01000000
00200000
00000000
00000000
,
00301000
01000000
00100000
00000000
,
00000000
10000000
00010000
20000000
,
00000000
00000000
31000000
00100000
,
00001000
00000000
00000000
00011000
,
00000000
00000000
00000100
00000010
,
00000000
00000010
00000100
00000000
,
00000001
00001000
00000100
00001000
,
00000000
00000000
00000010
00000100
,
00000000
00000100
00000010
00000000
,
00001000
00000100
00000010
00000001
,
00000000
00000000
00010000
00001000
,
00000000
00001000
00010000
00000000
,
00001000
01000000
00100000
01000000
,
00000000
00000000
00100000
01000000
,
00000000
01000000
00100000
00000000
,
10000000
00010000
01000000
00100000
,
10000000
00001000
00021000
00000000
,
00000000
00000000
00000000
00000000
,
00030200
00000000
00000000
00000000
,
00000000
00000000
00000320
00000000
,
00000000
00000000
00000000
00000000
,
00000230
00000000
00000000
00000000
,
00000000
00000300
00000120
00000000
,
00000000
00000000
00000000
00000000
,
00000032
00000000
00000000
00000000
,
00000000
00000000
00001003
00000000
,
00000000
00001000
00000000
00000000
,
00001000
00000000
00000000
00001001
,
00000000
00000000
00000120
00000000
,
00000000
00000230
00000000
00000000
,
00000310
00000001
00000010
00000100
,
00000000
00000000
00002000
00000000
,
00000000
00023000
00000000
00000000
,
00130000
01000000
10000000
00100000
,
00000000
00000000
20000000
00000000
,
00000000
30020000
00000000
00000000
,
10030000
00100000
01000000
00001000
,
00000000
00000000
00020000
00000000
,
00000000
00030200
00000000
00000000
,
00001300
00000001
00000010
00000100
,
00000000
00000000
00001001
00000000
,
00000000
00001001
00000000
00000000
,
00000110
00000000
00000000
00000110
,
00000000
00000000
00000200
00000000
,
00000000
00000310
00010000
00001000
,
00100000
01000000
10000000
00010000
,
00000000
00000000
10010000
00000000
,
00000000
10000000
00010000
10000000
,
00010000
00100000
01000000
10000000
,
00000000
00000000
01100000
00000000
,
00000000
01000000
00000000
00000000
,
00011000
00000000
00000000
00001000
,
00000000
00000000
00010001
00000000
,
00000000
00000001
00000000
00000000
,
00001001
00000000
00000000
00001000
,
00000000
00000000
00000010
00000100
,
00000010
00000100
00000001
00000010
,
00000001
00000010
00000100
00010000
,
00000100
00010000
00002000
00000000
,
00000000
00000000
00000000
00000000
,
00000000
00000000
00000000
00000000
,
00000000
00000000
00000000
00000000
,
00000000
00000000
00000000
00000000
,
00000000
00003000
00000000
00000000
;

//---------------dance-double - ----------------
#NOTES:
     dance-double:
     :
     Medium:
     10:
     0.490,0.663,0.342,0.132,0.000:
00000000
00000000
00000000
00000000
,
00000000
00000000
00000000
00000000
,
00000000
00000000
00000000
00000000
,
00000000
00000000
00000000
00000000
,
00000000
00000000
00000000
00000000
,
10000000
00000000
00000000
10000000
00000000
00000000
10000000
00000000
,
00000000
00000000
00010000
00000000
00000000
00010000
00000000
00000000
,
00010000
00000000
00000000
00000000
10000000
00000000
00000000
10000000
,
00000000
10000000
00000000
01100000
,
00000000
01000000
00000000
00000000
01100000
00000000
00000000
00000000
,
01000000
10000000
01000000
10000000
,
00010000
01000000
00100000
00010000
,
00100000
01000000
00001000
00010000
,
00001000
00010000
00000010
00000100
,
00000010
00000100
00000001
00000000
,
00000010
00000100
00000010
00000100
,
00000010
00000100
00001000
00000010
,
00010000
00010000
00001000
00010000
,
00001000
00010000
00001000
01000000
,
00001000
01000000
00100000
10000000
,
01000000
00200000
00000000
00000000
,
00000000
00000000
00000000
00310000
,
00000000
00000000
00000000
00000000
,
00000000
00000110
00000000
00000100
,
00000000
00000001
00000010
00000100
,
00000000
00001000
00000001
00000000
00000001
00000000
00000010
00000000
,
00000100
00010000
00000000
00001000
,
00000000
01000000
00100000
01000000
,
00000000
00010000
10000000
00000000
01000000
00000000
00100000
00000000
,
01000000
10000000
00000000
00001000
,
01000000
00100000
01000000
00002000
,
00000000
00013000
00000100
00000010
,
00000001
00000000
00000100
00000000
00000000
00000100
00000000
00000000
,
00000100
00000001
00000010
00000200
,
00000000
00000000
00001300
00000000
,
00000000
00000000
00000110
00000000
00000000
00000010
00000100
00000000
,
00000001
00001000
00000100
00000010
,
00000000
00000100
00001000
00000001
,
00000100
00000000
00000100
00000000
00000000
00000010
00000100
00000000
,
00000001
00000100
00000010
00010000
,
00000000
00001000
00010000
00000000
00001000
00000000
00100000
00000000
,
01000000
00000000
10000000
00000000
00000000
00010000
10000000
00000000
,
01000000
00100000
01000000
10000000
,
00000000
00100000
01000000
00000000
00001000
00000000
00100000
00000000
,
00001000
00000000
00010000
00000000
00000000
00000100
00000010
00000000
,
00000001
00000010
00000100
00000220
,
00000000
00000000
00000330
00000000
,
00000000
00000010
00001000
00000010
,
00001000
00000001
00000010
00000001
,
00000010
00000100
00010000
00000100
,
00010000
00001000
00010000
00001000
,
01000000
00100000
01000000
00100000
,
00000000
10000000
01000000
10000000
,
01000000
00100000
00001000
00100000
,
00001000
00010000
00001000
00010000
,
00000010
00000100
00000010
00000100
,
00000001
00000010
00000100
00001000
,
00000001
00000010
00000001
00000011
,
00000000
00000001
00001000
00000000
,
00001001
00000010
00000100
00001000
,
00000000
00010000
00001000
00000000
01000000
00000000
01001000
00000000
,
00000000
01000000
00100000
00000000
,
10010000
01000000
00100000
00010000
,
00000000
00000000
00011000
00001000
,
00000000
00010000
00000010
00000000
,
00000110
00000001
00001000
00000100
,
00000000
00000000
00001001
00000001
,
00000000
00000010
00000100
00000000
,
00010000
00000000
00000010
00000100
00000010
00000000
00010000
00000000
,
00001000
00010000
00012000
00000000
,
00000000
00000000
00000000
00000000
,
00203000
00000000
00000000
00000000
,
00000000
00000000
02300000
00000000
,
00000000
00000000
00000000
00000000
,
23000000
00000000
00000000
00000000
,
30000000
00000000
00100000
01000000
00200000
00000000
00000000
00000000
,
00000000
00000000
00000000
00000000
,
02300000
00000000
00000000
00000000
,
00000000
00000000
03001000
00010000
,
00001000
00010000
00001000
00010000
,
00001000
00010000
00001000
00011000
,
00000000
00000000
00000001
00000011
,
00000000
00000100
00000110
00000000
,
00001010
00001000
00000001
00001001
,
00000000
00000000
00011000
00010000
,
00000000
00101000
00001000
00000000
,
01100000
00100000
01000000
10010000
,
00000000
00000000
01010000
01000000
,
00000000
10010000
10000000
00000000
,
01100000
00100000
01000000
01001000
,
00000000
00000000
00011000
00010000
,
00000000
00000110
00000010
00000000
,
00001001
00000100
00000010
00000001
,
00000010
00000100
00011000
00000000
,
00000000
01100000
00000000
00000000
,
10100000
00000000
00000000
10010000
,
00000000
00000000
10010000
00100000
,
01000000
00000000
10000000
00010000
10000000
00000000
01000000
00000000
,
00100000
00010000
01000000
01100000
,
00000000
00000000
01001000
00001000
,
00000000
00010000
00000100
00000010
,
00000001
00000010
00000100
00000110
,
00000000
00000000
00001001
00000001
,
00010000
00001000
00010000
00000000
00010000
00000000
00001000
01000000
,
00001000
00000000
00001000
00000000
01000000
00100000
01000000
00100000
,
01000000
00000000
01100000
00100000
,
10000000
00100000
10000000
00000000
10000000
00000000
00001000
00100000
,
00001000
00000000
00001000
00000000
00010000
00001000
00010000
00001000
,
00010000
00000000
00000000
00000000
00000010
00000100
00000010
00000000
,
00000010
00000000
00001000
00000100
00001000
00000000
00001000
00000000
,
00000001
00001000
00000001
00000000
00000001
00000000
00010000
00001000
,
00010000
00001000
00010000
00000000
00002000
00000000
00000000
00000000
,
00000000
00000000
00003000
02000000
,
00000000
00000000
00000000
03000000
,
00200000
00000000
00000000
00000000
,
00300000
02000000
00000000
00000000
,
00000000
03000000
00000000
00000000
;

//---------------dance-double - ----------------
#NOTES:
     dance-double:
     :
     Hard:
     14:
     0.695,0.766,0.588,0.246,0.000:
00000000
00000000
00000000
00000000
,
00000000
00000000
00000000
00000000
,
00000000
00000000
00000000
00000000
,
00000000
00000000
00000000
00000000
,
00000000
00000000
00000000
00000000
,
20000000
00000000
00100000
00000000
00000000
00100000
00000000
00000000
,
30100000
00000000
20000000
00000000
00010000
00000000
00000000
00010000
,
00000000
30010000
00200000
00010000
,
00000000
00010000
00000000
00000000
00310000
00000000
10000000
01000000
,
00000000
10000000
01000000
00000000
10000000
01000000
10000000
00100000
,
01000000
00000000
00010000
01000000
00001000
00000000
00001000
00000000
,
00010000
00000000
00010000
00000000
00000100
00000010
00000001
00000000
,
00000001
00000000
00000010
00000000
00000010
00000000
00000001
00001000
,
00000010
00000010
00010000
00010000
,
00001000
00100000
01000000
00000000
10000000
00100000
10000000
00100000
,
01000000
00000000
00010000
00100000
00001000
00000000
00001000
00000000
,
00010000
00000000
00010000
00000000
00000100
00000010
00000001
00000000
,
00000001
00000000
00001000
00000000
00001000
00000000
00000010
00010000
,
00001000
00001000
00100000
00100000
,
01000000
10000000
00010000
00000000
01000000
00100000
01000000
00100000
,
01000000
10000000
02000000
00000000
00000000
00000000
00000000
00000000
,
00000000
00000000
00000000
03100000
,
00000000
00000000
00000000
00000000
,
00000000
00000000
00011000
00000000
00000000
00010000
00001000
00010000
,
00000000
00001000
00010000
00000100
00000010
00000000
00000001
00000000
,
00000000
00001000
00000010
00000000
00000010
00000000
00001000
00000000
,
00001000
00000000
00010000
00000000
00000000
00100000
01000000
00100000
,
00000000
01000000
00100000
00010000
10000000
00000000
10000000
00000000
,
00000000
00100000
01000000
00000000
01000000
00000000
00001000
00000000
,
00001000
00011000
00000000
00010000
,
00000100
00000010
00000001
00000200
,
00000000
00000000
00000301
00000010
00000100
00000000
00000100
00000000
,
00010000
00000000
00002000
00000000
00000000
01000000
00000000
00000000
,
01003000
00000000
00100000
00000000
10000000
00000000
01000000
00100000
,
01000000
00100000
00010000
01000000
00010000
00000000
00000000
00000000
,
00000000
00000000
00011000
00000000
00000000
00001000
00010000
00001000
,
00000000
00010000
00001000
00000010
00000100
00000000
00000001
00000000
,
00000000
00000010
00000001
00000000
00000001
00000000
00000100
00000000
,
00000100
00000000
00000010
00000000
00000000
00010000
00001000
00010000
,
00000000
00001000
00010000
00100000
01000000
00000000
10000000
00000000
,
00000000
00010000
10000000
00000000
10001000
00000000
00001000
00000000
,
00101000
00000000
01100000
00000000
00000000
00000000
10000000
00100000
,
10000000
00100000
01000000
00001000
00010000
00001000
01000000
00000000
,
00000000
00001000
00010000
00000000
00010000
00000000
00000010
00000100
,
00000010
00000100
00000010
00000000
00000000
00001000
00000001
00000000
,
00000001
00000000
00000010
00000000
00000010
00000000
00000100
00010000
,
00000100
00010000
00000100
00010000
00001000
00010000
00001000
00010000
,
00001000
00000000
01000000
00000000
00100000
10000000
01000000
00000000
,
10000000
00000000
10000000
00000000
00100000
00000000
01000000
00010000
,
00100000
00001000
00001000
00010000
,
00000100
00000010
00000001
00000000
00000100
00000000
00000100
00000000
,
00000001
00000010
00000001
00000010
00000100
00010000
00001000
01000000
,
00100000
00000000
10000000
00000000
01000000
00100000
00010000
00000000
,
01000000
00000000
01000000
00000000
00010000
00000000
00001000
00000100
,
00000010
00000000
00000001
00001000
00000001
00000000
00001001
00000000
,
00001000
00000001
00000010
00000000
00000100
00000000
00000100
00000000
,
00011000
00000000
00100000
01000000
10000000
00000000
10010000
00000000
,
10000000
01000000
00100000
00010000
10000000
00000000
10010000
00000000
,
01000000
10000000
01000000
00000000
11000000
00000000
00010000
10000000
,
00010000
10010000
01000000
01100000
,
00000000
00000000
00001000
00010000
00001000
00000000
00011000
00000000
,
00000010
00001000
00000010
00000000
00001010
00000000
00000001
00001000
,
00000001
00001001
00001000
00001100
,
00000000
00000000
01100000
01100000
,
01000000
10000000
01000000
00000000
11000000
00000000
00100000
01000000
,
00100000
01100000
01000000
01001000
,
00000000
00000000
00010000
00000010
00000100
00000000
00000110
00000000
,
00000001
00000010
00000001
00000000
00000011
00000000
00000100
00000010
,
00000100
00000010
00010000
00001000
00010000
00001000
01000000
00100000
,
01000000
00100000
10000000
01000000
00200000
00000000
00000000
00000000
,
00000000
00000000
00000000
00000000
,
00302000
00000000
00000000
00000000
,
00000000
00000000
00023000
00000000
,
00000000
00000000
00000000
00000000
,
00030020
00000000
00000000
00000000
,
00000000
00000130
00000001
00000100
00000020
00000000
00000000
00000000
,
00000000
00000000
00000000
00000000
,
00020030
00000000
00000000
00000000
,
00000000
00030000
00001000
00100000
,
00001000
00100000
01000000
10000000
,
01000000
10000000
00100000
02200000
,
00000000
03300000
10010000
10010000
,
10000000
01000000
00100000
00000000
01100000
00000000
00000000
00000000
,
01001000
00001000
00011000
00020200
,
00000000
00030300
00000110
00000110
,
00000100
00000010
00000001
00000000
00000011
00000000
00000000
00000000
,
00010100
00010000
00011000
02002000
,
00000000
03003000
10010000
10010000
,
00010000
10000000
00100000
00000000
10100000
00000000
00000000
00000000
,
01001000
00001000
00011000
00020200
,
00000000
00030300
00010001
00010001
,
00000001
00000100
00000010
00000000
00000110
00000000
00000000
00000000
,
00011000
00001000
00100000
01000000
,
10000000
00100000
01100000
01000000
,
00000000
00011000
00001000
00000000
,
00010010
00010000
00000000
00000110
,
00000010
00000100
00000010
00000000
00001000
00000000
00000100
00001000
,
00000010
00000000
00000100
00000001
00000100
00000001
00001000
00010000
,
00100000
00000000
01000000
10000000
00010000
00000000
20020000
00000000
,
00000000
00000000
30030000
00000000
10000000
00000000
00100000
10000000
,
00010000
00000000
00100000
00000000
01000000
10000000
00010000
00000000
,
10010000
01001000
00011000
00020020
,
00000000
00030030
00000110
00000110
,
00000100
00000010
00000001
00000000
00000011
00000000
00000100
00000010
,
00010000
00000000
00010010
00000000
00001000
00010000
00001000
00010000
,
01000000
00100000
10000000
00000000
10010000
00000000
10010000
00000000
,
01000000
10000000
00001000
00000000
10001000
00000000
00010000
00000010
,
00000100
00000000
00000110
00000000
00000010
00000001
00000010
00000001
,
00000100
00000010
00001000
00010000
00100000
01000000
10000000
00000000
,
11000000
00000000
01000000
10000000
00100000
00000000
01100000
00000000
,
01000000
00001000
00010000
00000000
00011000
00000000
00010000
00001000
,
00010000
00000010
00000100
00000001
00000020
00000000
00000000
00000000
,
00000000
00000000
00000030
00000200
,
00000000
00000000
00000000
00000300
,
00020000
00000000
00000000
00000000
,
00030000
00002000
00000000
00000000
,
00000000
00003000
00000000
00000000
;

//---------------dance-double - ----------------
#NOTES:
     dance-double:
     :
     Challenge:
     16:
     0.909,0.868,0.474,0.140,0.000:
00000000
00000000
00000000
00000000
,
00000000
00000000
00000000
00000000
,
00000000
00000000
00000000
00000000
,
00000000
00000000
00000000
00000000
,
00000000
00000000
00000000
00000000
,
10000000
01000000
00100000
00010000
10000000
00000000
00100000
01000000
,
00100000
00000000
10000000
01000000
00100000
00010000
10000000
00000000
,
00100000
01000000
00100000
00000000
10000000
00010000
00100000
01000000
,
10000000
00000000
00001000
01000000
00001000
00000000
00010000
00001000
,
00000000
00010000
00000001
00000010
00000100
00001000
00000100
00000010
,
00000001
00001000
00000001
00001000
00000001
00000010
00000100
00000010
,
00000100
00010000
00001000
00010000
00001000
00010000
00001000
00010000
,
00100000
01000000
00100000
00000000
00010000
01000000
00010000
01000000
,
00010000
10000000
01000000
10000000
01000000
00100000
01000000
00100000
,
01000000
00001000
00100000
01000000
10000000
00001000
00010000
00000000
,
00001000
00010000
00001000
00010000
00001000
00010000
00000010
00010000
,
00000010
00000100
00000001
00000100
00000001
00000100
00000001
00000010
,
00000100
00001000
00000001
00000000
00000100
00000010
00000100
00000010
,
00000100
00000001
00000010
00000001
00000010
00000100
00010000
00000100
,
00010000
00000100
00010000
00001000
00010000
00001000
01000000
00100000
,
10000000
00100000
02000000
00000000
00000000
00000000
00000000
00000000
,
00000000
00000000
00000000
03100000
,
00000000
00000000
00000000
00000000
,
00000000
00000000
10010000
00000000
10000000
01000000
10000000
00010000
,
00000000
00010000
01000000
00001000
00010000
00000100
00000020
00000000
,
00000031
00001000
00000001
00000010
00000100
00000000
00010100
00000000
,
00011000
00000000
00011000
00000000
00000000
00000000
00001000
00010000
,
00000000
00010000
00000010
00000100
00000001
00010000
00002000
00000000
,
00103000
01000000
20000000
00000000
30100000
00000000
01100000
00000000
,
01001000
00000000
01001000
00000000
00000000
00000000
00001000
00100000
,
01000000
11000000
01100000
01002000
,
00000000
00000000
00013000
00000100
00010000
00000100
00000010
00000000
,
00000011
00000000
00000001
00001000
00000000
00001000
00000001
00000000
,
00000010
00000100
00000010
00000100
00001000
00000010
00000100
00000001
,
00000010
00001000
00000010
00000001
00010000
00001000
00010000
00001000
,
00100000
00000000
00101000
00000000
00001000
00100000
00001000
10000000
,
00000000
10000000
01000000
00100000
01000000
10000000
00001000
00000000
,
00010000
00000010
00010000
00000010
00000100
00000000
00000110
00000000
,
00000101
00000000
00002001
00000000
00000000
00000000
00003001
00010000
,
00000000
00010000
00000001
00000010
00000100
00000010
00000001
00000000
,
00010000
00001000
01000000
00100000
01000000
00000000
01100000
00000000
,
10100000
00000000
01020000
00000000
00000000
00000000
10030000
00100000
,
00010000
00100000
01000000
00001000
10000000
00100000
01000000
00000000
,
00001000
00010000
00000100
00000001
00000100
00010000
00000010
00000100
,
00000010
00000100
00000001
00000000
00000010
00000100
00010000
00000100
,
00010000
00001000
01000000
00000000
01100000
00000000
00010000
01000000
,
10000000
01000000
00100000
10000000
00010000
00100000
01000000
10000000
,
00010000
00000000
10000000
00100000
10000000
00100000
10000000
00001000
,
01000000
00001000
01000000
00010000
00001000
00010000
00001000
00010000
,
00001000
00000100
00000010
00000001
00000100
00000000
00000001
00001000
,
00000001
00001000
00000001
00000010
00000100
00000010
00000100
00010000
,
00001000
00010000
00001000
00100000
01000000
10000000
00010000
00100000
,
01000000
00000000
00100000
00010000
00100000
00010000
00100000
00010000
,
00001000
00010000
00001000
00000010
00000100
00000010
00000100
00000010
,
00000100
00000001
00001000
00000010
00000100
00000000
00000001
00000010
,
00000001
00000010
00000001
00010000
00000010
00010000
00000010
00001000
,
00010000
00001000
00010000
00100000
01000000
10000000
00010000
10000000
,
01000000
00010000
01000000
10000000
00001000
00000000
00101000
00000000
,
00010000
00000010
00000100
00000000
00000110
00000000
00000100
00000010
,
00000001
00001001
00010010
00021000
,
00000000
00000000
00031000
00100000
01000000
00000000
01100000
00000000
,
01000000
10000000
00010000
00000000
00110000
00000000
00100000
01000000
,
10000000
11000000
01001000
00012000
,
00000000
00000000
00013000
00010010
,
00000010
00000100
00000001
00000000
00000101
00000000
00000100
00000010
,
00000001
00001001
00010010
00012000
,
00000000
00000000
01003000
00100000
10000000
00000000
10010000
00000000
,
01000000
10000000
00100000
00000000
01100000
00000000
01000000
00010000
,
10000000
01000000
10000000
01000000
00100000
00001000
00100000
00001000
,
00010000
00000010
00000100
00000001
00000020
00000000
00000000
00000000
,
00000000
00000000
00000000
00000000
,
00000032
00000000
00000000
00000000
,
00000000
00000000
00000203
00000000
,
00000000
00000000
00000000
00000000
,
00000320
00000000
00000000
00000000
,
00000030
00010000
00001000
00010000
00001000
00000000
00000000
00000000
,
10000000
01000000
00000000
10000000
01000000
00000000
00000000
00000000
,
10010000
00000000
00000000
00010000
,
00000000
00000000
00010000
10000000
01000000
00000000
01000000
00000000
,
01000000
00100000
00100000
00100000
,
10010000
00000000
10000000
01000000
00000000
10000000
00010000
00100000
,
01000000
00100000
00001000
00010000
00001000
00000000
00011000
00000000
,
00010000
00000010
00000100
00000000
00000001
00001000
00000010
00000001
,
00000010
00001000
00000001
00000000
00010001
00000000
00010100
00000000
,
00010000
00001000
00010000
00001000
00100000
00000000
01100000
00000000
,
01000000
10000000
00010000
10000000
01000000
00010000
01000000
10000000
,
00100000
01000000
00001000
00000000
00011000
00000000
00020020
00000000
,
00000000
00030030
00000110
00000110
,
00000100
00000010
00000001
00000000
00001000
00000001
00000100
00001000
,
00000100
00000001
00010000
00000000
00011000
00000000
00101000
00000000
,
00100000
01000000
00100000
01000000
10000000
00000000
11000000
00000000
,
01000000
10000000
00100000
00000000
10000000
00010000
00100000
10000000
,
00100000
00010000
10000000
00100000
01000000
00001000
00010000
00001000
,
00010000
00000010
00000100
00000000
00001001
00000000
00001000
00000001
,
00001000
00000110
00000010
00000000
,
00011000
00010000
00000000
10001000
,
00001000
00100000
01000000
10000000
00001000
00000000
10000000
00100000
,
10000000
00000000
01000000
00100000
01000000
00100000
00001000
00010000
,
00000100
00000001
00000100
00000010
00000001
00010000
00000010
00000100
,
00000010
00010000
00001000
00100000
01000000
00000000
10000000
00010000
,
10000000
00000000
00100000
01000000
00100000
01000000
00001000
01000000
,
10000000
01000000
00100000
10000000
00001000
00010000
00000010
00000100
,
00000010
00010000
00001000
00000000
00011000
00000000
00010000
01000000
,
00010000
10000000
01000000
10000000
00010000
00100000
00010000
10000000
,
00100000
01000000
00001000
00010000
00000010
00000100
00000001
00001000
,
00000001
00000010
00000100
00001000
00010000
00000000
00100000
01000000
,
00100000
00010000
10000000
00010000
00100000
00010000
10000000
01000000
,
10000000
00001000
01000000
10000000
01000000
00001000
00010000
00000100
,
00000010
00000001
00000010
00000100
00010000
00000010
00000001
00000010
,
00010000
00001000
01000000
10000000
01000000
00100000
10000000
00001000
,
00010000
00000010
00000001
00000010
00000100
00000001
00010000
00001000
,
10000000
01000000
00010000
01000000
10000000
00010000
00100000
01000000
,
10000000
00000000
00001000
00010000
00001000
00000000
00010000
00000100
,
00000010
00000001
00010000
00000000
00001000
00010000
00001000
00000000
,
10000000
00100000
01000000
00010000
10000000
00000000
01000000
00100000
,
00001000
00000000
00010000
00000010
00000100
00000010
00010000
00000000
,
00001000
00010000
00001000
00000000
00000000
00000000
00000000
00000000
;

//---------------dance-single - ----------------
#NOTES:
     dance-single:
     :
     Beginner:
     3:
     0.109,0.147,0.026,0.000,0.000: // measure 1
0000
0000
0000
0000
,  // measure 2
0000
0000
0000
0000
,  // measure 3
0000
0000
0000
0000
,  // measure 4
0000
0000
0000
0000
,  // measure 5
0000
0000
0000
0000
,  // measure 6
0000
0000
0000
0000
,  // measure 7
0000
0000
0000
0000
,  // measure 8
0000
0000
0000
0000
,  // measure 9
0000
0000
0000
0000
,  // measure 10
0000
0000
0000
0000
,  // measure 11
1000
0000
0000
0000
,  // measure 12
0000
0100
0000
0000
,  // measure 13
0000
0000
0010
0000
,  // measure 14
0000
0000
0000
0001
,  // measure 15
0000
0000
0000
0000
,  // measure 16
1000
0000
0000
0000
,  // measure 17
0000
0100
0000
0000
,  // measure 18
0000
0000
0010
0000
,  // measure 19
0000
0000
0000
0100
,  // measure 20
0000
0000
0000
0000
,  // measure 21
0000
0010
0000
0000
,  // measure 22
0000
0000
0000
0000
,  // measure 23
0000
0000
0000
0000
,  // measure 24
0000
0001
0000
0000
,  // measure 25
0000
0000
0000
1000
,  // measure 26
0000
0000
0000
0000
,  // measure 27
0000
0001
0000
0000
,  // measure 28
0000
0000
0000
1000
,  // measure 29
0000
0000
0000
0000
,  // measure 30
0000
0100
0000
0000
,  // measure 31
0000
0000
0000
1000
,  // measure 32
0000
0000
0000
0000
,  // measure 33
0000
0100
0000
0000
,  // measure 34
0000
0000
0000
1000
,  // measure 35
0000
0000
0000
0000
,  // measure 36
0000
0010
0000
0000
,  // measure 37
0000
0000
0000
0100
,  // measure 38
0000
0000
0000
0000
,  // measure 39
0000
0000
0000
0010
,  // measure 40
0000
0000
0000
0100
,  // measure 41
0000
0000
0000
0000
,  // measure 42
0000
0001
0000
0000
,  // measure 43
0000
0000
0000
1000
,  // measure 44
0000
0000
0000
0000
,  // measure 45
0000
0100
0000
0000
,  // measure 46
0010
0000
0000
0100
,  // measure 47
0000
0000
0000
0000
,  // measure 48
0000
1000
0000
0000
,  // measure 49
0000
0000
0010
0000
,  // measure 50
0000
0000
0000
0100
,  // measure 51
0000
0000
0000
0000
,  // measure 52
0001
0000
0000
0000
,  // measure 53
0000
1000
0000
0000
,  // measure 54
0000
0000
0001
0000
,  // measure 55
0000
0000
0000
0010
,  // measure 56
0000
0000
0000
0000
,  // measure 57
0100
0000
0000
0000
,  // measure 58
0000
0000
1000
0000
,  // measure 59
0000
1000
0000
0000
,  // measure 60
0001
0000
0000
0000
,  // measure 61
0000
0000
1000
0000
,  // measure 62
0000
1000
0000
0000
,  // measure 63
0001
0000
0000
0000
,  // measure 64
0000
0000
0100
0000
,  // measure 65
0000
0100
0000
0000
,  // measure 66
0010
0000
0000
0000
,  // measure 67
0000
0000
0100
0000
,  // measure 68
0000
0100
0000
0000
,  // measure 69
0010
0000
0000
0000
,  // measure 70
0000
0000
1001
0000
,  // measure 71
0000
0000
0000
0000
,  // measure 72
0000
0000
0000
0000
,  // measure 73
0000
0000
0000
0000
,  // measure 74
0000
0000
0000
0000
,  // measure 75
0000
0000
0000
0000
,  // measure 76
0000
0000
1000
0000
,  // measure 77
0000
0000
0000
0000
,  // measure 78
0001
0000
0000
0000
,  // measure 79
0000
0000
1000
0000
,  // measure 80
0000
0000
0000
0000
,  // measure 81
1000
0000
0000
0000
,  // measure 82
0000
0000
0001
0000
,  // measure 83
0000
0100
0000
0000
,  // measure 84
0001
0000
0000
0000
,  // measure 85
0000
0000
1000
0000
,  // measure 86
0000
0010
0000
0000
,  // measure 87
1000
0000
0000
0000
,  // measure 88
0000
0000
0100
0000
,  // measure 89
0000
0010
0000
0000
,  // measure 90
0100
0000
0000
0000
,  // measure 91
0000
0000
1000
0000
,  // measure 92
0000
0001
0000
0000
,  // measure 93
1000
0000
0000
0000
,  // measure 94
0000
0000
1001
0000
,  // measure 95
0000
0000
0000
0000
,  // measure 96
1001
0000
0000
0000
,  // measure 97
0000
0000
0001
0000
,  // measure 98
0000
1000
0000
0000
,  // measure 99
0001
0000
0000
0000
,  // measure 100
0000
0000
0010
0000
,  // measure 101
0000
0100
0000
0000
,  // measure 102
0010
0000
0000
0000
,  // measure 103
0000
0000
0001
0000
,  // measure 104
0000
0100
0000
0000
,  // measure 105
0001
0000
0000
0100
,  // measure 106
0000
0000
0010
0000
,  // measure 107
0000
0100
0000
0000
,  // measure 108
0010
0000
0000
0100
,  // measure 109
0000
0000
0001
0000
,  // measure 110
0000
1000
0000
0000
,  // measure 111
0001
0000
0000
1000
,  // measure 112
0000
0000
0100
0000
;
