#TITLE:DELETED MOTION;
#SUBTITLE:;
#ARTIST:たちのん;
#TITLETRANSLIT:;
#SUBTITLETRANSLIT:;
#ARTISTTRANSLIT:TACHINON;
#CREDIT:DigiMindAxel;
#BANNER:DELETED MOTION.png;
#BACKGROUND:DELETED MOTION-bg.png;
#LYRICSPATH:;
#CDTITLE:SOUND VOLTEX.png;
#MUSIC:DELETED MOTION.ogg;
#METERTYPE:DDR X;
#OFFSET:-8.856;
#SAMPLESTART:28.440;
#SAMPLELENGTH:12.000;
#SELECTABLE:YES;
#BPMS:0.000=147.000;
#STOPS:;
#BGCHANGES:;

//---------------dance-single - ----------------
#NOTES:
     dance-single:
     :
     Easy:
     4:
     0.156,0.194,0.034,0.067,0.000:
2000
0000
0000
0000
,
3002
0000
0000
0000
,
1003
0001
1000
0001
,
1000
0000
0000
0000
,
0001
0000
1000
0000
,
0001
0000
1000
0000
,
0100
0000
0010
0000
,
0100
0000
0010
0000
,
0001
0000
0100
0000
,
0001
0000
0100
0000
,
0010
0000
1000
0000
,
0010
0000
0000
0000
,
1000
0000
1000
0000
,
0100
0000
0100
0000
,
0010
0000
0010
0000
,
0001
0000
0001
0000
,
1000
0000
1000
0000
,
0100
0000
0100
0000
,
0010
0000
0010
0000
,
0001
0000
0002
0000
,
1003
0000
0001
0000
,
0010
0001
0010
0000
,
0001
0000
1000
0000
,
0100
1000
0100
0000
,
1000
0000
0001
0000
,
0100
0010
0100
0000
,
0001
0000
1000
0000
,
0020
0000
0000
0000
,
0130
0000
0000
0000
,
0100
0000
0000
0000
,
0100
0000
0000
0000
,
0100
0000
0000
0000
,
0110
0000
0000
0000
,
0010
0000
0000
0000
,
0010
0000
0000
0000
,
0010
0000
0000
0000
,
1001
0000
1000
0000
,
1000
0000
0000
0000
,
0001
0000
0001
0000
,
0001
0000
0000
0000
,
1000
0000
1000
0000
,
1000
0000
0000
0000
,
0001
0000
0001
0000
,
0001
0000
0000
0000
,
2000
0000
0000
0000
,
3002
0000
0000
0000
,
1003
0000
0100
0000
,
1000
0000
0100
0000
,
0010
0000
0100
0000
,
0010
0000
0100
0000
,
0010
0000
0001
0000
,
0010
0000
0001
0000
,
1000
0000
0001
0000
,
1000
0000
0020
0000
,
0130
0000
0100
0000
,
0010
0100
0010
0000
,
1000
0000
1000
0000
,
0001
1000
0001
0000
,
0100
0000
0100
0000
,
0001
0100
0001
0000
,
1001
0000
0000
0001
0000
0000
1000
0000
,
0200
0000
0000
0000
,
1300
0000
0000
0000
,
0010
0000
0000
0000
,
0100
0000
0000
0000
,
0001
0000
0000
0000
,
1001
0000
0000
0000
;

//---------------dance-single - ----------------
#NOTES:
     dance-single:
     :
     Medium:
     7:
     0.327,0.360,0.109,0.034,0.000:
1001
1000
1000
1000
,
0110
0010
0010
0010
,
0101
0001
0010
0100
,
2000
0000
0000
0000
,
3001
0000
0001
0000
0100
0001
0100
0001
,
0100
0100
0100
0100
,
0010
0000
0010
0000
1000
0010
1000
0010
,
1000
1000
1000
0000
,
0001
0000
0001
0000
0001
1000
0001
1000
,
0001
0001
0001
0001
,
0010
0010
0010
0001
,
1000
0100
0010
0000
,
0001
1000
0100
0000
1000
0001
1000
0000
,
0100
1000
0001
0000
1000
0001
1000
0000
,
0001
1000
0100
0000
1000
0001
1000
0000
,
0100
1000
0001
0000
1000
0001
1000
0000
,
0010
0100
0001
0000
0100
0010
0100
0000
,
0010
0100
0001
0000
0100
0010
0100
0000
,
0010
0100
0001
0000
0100
0010
0100
0000
,
0010
0100
0001
0000
2000
0000
0000
0000
,
3001
0010
0100
0010
,
0001
0100
0001
0100
0010
0100
0010
0000
,
1000
0100
0010
0100
,
1000
0001
1000
0001
0100
0001
0100
0000
,
0001
0010
0100
1000
,
0010
0100
0010
0100
0001
0100
0001
0000
,
0010
0100
1000
0100
,
0010
0000
0000
0011
0000
0000
0000
0000
,
1001
0000
0000
0000
,
0010
0000
0000
0000
,
0110
0000
0000
0000
,
0100
0000
0000
0000
,
1001
0000
0000
0000
,
1000
0000
0000
0000
,
0001
0000
0000
0000
,
0010
0000
0000
0000
,
0110
0000
0100
0000
,
0010
0000
0100
0000
,
0001
0000
0010
0000
,
0001
0000
0010
0000
,
0100
0000
1000
0000
,
0001
0000
1000
0000
,
0100
0000
0010
0000
,
0100
0010
0100
0000
,
2000
0000
0000
0000
,
3001
0010
0100
1000
,
0110
0000
0010
0000
1000
0100
0010
0000
,
0100
0000
1000
0000
0010
0100
0010
0000
,
1000
0000
0001
0000
0010
0001
0010
0000
,
0001
0000
1000
0000
0010
0100
0001
0000
,
0010
0000
0001
0000
0100
0010
0100
0000
,
0001
0000
1000
0000
0010
1000
0100
0000
,
1000
0000
0100
0000
0010
0001
0100
0000
,
0010
0100
0010
0000
2000
0000
0000
0000
,
3001
1000
0010
0000
1000
0001
1000
0000
,
0010
1000
0001
0000
1000
0001
1000
0000
,
0001
1000
0010
0000
1000
0001
1000
0000
,
0010
1000
0001
0000
1000
0001
1000
0000
,
0100
0010
0100
0000
1000
0100
0010
0000
,
0100
0010
0100
0000
0010
0100
1000
0000
,
0010
0100
0010
0000
1000
0100
0010
0000
,
0001
0000
0000
0101
0000
0000
0000
0000
,
1001
0000
1000
0000
,
0010
0000
0100
0000
,
0110
0000
0001
0000
,
0100
0000
0010
0000
,
1001
0000
0000
0000
;

//---------------dance-single - ----------------
#NOTES:
     dance-single:
     :
     Hard:
     13:
     0.596,0.666,0.075,0.302,0.457:
1002
0000
0000
0200
0000
0000
0000
0000
0000
0000
0000
0000
0303
0000
0000
0000
,
0002
0000
0000
2000
0000
0000
0000
0000
3003
0000
0001
0000
0010
0000
0001
0000
,
2000
0000
0000
0002
0000
0000
0000
0000
0000
0000
0000
0000
3003
0000
0100
0000
,
0020
0000
0000
0200
0000
0000
0000
0000
0000
0000
0000
0000
0330
0000
0000
0000
,
1001
0000
0000
1000
0000
0000
1000
0000
0010
0000
1000
0000
0001
0000
1000
0000
,
0010
1000
0001
1000
0010
1000
0001
1000
,
0100
0000
0000
0100
0000
0000
0100
0000
1000
0000
0010
0000
0100
0000
0010
0000
,
1000
0000
0100
0000
1000
0000
0010
0000
0000
0200
0000
0000
0000
0000
0300
0000
,
1001
0000
0000
0001
0000
0000
0001
0000
1000
0000
0100
0000
1000
0000
0001
0000
,
1000
0100
1000
0001
1000
0100
1000
0001
,
0100
0000
0000
0100
0000
0000
0100
0000
0010
0000
1000
0000
0100
0000
0010
0000
,
0100
0100
0100
1001
,
0001
0000
0100
0010
0000
0000
0100
0000
0001
0000
1000
0100
0000
0000
1000
0000
,
0010
0000
0100
0001
0000
0000
1000
0000
0100
0000
1000
0001
0000
0000
0010
0000
,
0100
0000
0010
0001
0000
0000
0100
0000
0010
0000
1000
0010
0000
0000
0100
0000
,
0001
0000
0010
0100
0000
0000
1000
0000
0001
0000
0100
0001
0000
0000
1000
0000
,
0010
0000
0100
0010
0000
0000
1000
0000
0001
0000
0010
0001
0000
0000
0100
0000
,
0010
0000
1000
0100
0000
0000
1000
0000
0001
0000
0100
0001
0000
0000
0100
0000
,
0010
0000
1000
0010
0000
0000
0100
0000
0010
0000
0001
1000
0000
0000
0010
0000
,
0100
0000
0001
1000
0000
0000
0001
0000
0100
0001
0000
0100
0001
0000
1000
0001
,
1000
0100
0010
0100
1000
0100
0010
0000
,
0001
0010
1000
0010
0001
0010
0100
0010
,
0001
1000
0010
1000
0001
1000
0010
0000
,
1000
0010
0001
0010
1000
0010
0100
0000
,
0001
1000
0100
0010
0100
1000
0001
0000
,
1000
0010
0001
0010
1000
0100
0010
0000
,
0100
1000
0010
1000
0100
1000
0010
0100
,
0001
1000
0000
0001
1000
0000
0001
1000
0000
0010
0200
0000
0000
0000
0000
0000
,
0310
0000
0000
0000
1000
0000
0000
1000
0000
0000
1000
0000
0000
1000
0000
0000
,
0020
0000
0000
0000
0130
0000
0000
0100
0000
0000
0100
0000
0100
0000
0000
0000
,
0002
0000
0000
0000
0013
0000
0000
0010
0000
0000
0010
0000
0000
0010
0000
0000
,
0100
0010
0000
0100
0010
0000
0100
0010
0000
0001
2000
0000
0000
0000
0000
0000
,
3001
0000
0000
0000
0100
0000
0000
0100
0000
0000
0100
0000
0000
0100
0000
0000
,
0020
0000
0000
0000
1030
0000
0000
1000
0000
0000
1000
0000
0000
1000
0000
0000
,
0002
0000
0000
0000
0013
0000
0000
0010
0000
0000
0010
0000
0000
0010
0000
0000
,
0100
0000
1000
0001
0000
1000
0001
0000
1000
0001
0000
2000
0000
0000
0000
0000
,
3200
0000
0000
1000
0000
0000
1300
0000
0020
0000
0000
0100
0000
0000
0130
0000
,
0002
0000
0000
0010
0000
0000
0013
0000
0200
0000
0000
0010
0000
0000
0310
0000
,
0002
0000
0000
0100
0000
0000
0103
0000
0020
0000
0000
1000
0000
0000
1030
0000
,
0020
0000
0000
0100
0000
0000
0130
0000
0002
0000
0000
1000
0000
0000
1003
0000
,
0200
0000
0000
1000
0000
0000
1300
0000
0002
0000
0000
0100
0000
0000
0103
0000
,
0020
0000
0000
1000
0000
0000
1030
0000
0002
0000
0000
0010
0000
0000
0013
0000
,
0200
0000
0000
0010
0000
0000
0310
0000
0002
0000
0000
0010
0000
0000
0013
0000
,
0200
0000
0000
1000
0000
0000
1300
0000
0020
0000
0000
0100
0000
0000
0130
0000
,
0002
0000
0000
0000
,
0103
0100
0100
1001
,
0001
0000
0100
0001
0000
0000
0001
0000
1000
0000
0100
1000
0000
0000
1000
0000
,
0010
0000
1000
0001
0000
0000
0001
0000
0100
0000
0001
1000
0000
0000
1000
0000
,
0100
0000
0010
0001
0000
0000
0001
0000
1000
0000
0010
1000
0000
0000
1000
0000
,
0001
0000
0010
0100
0000
0000
0100
0000
0010
0000
0001
1000
0000
0000
1000
0000
,
0100
0000
0010
0100
0000
0010
0100
0000
1000
0000
0001
0100
0000
0001
0100
0000
,
0010
0000
1000
0001
0000
1000
0001
0000
0010
0000
0100
1000
0000
0100
1000
0000
,
0001
0000
0100
0001
0000
0100
0001
0000
1000
0000
0100
0010
0000
0100
0010
0000
,
0001
0000
1000
0010
0000
1000
0010
0000
0100
0001
0000
0100
0001
0000
1000
0001
,
1000
0010
0100
1000
0100
0010
1000
0001
,
0010
1000
0010
0001
0100
1000
0100
0001
,
1000
0100
0010
1000
0010
0100
1000
0001
,
0100
1000
0100
0001
0010
1000
0010
0001
,
1000
0010
0100
1000
0100
0010
1000
0001
,
0100
1000
0001
0010
1000
0001
0100
0010
,
1000
0010
1000
0010
1000
0000
0001
1000
0001
1000
0001
0000
0010
0001
0010
0001
,
1000
0001
0000
1000
0001
0000
1000
0001
0200
0000
0000
0000
0000
0000
0300
0000
,
1001
0000
0000
0000
0010
0000
0000
0010
0000
0000
0010
0000
0000
0010
0000
0000
,
0200
0000
0000
0000
0301
0000
0000
0001
0000
0000
0001
0000
0000
0001
0000
0000
,
0110
0000
0000
0000
0010
0000
0000
0010
0000
0000
0010
0000
0000
0010
0000
0000
,
2000
0000
0000
0000
3100
0000
0000
0100
0000
0000
0100
0000
0000
0100
0000
0000
,
1001
0000
0000
1001
0000
0000
0000
0000
0000
0000
0000
0000
0000
0000
0000
0000
;

//---------------dance-single - ----------------
#NOTES:
     dance-single:
     :
     Challenge:
     16:
     0.773,0.804,0.461,0.059,0.846:
0101
0000
0000
0002
0000
0000
0000
0000
1000
0000
0000
0000
1003
0000
0000
0000
,
0110
0000
0000
0020
0000
0000
0000
0000
0130
0000
0001
0000
1000
0000
0100
0000
,
0010
0000
0000
0020
0000
0000
0000
0000
0001
0000
0000
0000
0031
0000
1000
0000
,
0200
0000
0000
2000
0000
0000
0000
0000
0000
0000
0000
0000
3300
0000
0000
0000
,
1001
0000
0000
1001
0000
0000
0001
0000
0001
0000
1000
0000
0010
0000
0100
0000
,
0001
0000
1000
0000
1000
0000
0001
0000
0010
0001
0010
0000
0001
1000
0001
0000
,
1001
0000
0000
1001
0000
0000
1000
0000
1000
0000
0001
0000
0010
0000
0100
0000
,
1000
0000
0001
0000
0100
0000
0001
0000
0000
1000
0100
0010
0001
1000
0100
0000
,
1001
0000
0000
1001
0000
0000
1000
0000
1000
0000
0010
0000
0100
0000
0001
0000
,
1000
0001
0001
1000
0010
0100
0001
1000
,
1100
0000
0000
1100
0000
0000
0100
0000
0100
0000
1000
0000
0010
0000
0100
0000
,
0001
0000
0000
0000
0001
0000
0000
0000
0001
1000
0001
1000
0001
0000
0000
0000
,
1000
0010
1000
0010
0000
0000
1000
0000
0001
0010
0001
0010
0000
0000
0001
0000
,
1000
0010
1000
0010
0000
0000
0100
0000
0010
0100
0010
0100
0000
0000
0001
0000
,
1000
0001
1000
0001
0000
0000
0010
0000
0001
0010
0001
0010
0000
0000
0100
0000
,
1000
0010
1000
0010
0000
0000
0100
0000
0001
1000
0001
1000
0000
0000
0100
0000
,
1000
0100
1000
0010
0000
0000
0010
0000
0100
0001
0100
0010
0000
0000
0010
0000
,
1000
0001
1000
0100
0000
0000
0100
0000
0010
0001
0010
0100
0000
0000
0100
0000
,
1000
0001
1000
0010
0000
0000
0010
0000
1000
0001
1000
0100
0000
0000
0100
0000
,
0010
0001
0010
0100
0000
0000
0100
0000
1000
0001
0000
1000
0001
0000
0100
0010
,
1000
0100
1000
0100
1000
0000
0000
0000
0010
0100
0010
0100
0010
0000
0000
0000
,
1000
0000
0010
0000
0001
0000
0010
0000
1000
0010
1000
0010
1000
0001
1000
0000
,
0001
0010
0001
0010
0001
0000
0000
0000
0100
0010
0100
0010
0100
0000
0000
0000
,
0001
0000
0100
0000
1000
0000
0100
0000
0001
1000
0001
1000
0100
1000
0100
0000
,
1000
0001
1000
0001
1000
0000
0001
0000
0100
0001
0100
0001
0100
0000
0010
0000
,
1000
0000
0100
0000
0001
0000
0100
0000
1000
0001
1000
0001
0010
0001
0010
0000
,
0001
0010
0001
0010
0001
0000
1000
0000
0010
0100
0010
0100
0010
0000
1000
0000
,
0001
0010
0000
0010
0001
0000
0010
0001
0000
0001
1000
0100
0010
0001
1000
0100
,
1000
0000
0000
0000
1001
0000
0000
1100
0000
0000
1001
0000
0000
1100
0000
0000
,
0100
0000
0000
0000
0101
0000
0000
0110
0000
0000
0101
0000
0110
0000
0000
0000
,
0010
0000
0000
0000
1001
0000
0000
0101
0000
0000
1001
0000
0000
0101
0000
0000
,
0010
0100
0000
0010
0100
0000
0010
0100
0001
0010
0001
0010
0001
0000
0001
0000
,
1001
0000
0000
0000
1100
0000
0000
0110
0000
0000
1100
0000
0000
0110
0000
0000
,
0001
0000
0000
0000
0101
0000
0000
0110
0000
0000
0101
0000
0000
0110
0000
0000
,
1000
0000
0000
0000
1010
0000
0000
0110
0000
0000
1010
0000
0000
0110
0000
0000
,
0001
0000
0100
0001
0000
0100
0001
0000
0100
0001
1000
0200
0000
0000
0000
0000
,
1300
0000
0000
1000
0001
0000
0100
0000
0001
0000
0000
0001
1000
0000
0010
0000
,
1000
0000
0000
1000
0001
0000
0010
0000
0001
0000
0000
0001
1000
0000
0100
0000
,
1000
0000
0000
1000
0001
0000
0010
0000
0100
0000
0000
0100
0010
0000
0001
0000
,
0100
0000
0000
0100
0010
0000
1000
0000
0100
0000
0000
0100
1000
0001
1000
0001
,
1000
0000
0000
1000
0001
0000
0100
0000
0010
0000
0000
0010
1000
0000
0001
0000
,
0100
0000
0000
0100
0010
0000
1000
0000
0100
0000
0000
0100
1000
0000
0001
0000
,
0010
0000
0000
0010
0100
0000
0010
0000
0001
0000
0000
0001
0100
0000
0010
0000
,
1000
0000
0000
1000
0010
0000
0100
0000
0010
0000
0000
0010
0100
0001
0100
0001
,
0200
0000
0000
0000
,
0310
0100
0010
1000
0010
0100
0110
0000
,
0001
0100
0001
0100
0000
0000
0100
0000
0001
1000
0001
1000
0000
0000
1000
0000
,
0100
0010
0100
0010
0000
0000
0010
0000
0001
0100
0001
0100
0000
0000
0100
0000
,
0001
1000
0001
1000
0000
0000
1000
0000
0100
0010
0100
0010
0000
0000
0010
0000
,
0001
0100
0001
0100
0000
0000
0100
0000
0001
1000
0001
1000
0000
0000
1000
0000
,
0001
0010
0001
1000
0000
1000
0001
0000
1000
0100
1000
0001
0000
0001
1000
0000
,
0001
0100
0001
1000
0000
1000
0001
0000
1000
0010
1000
0001
0000
0001
1000
0000
,
0100
0010
0100
1000
0000
1000
0100
0000
0010
0001
0010
0100
0000
0100
0010
0000
,
0001
0100
0001
1000
0000
1000
0010
0000
0100
0001
0000
0001
1000
0000
0100
1000
,
0010
0100
0010
0100
0010
0000
1000
0000
0001
0100
0001
0100
0001
0000
1000
0000
,
0100
0000
0001
0000
1000
0000
0010
0000
0001
1000
0001
1000
0100
1000
0100
0000
,
1000
0001
1000
0001
1000
0000
0100
0000
0010
0001
0010
0001
0010
0000
0001
0000
,
0100
0000
1000
0000
0001
0000
0010
0000
1000
0001
1000
0000
0001
0100
0001
0000
,
0010
0100
0010
0100
0010
0000
0001
0000
1000
0010
1000
0010
1000
0000
0001
0000
,
0100
0000
1000
0000
0001
0000
0010
0000
1000
0001
1000
0001
0100
0001
0100
0000
,
0001
0100
0010
0100
0001
0000
0010
0100
1000
0100
0010
0000
0001
0100
0010
0100
,
0001
1000
0000
1000
0100
0000
0010
0001
1000
0100
0010
0001
0010
0100
1000
0001
,
1000
0000
0000
0000
1001
0000
0000
0101
0000
0000
1001
0000
0000
0101
0000
0000
,
0010
0000
0000
0000
0110
0000
0000
1100
0000
0000
0110
0000
0000
1100
0000
0000
,
1001
0000
0000
0000
1001
0000
0000
1010
0000
0000
1001
0000
0000
1010
0000
0000
,
0100
0000
0000
0000
1001
0000
0000
0011
0000
0000
1001
0000
0000
0011
0000
0000
,
0110
0000
0000
0110
0000
0000
0000
0000
0000
0000
0000
0000
0000
0000
0000
0000
;

//---------------dance-double - ----------------
#NOTES:
     dance-double:
     :
     Medium:
     8:
     0.342,0.387,0.142,0.034,0.000:
10010000
10000000
01000000
10000000
,
00011000
00001000
00100000
00001000
,
00011000
00000100
00000010
00000001
,
00002000
00000000
00000000
00000000
,
00003001
00000000
00000001
00000000
00001000
00000010
00001000
00000010
,
00010000
00000000
00010000
00000000
00010000
00001000
01000000
00000000
,
01000000
00000000
01000000
00000000
00100000
10000000
00100000
10000000
,
00010000
00010000
00010000
00000000
,
00011000
00000000
00010000
00000000
00010000
00000100
00010000
00000100
,
00001000
00000000
00001000
00000001
00001000
00000000
00001000
00000100
,
00001000
00000001
00000010
00000100
,
00010000
00001000
00010000
00000000
,
00000010
00010000
00001000
00000000
00010000
00000010
00010000
00000000
,
00001000
00010000
00000010
00000000
00010000
00000010
00010000
00000000
,
00001000
10000000
01000000
00000000
10000000
01000000
10000000
00000000
,
00001000
10000000
01000000
00000000
10000000
01000000
10000000
00000000
,
00100000
01000000
00001000
00000000
01000000
00100000
01000000
00000000
,
00100000
01000000
00001000
00000000
01000000
00100000
01000000
00000000
,
00001000
00010000
00000010
00000000
00000100
00000010
00000100
00000000
,
00000010
00010000
00001000
00000000
00020000
00000000
00000000
00000000
,
00031000
00010000
00000001
00010000
,
00000001
00010000
00000001
00010000
00000100
00010000
00000100
00000000
,
00010000
00001000
01000000
00100000
,
10000000
00001000
10000000
00001000
01000000
00001000
01000000
00000000
,
00001000
00010000
00000100
00000010
,
00000001
00010000
00000001
00010000
00000010
00010000
00000010
00000000
,
00010000
00001000
00100000
01000000
,
10010000
00000000
00000000
10010000
00000000
00000000
00000000
00000000
,
01100000
00000000
00000000
00000000
,
00010000
00000000
00000000
00000000
,
00011000
00000000
00000000
00000000
,
00000010
00000000
00000000
00000000
,
00000110
00000000
00000000
00000000
,
00001000
00000000
00000000
00000000
,
00011000
00000000
00000000
00000000
,
00100000
00000000
00000000
00000000
,
01100000
00000000
01000000
00000000
,
00100000
00000000
01000000
00000000
,
00001000
00000000
00010000
00000000
,
00001000
00000000
00010000
00000000
,
00000010
00000000
00000100
00000000
,
00000010
00000000
00010000
00000000
,
00001000
00000000
10000000
00000000
,
01000000
10000000
01000000
10000000
,
00002000
00000000
00000000
00000000
,
00013000
00000100
00000010
00000001
,
00001001
00000000
00000001
00000000
00001000
00000100
00000010
00000000
,
00010000
00000000
00001000
00000000
00100000
01000000
10000000
00000000
,
00001000
00000000
00010000
00000000
00000010
00000100
00000001
00000000
,
00010000
00000000
00001000
00000000
01000000
00100000
10000000
00000000
,
00001000
00000000
00010000
00000000
00000100
00000010
00000100
00000000
,
00010000
00000000
00001000
00000000
00100000
01000000
00100000
00000000
,
00001000
00000000
00010000
00000000
00000010
00000100
00000010
00000000
,
00000100
00000001
00000100
00000001
00020000
00000000
00000000
00000000
,
00031000
01000000
00100000
00000000
01000000
00100000
01000000
00000000
,
00100000
01000000
00001000
00010000
00001000
00010000
00001000
00000000
,
00010000
00000100
00000010
00000000
00000100
00000010
00000100
00000000
,
00000010
00000100
00010000
00001000
00010000
00001000
00010000
00000000
,
00001000
00100000
01000000
00000000
00100000
01000000
00100000
00000000
,
01000000
00100000
00001000
00010000
00001000
00010000
00001000
00000000
,
00010000
00000001
00000100
00000010
00010000
00001000
00010000
00000000
,
00011000
00000000
00000000
01100000
00000000
00000000
00000000
00000000
,
10010000
00000000
01000000
00000000
,
00100000
00000000
00010000
00000000
,
00011000
00000000
00001000
00000000
,
00000100
00000000
00000010
00000000
,
00001001
00000000
00000000
00000000
;

//---------------dance-double - ----------------
#NOTES:
     dance-double:
     :
     Hard:
     13:
     0.579,0.666,0.101,0.168,0.457: // measure 1
00002001
00000000
00000000
00000020
00000000
00000000
00000000
00000000
00000000
00000000
00000000
00000000
00003030
00000000
00000000
00000000
,  // measure 2
00020000
00000000
00000000
00000200
00000000
00000000
00000000
00000000
00030300
00000000
00010000
00000000
00001000
00000000
01000000
00000000
,  // measure 3
00200000
00000000
00000000
02000000
00000000
00000000
00000000
00000000
00000000
00000000
00000000
00000000
03300000
00000000
01000000
00000000
,  // measure 4
20000000
00000000
00000000
00002000
00000000
00000000
00000000
00000000
00000000
00000000
00000000
00000000
30003000
00000000
00000000
00000000
,  // measure 5
01001000
00000000
00000000
01000000
00000000
00000000
01000000
00000000
00010000
00000000
01000000
00000000
00001000
00000000
01000000
00000000
,  // measure 6
00010000
01000000
00001000
01000000
00010000
01000000
00001000
00000000
,  // measure 7
00011000
00000000
00000000
00010000
00000000
00000000
00010000
00000000
00000010
00000000
00000100
00000000
00000010
00000000
00010000
00000000
,  // measure 8
00000010
00000000
00000100
00000000
00000010
00000000
00010000
00000000
00000000
00000002
00000000
00000000
00000000
00000000
00000000
00000000
,  // measure 9
00010003
00000000
00000000
00010000
00000000
00000000
00010000
00000000
00000100
00000000
00001000
00000000
00000100
00000000
00010000
00000000
,  // measure 10
00000100
00001000
00000100
00010000
00000100
00001000
00000100
00010000
,  // measure 11
00001000
00000000
00000000
00001000
00000000
00000000
00001000
00000000
10000000
00000000
01000000
00000000
00100000
00000000
00001000
00000000
,  // measure 12
00010000
00010000
00010000
00011000
,  // measure 13
00000001
00000000
00001000
00000100
00000000
00000000
00001000
00000000
00000010
00000000
00010000
00001000
00000000
00000000
00010000
00000000
,  // measure 14
00000100
00000000
00001000
00000010
00000000
00000000
00010000
00000000
00001000
00000000
00010000
00000010
00000000
00000000
00000100
00000000
,  // measure 15
00001000
00000000
00000100
00000010
00000000
00000000
00010000
00000000
00001000
00000000
01000000
00010000
00000000
00000000
10000000
00000000
,  // measure 16
00010000
00000000
00100000
01000000
00000000
00000000
10000000
00000000
00010000
00000000
01000000
00010000
00000000
00000000
10000000
00000000
,  // measure 17
00001000
00000000
00100000
00001000
00000000
00000000
00010000
00000000
00000010
00000000
00000100
00000010
00000000
00000000
00000100
00000000
,  // measure 18
00000001
00000000
00010000
00000100
00000000
00000000
00010000
00000000
00000001
00000000
00000100
00000001
00000000
00000000
00000100
00000000
,  // measure 19
00000010
00000000
00001000
00000010
00000000
00000000
00000100
00000000
00000001
00000000
00010000
00001000
00000000
00000000
00100000
00000000
,  // measure 20
01000000
00000000
10000000
00010000
00000000
00000000
00100000
00000000
00001000
00010000
00000000
00001000
00010000
00000000
00001000
10000000
,  // measure 21
00001000
00100000
01000000
00100000
00001000
00100000
01000000
00000000
,  // measure 22
00001000
00010000
00000010
00000100
00000001
00000100
00000010
00010000
,  // measure 23
00001000
00100000
01000000
00100000
00001000
00100000
01000000
00000000
,  // measure 24
00010000
00001000
00000100
00000010
00000001
00000010
00000100
00000000
,  // measure 25
00001000
01000000
00100000
00010000
00100000
01000000
00001000
00000000
,  // measure 26
00010000
00001000
01000000
00100000
10000000
00100000
01000000
00000000
,  // measure 27
00001000
01000000
00100000
00010000
00100000
01000000
00001000
00010000
,  // measure 28
00000010
00000100
00000000
00000010
00000100
00000000
00000010
00000100
00000000
00000010
00000200
00000000
00000000
00000000
00000000
00000000
,  // measure 29
00000310
00000000
00000000
00000000
00001000
00000000
00000000
00001000
00000000
00000000
00000001
00000000
00000000
00000001
00000000
00000000
,  // measure 30
00000020
00000000
00000000
00000000
00000031
00000000
00000000
00000001
00000000
00000000
00000001
00000000
00000110
00000000
00000000
00000000
,  // measure 31
00020000
00000000
00000000
00000000
00031000
00000000
00000000
00001000
00000000
00000000
01000000
00000000
00000000
01000000
00000000
00000000
,  // measure 32
00100000
01000000
00000000
00100000
01000000
00000000
00100000
01000000
00000000
00100000
02000000
00000000
00000000
00000000
00000000
00000000
,  // measure 33
03010000
00000000
00000000
00000000
10000000
00000000
00000000
10000000
00000000
00000000
01000000
00000000
00000000
01000000
00000000
00000000
,  // measure 34
00200000
00000000
00000000
00000000
00301000
00000000
00000000
00001000
00000000
00000000
00010000
00000000
00000000
00010000
00000000
00000000
,  // measure 35
00000020
00000000
00000000
00000000
00000130
00000000
00000000
00000100
00000000
00000000
00000001
00000000
00000000
00000001
00000000
00000000
,  // measure 36
00001000
00000000
00000100
00000010
00000000
00000100
00000010
00000000
00000100
00000010
00000000
00000200
00000000
00000000
00000000
00000000
,  // measure 37
00000310
00000000
00000000
01000001
00000000
00000000
01001000
00000000
00000010
00000000
00000000
00010000
00000000
00000000
00001000
00000000
,  // measure 38
01000000
00000000
00000000
00100000
00000000
00000000
10000000
00000000
01000000
00000000
00000000
00100000
00000000
00000000
01000000
00000000
,  // measure 39
10000000
00000000
00000000
00001000
00000000
00000000
00100000
00000000
00010000
00000000
00000000
01000000
00000000
00000000
00001000
00000000
,  // measure 40
00010000
00000000
00000000
00000010
00000000
00000000
00000100
00000000
00000001
00000000
00000000
00001000
00000000
00000000
00000001
00000000
,  // measure 41
00000100
00000000
00000000
00000010
00000000
00000000
00000100
00000000
00000001
00000000
00000000
00010000
00000000
00000000
00001000
00000000
,  // measure 42
10000000
00000000
00000000
00100000
00000000
00000000
01000000
00000000
00100000
00000000
00000000
10000000
00000000
00000000
00001000
00000000
,  // measure 43
00010000
00000000
00000000
00000010
00000000
00000000
00000100
00000000
00000010
00000000
00000000
00010000
00000000
00000000
00001000
00000000
,  // measure 44
00100000
00000000
00000000
01000000
00000000
00000000
00100000
00000000
00001000
00000000
00000000
00010000
00000000
00000000
00000100
00000000
,  // measure 45
00000020
00000000
00000000
00000000
,  // measure 46
00000031
00000001
00000001
00001001
,  // measure 47
00001000
00000000
00000010
00000100
00000000
00000000
00000100
00000000
00000001
00000000
00010000
00001000
00000000
00000000
00001000
00000000
,  // measure 48
01000000
00000000
00100000
01000000
00000000
00000000
01000000
00000000
00010000
00000000
10000000
00100000
00000000
00000000
00100000
00000000
,  // measure 49
10000000
00000000
01000000
00100000
00000000
00000000
00100000
00000000
00001000
00000000
00010000
00000100
00000000
00000000
00000100
00000000
,  // measure 50
00010000
00000000
00001000
00010000
00000000
00000000
00010000
00000000
00000001
00000000
00000100
00000001
00000000
00000000
00000001
00000000
,  // measure 51
00010000
00000000
00001000
00010000
00000000
00001000
00010000
00000000
00001000
00000000
01000000
00100000
00000000
01000000
00100000
00000000
,  // measure 52
10000000
00000000
00001000
01000000
00000000
00001000
01000000
00000000
00010000
00000000
10000000
01000000
00000000
10000000
01000000
00000000
,  // measure 53
00100000
00000000
00001000
01000000
00000000
00001000
01000000
00000000
00001000
00000000
00010000
00000100
00000000
00010000
00000100
00000000
,  // measure 54
00001000
00000000
00000010
00000100
00000000
00000010
00000100
00000000
00000001
00010000
00000000
00000001
00010000
00000000
00000001
00010000
,  // measure 55
00000001
00000100
00001000
00000100
00000001
00010000
00001000
00010000
,  // measure 56
00000001
00000010
00001000
00000010
00000001
00010000
00001000
00100000
,  // measure 57
00010000
00100000
10000000
00100000
00010000
10000000
00001000
10000000
,  // measure 58
00010000
01000000
10000000
01000000
00010000
10000000
00001000
00010000
,  // measure 59
00000010
00001000
00000100
00000001
00000100
00001000
00000010
00000100
,  // measure 60
00000010
00010000
00001000
01000000
00010000
00100000
10000000
00100000
,  // measure 61
00010000
10000000
00010000
10000000
00010000
00000000
00100000
00001000
00100000
00001000
00100000
00000000
00001000
00010000
00001000
00010000
,  // measure 62
00000010
00000100
00000000
00000010
00000100
00000000
00000010
00000100
00000020
00000000
00000000
00000000
00000000
00000000
00000030
00000000
,  // measure 63
00000110
00000000
00000000
00000000
00000001
00000000
00000000
00000001
00000000
00000000
00000100
00000000
00000000
00000100
00000000
00000000
,  // measure 64
00000020
00000000
00000000
00000000
00010030
00000000
00000000
00010000
00000000
00000000
00001000
00000000
00000000
00001000
00000000
00000000
,  // measure 65
01001000
00000000
00000000
00000000
00001000
00000000
00000000
00001000
00000000
00000000
00100000
00000000
00000000
00100000
00000000
00000000
,  // measure 66
00020000
00000000
00000000
00000000
10030000
00000000
00000000
10000000
00000000
00000000
01000000
00000000
00000000
01000000
00000000
00000000
,  // measure 67
10001000
00000000
00000000
10001000
00000000
00000000
00000000
00000000
00000000
00000000
00000000
00000000
00000000
00000000
00000000
00000000
;

//---------------dance-double - ----------------
#NOTES:
     dance-double:
     :
     Challenge:
     16:
     0.773,0.804,0.494,0.042,0.855: // measure 1
10010000
00000000
00000000
01100000
00000000
00000000
00000000
00000000
00000000
00000000
00000000
00000000
00000000
00000000
00000000
00000000
,  // measure 2
11000000
00000000
00000000
10010000
00000000
00000000
00000000
00000000
00000000
00000000
10000000
00000000
01000000
00000000
00100000
00000000
,  // measure 3
00011000
00000000
00000000
00010100
00000000
00000000
00000000
00000000
00020000
00000000
00000000
00000000
00030001
00000000
00001000
00000000
,  // measure 4
00000100
00000000
00000000
00002200
00000000
00000000
00000000
00000000
00000000
00000000
00000000
00000000
00003300
00000000
00000000
00000000
,  // measure 5
00001001
00000000
00000000
00001001
00000000
00000000
00000001
00000000
00000001
00000000
00000010
00000000
00000100
00000000
00001000
00000000
,  // measure 6
00100000
00000000
01000000
00000000
01000000
00000000
00100000
00000000
00001000
00010000
00001000
00000000
10000000
00100000
10000000
00000000
,  // measure 7
10010000
00000000
00000000
10010000
00000000
00000000
10000000
00000000
10000000
00000000
00100000
00000000
01000000
00000000
00010000
00000000
,  // measure 8
00000010
00000000
00000100
00000000
00000010
00000000
00010000
00000000
00000000
00001000
10000000
01000000
00100000
00010000
10000000
00000000
,  // measure 9
00010000
00000000
00000000
10010000
00000000
00000000
10000000
00000000
10000000
00000000
01000000
00000000
00100000
00000000
00010000
00000000
,  // measure 10
00000100
00000000
00000010
00000000
00000010
00000000
00000100
00000000
00010000
00001000
00010000
00000000
00000001
00000100
00000001
00000000
,  // measure 11
00001001
00000000
00000000
00001001
00000000
00000000
00000001
00000000
00000001
00000000
00000100
00000000
00000010
00000000
00001000
00000000
,  // measure 12
00000001
00000000
00000000
00000000
00010000
00000000
00000000
00000000
00001000
00010000
00001000
00010000
00001000
00000000
00000000
00000000
,  // measure 13
10000000
00100000
10000000
00100000
00000000
00000000
00100000
00000000
10000000
00001000
10000000
00001000
00000000
00000000
00001000
00000000
,  // measure 14
00010000
00000100
00010000
00000100
00000000
00000000
00000100
00000000
00001000
00000001
00001000
00000001
00000000
00000000
00000001
00000000
,  // measure 15
00000010
00000100
00000010
00000100
00000000
00000000
00000100
00000000
00010000
00100000
00010000
00100000
00000000
00000000
00100000
00000000
,  // measure 16
00010000
10000000
00010000
10000000
00000000
00000000
10000000
00000000
00001000
01000000
00001000
01000000
00000000
00000000
01000000
00000000
,  // measure 17
00001000
00010000
00001000
00100000
00000000
00000000
00100000
00000000
00010000
10000000
00010000
01000000
00000000
00000000
01000000
00000000
,  // measure 18
00100000
01000000
00100000
10000000
00000000
00000000
10000000
00000000
00001000
00010000
00001000
01000000
00000000
00000000
01000000
00000000
,  // measure 19
00001000
00010000
00000010
00000100
00000000
00000000
00000100
00000000
00000010
00001000
00000001
00001000
00000000
00000000
00001000
00000000
,  // measure 20
00000001
00010000
00000010
00010000
00000000
00000000
00010000
00000000
00001000
00010000
00000000
00001000
00010000
00000000
00001000
10000000
,  // measure 21
00100000
01000000
00100000
01000000
00100000
00000000
00000000
00000000
10000000
00100000
10000000
00100000
10000000
00000000
00000000
00000000
,  // measure 22
00001000
00000000
01000000
00000000
10000000
00000000
01000000
00000000
00001000
00010000
00001000
00010000
00000010
00000100
00000001
00000000
,  // measure 23
00000010
00000100
00000010
00000100
00000010
00000000
00000000
00000000
00000001
00000100
00000001
00000100
00000001
00000000
00000000
00000000
,  // measure 24
00010000
00000000
00000100
00000000
00000001
00000000
00000100
00000000
00010000
00001000
00010000
00001000
01000000
00100000
10000000
00000000
,  // measure 25
00100000
01000000
00100000
01000000
00100000
00000000
10000000
00000000
00001000
00010000
00001000
00010000
00001000
00000000
10000000
00000000
,  // measure 26
00001000
00000000
01000000
00000000
10000000
00000000
01000000
00000000
00001000
00010000
00001000
00010000
00000100
00000010
00000001
00000000
,  // measure 27
00001000
00000100
00001000
00000100
00001000
00000000
00000001
00000000
00010000
00000010
00010000
00000010
00010000
00000000
00000001
00000000
,  // measure 28
00000010
00000100
00000000
00000100
00000010
00000000
00000001
00010000
00000000
00010000
00000001
00000010
00000100
00001000
00000100
00000010
,  // measure 29
00000001
00000000
00000000
00000000
00001001
00000000
00000000
00001100
00000000
00000000
00001001
00000000
00000000
00001100
00000000
00000000
,  // measure 30
00010000
00000000
00000000
00000000
00011000
00000000
00000000
01001000
00000000
00000000
00011000
00000000
01001000
00000000
00000000
00000000
,  // measure 31
00100000
00000000
00000000
00000000
10010000
00000000
00000000
00110000
00000000
00000000
10010000
00000000
00000000
00110000
00000000
00000000
,  // measure 32
00001000
00010000
00000000
00001000
00010000
00000000
00001000
00010000
00000010
00000100
00000010
00000100
00000010
00000000
00000010
00000000
,  // measure 33
00001001
00000000
00000000
00000000
00000011
00000000
00000000
00000110
00000000
00000000
00000011
00000000
00000000
00000110
00000000
00000000
,  // measure 34
00010000
00000000
00000000
00000000
01001000
00000000
00000000
01100000
00000000
00000000
01001000
00000000
00000000
01100000
00000000
00000000
,  // measure 35
00010000
00000000
00000000
00000000
10010000
00000000
00000000
11000000
00000000
00000000
10010000
00000000
00000000
11000000
00000000
00000000
,  // measure 36
00001000
00000000
00010000
00001000
00000000
00010000
00001000
00000000
00010000
00001000
01000000
00200000
00000000
00000000
00000000
00000000
,  // measure 37
01300000
00000000
00000000
00100000
10000000
00000000
01000000
00000000
00100000
00000000
00000000
00100000
00010000
00000000
10000000
00000000
,  // measure 38
00100000
00000000
00000000
00100000
01000000
00000000
00001000
00000000
00010000
00000000
00000000
00010000
00000010
00000000
00000100
00000000
,  // measure 39
00000010
00000000
00000000
00000010
00001000
00000000
00000001
00000000
00000010
00000000
00000000
00000010
00000001
00000000
00010000
00000000
,  // measure 40
00001000
00000000
00000000
00001000
10000000
00000000
00100000
00000000
01000000
00000000
00000000
01000000
00001000
00010000
00001000
00010000
,  // measure 41
00001000
00000000
00000000
00001000
00100000
00000000
01000000
00000000
10000000
00000000
00000000
10000000
00010000
00000000
00100000
00000000
,  // measure 42
00001000
00000000
00000000
00001000
00010000
00000000
00000100
00000000
00001000
00000000
00000000
00001000
00000100
00000000
00100000
00000000
,  // measure 43
00001000
00000000
00000000
00001000
00010000
00000000
00000001
00000000
00000100
00000000
00000000
00000100
00000001
00000000
00000010
00000000
,  // measure 44
00000100
00000000
00000000
00000100
00010000
00000000
00001000
00000000
00010000
00000000
00000000
00010000
00001000
00100000
00001000
00100000
,  // measure 45
00020000
00000000
00000000
00000000
,  // measure 46
00130000
00100000
00100000
00000000
00010000
00010000
10010000
00000000
,  // measure 47
01000000
00010000
01000000
00010000
00000000
00000000
00010000
00000000
01000000
00001000
01000000
00001000
00000000
00000000
00001000
00000000
,  // measure 48
10000000
01000000
10000000
01000000
00000000
00000000
01000000
00000000
10000000
00001000
10000000
00001000
00000000
00000000
00001000
00000000
,  // measure 49
00100000
00000100
00100000
00000100
00000000
00000000
00000100
00000000
00001000
00000001
00001000
00000001
00000000
00000000
00000001
00000000
,  // measure 50
00000010
00000001
00000010
00000001
00000000
00000000
00000001
00000000
00000010
00000100
00000010
00000100
00000000
00000000
00000100
00000000
,  // measure 51
00001000
00000100
00001000
00000001
00000000
00000001
00000100
00000000
00000010
00000100
00000010
00010000
00000000
00010000
00001000
00000000
,  // measure 52
10000000
00100000
10000000
00010000
00000000
00010000
10000000
00000000
00001000
01000000
00001000
10000000
00000000
10000000
00010000
00000000
,  // measure 53
00100000
00010000
00100000
00001000
00000000
00001000
00010000
00000000
00000010
00000100
00000010
00001000
00000000
00001000
00000100
00000000
,  // measure 54
00010000
00000001
00010000
00001000
00000000
00001000
00100000
00000000
00001000
10000000
00000000
10000000
00001000
00000000
10000000
00001000
,  // measure 55
10000000
01000000
10000000
01000000
10000000
00000000
00001000
00000000
01000000
00010000
01000000
00010000
01000000
00000000
00001000
00000000
,  // measure 56
00100000
00000000
10000000
00000000
00100000
00000000
00001000
00000000
01000000
00001000
01000000
00001000
00010000
00001000
00010000
00000000
,  // measure 57
00000100
00010000
00000100
00010000
00000100
00000000
00001000
00000000
00000001
00000010
00000001
00000010
00000001
00000000
00010000
00000000
,  // measure 58
00000100
00000000
00000001
00000000
00000100
00000000
00010000
00000000
00000100
00010000
00000100
00000000
00010000
00001000
00010000
00000000
,  // measure 59
00001000
10000000
00001000
10000000
00001000
00000000
01000000
00000000
00010000
01000000
00010000
01000000
00010000
00000000
10000000
00000000
,  // measure 60
00001000
00000000
00100000
00000000
10000000
00000000
00100000
00000000
00001000
10000000
00001000
10000000
00001000
00100000
00001000
00000000
,  // measure 61
10000000
01000000
00100000
01000000
10000000
00000000
00001000
01000000
00100000
01000000
00001000
00000000
00010000
00000100
00001000
00000100
,  // measure 62
00010000
00000001
00000000
00000001
00010000
00000000
00001000
10000000
01000000
00100000
00010000
00100000
01000000
10000000
00001000
00010000
,  // measure 63
00001000
00000000
00000000
00000000
00010010
00000000
00000000
00010100
00000000
00000000
00010010
00000000
00000000
00010100
00000000
00000000
,  // measure 64
00001000
00000000
00000000
00000000
00001100
00000000
00000000
00000110
00000000
00000000
00001100
00000000
00000000
00000110
00000000
00000000
,  // measure 65
00001001
00000000
00000000
00000000
00010001
00000000
00000000
00010100
00000000
00000000
00010001
00000000
00000000
00010100
00000000
00000000
,  // measure 66
00001000
00000000
00000000
00000000
10001000
00000000
00000000
11000000
00000000
00000000
10001000
00000000
00000000
11000000
00000000
00000000
,  // measure 67
01100000
00000000
00000000
01100000
00000000
00000000
00000000
00000000
00000000
00000000
00000000
00000000
00000000
00000000
00000000
00000000
;

//---------------dance-double - ----------------
#NOTES:
     dance-double:
     :
     Easy:
     5:
     0.164,0.249,0.059,0.101,0.000:
20020000
00000000
00000000
30030000
,
02200000
00000000
00000000
03300000
,
10000000
01000000
00100000
00001000
,
00020000
00000000
00000000
00000000
,
00031000
00000000
01000000
00000000
,
00001000
00000000
01000000
00000000
,
00010000
00000000
10000000
00000000
,
00010000
00000000
10000000
00000000
,
00001000
00000000
00010000
00000000
,
00001000
00000000
00010000
00000000
,
00000100
00000000
00010000
00000000
,
00000200
00000000
00000000
00000000
,
00001300
00000000
00001000
00000000
,
00000100
00000000
00000100
00000000
,
00000010
00000000
00000010
00000000
,
00000001
00000000
00000001
00000000
,
00010000
00000000
00010000
00000000
,
00000100
00000000
00000100
00000000
,
00000010
00000000
00000010
00000000
,
00000001
00000000
00020000
00000000
,
00031000
00000000
10000000
00000000
,
01000000
10000000
01000000
00000000
,
00100000
00000000
00001000
00000000
,
00010000
00001000
00010000
00000000
,
00000001
00000000
00000100
00000000
,
00000010
00000100
00000010
00000000
,
00010000
00000000
00001000
00000000
,
00020000
00000000
00000000
00000000
,
00031000
00000000
00000000
00000000
,
00010000
00000000
00000000
00000000
,
00001000
00000000
00000000
00000000
,
00010000
00000000
00000000
00000000
,
00011000
00000000
00000000
00000000
,
00001000
00000000
00000000
00000000
,
01000000
00000000
00000000
00000000
,
00100000
00000000
00000000
00000000
,
10010000
00000000
10000000
00000000
,
10000000
00000000
00000000
00000000
,
00001000
00000000
00001000
00000000
,
00001000
00000000
00000000
00000000
,
00100000
00000000
00100000
00000000
,
00100000
00000000
00000000
00000000
,
00001000
00000000
00001000
00000000
,
00001000
00000000
00000000
00000000
,
00020000
00000000
00000000
00000000
,
00030020
00000000
00000000
00000000
,
00000130
00000000
00000001
00000000
,
00010000
00000000
00001000
00000000
,
00010000
00000000
00000010
00000000
,
00000100
00000000
00000001
00000000
,
00010000
00000000
00001000
00000000
,
01000000
00000000
00100000
00000000
,
10000000
00000000
00001000
00000000
,
10000000
00000000
00002000
00000000
,
00013000
00000000
00010000
00000000
,
00000100
00001000
00000100
00000000
,
00010000
00000000
00010000
00000000
,
00000010
00000100
00000010
00000000
,
00010000
00000000
00010000
00000000
,
00001000
00100000
00001000
00000000
,
10010000
00000000
00000000
10000000
00000000
00000000
00001000
00000000
,
00020000
00000000
00000000
00000000
,
00031000
00000000
00000000
00000000
,
00001000
00000000
00000000
00000000
,
00011000
00000000
00000000
00000000
,
00000010
00000000
00000000
00000000
,
00001001
00000000
00000000
00000000
;

//---------------dance-single - ----------------
#NOTES:
     dance-single:
     :
     Beginner:
     2:
     0.084,0.138,0.092,0.000,0.000:
0001
0000
0000
0000
,
0001
0000
0000
0000
,
0001
0000
0000
0000
,
1001
0000
0000
0000
,
1000
0000
0000
0000
,
0000
0000
0000
0000
,
0100
0000
0000
0000
,
0000
0000
0000
0000
,
0010
0000
0000
0000
,
0100
0000
0000
0000
,
1000
0000
1000
0000
,
1000
0000
0000
0000
,
1001
0000
0000
0000
,
0001
0000
0000
0000
,
0100
0000
0000
0000
,
0010
0000
0000
0000
,
0100
0000
0000
0000
,
0001
0000
0000
0000
,
1000
0000
0000
0000
,
0001
0000
0000
0000
,
1001
0000
1000
0000
,
1000
0000
0000
0000
,
0001
0000
0001
0000
,
0001
0000
0000
0000
,
1000
0000
1000
0000
,
1000
0000
0000
0000
,
0001
0000
0001
0000
,
0001
0000
0000
0000
,
0110
0000
0000
0000
,
0000
0000
0000
0000
,
0010
0000
0000
0000
,
0000
0000
0000
0000
,
0010
0000
0000
0000
,
0000
0000
0000
0000
,
0010
0000
0000
0000
,
0000
0000
0000
0000
,
1001
0000
0000
0000
,
0000
0000
0000
0000
,
1000
0000
0000
0000
,
0000
0000
0000
0000
,
0001
0000
0000
0000
,
0000
0000
0000
0000
,
1000
0000
0000
0000
,
0000
0000
0000
0000
,
0001
0000
0000
0000
,
0000
0000
0000
0000
,
1001
0000
0000
0000
,
1000
0000
0000
0000
,
0100
0000
0000
0000
,
1000
0000
0000
0000
,
0010
0000
0000
0000
,
0100
0000
0000
0000
,
0001
0000
0000
0000
,
1000
0000
0000
0000
,
1001
0000
0000
0000
,
0001
0000
0000
0000
,
0010
0000
0000
0000
,
0100
0000
0000
0000
,
0010
0000
0000
0000
,
0001
0000
0000
0000
,
1001
0000
0000
0000
,
1000
0000
0000
0000
,
0110
0000
0000
0000
,
0000
0000
0000
0000
,
0110
0000
0000
0000
,
0000
0000
0000
0000
,
0110
0000
0000
0000
;
