#TITLE:Chrono Diver;
#SUBTITLE:-PENDULUMs-;
#ARTIST:猫叉L.E.D.Master+;
#TITLETRANSLIT:;
#SUBTITLETRANSLIT:;
#ARTISTTRANSLIT:Nekomata L.E.D.Master+;
#GENRE:;
#CREDIT:DigiMindAxel & Pandemonium X;
#BANNER:Chrono Diver -PENDULUMs-.png;
#BACKGROUND:Chrono Diver -PENDULUMs--bg.png;
#LYRICSPATH:;
#CDTITLE:beatmania IIDX.png;
#MUSIC:Chrono Diver -PENDULUMs-.ogg;
#METERTYPE:DDR X;
#OFFSET:-5.968000;
#SAMPLESTART:73.310997;
#SAMPLELENGTH:12.000000;
#SELECTABLE:YES;
#BPMS:0.000000=196.000000
,357.000000=160.000000
,358.000000=143.000000
,359.000000=142.000000
,360.000000=121.000000
,361.000000=111.000000
,362.000000=97.000000
,363.000000=77.000000
;
#STOPS:
;
#BGCHANGES:-22.000=Chrono Diver -PENDULUMs-.avi=1.000=1=0=0=StretchNoLoop==CrossFade==,
99999=-nosongbg-=1.000=0=0=0 // don't automatically add -songbackground-
;
#KEYSOUNDS:;
#ATTACKS:;

//---------------dance-single - ----------------
#NOTES:
     dance-single:
     :
     Beginner:
     5:
     0.219196,0.283509,0.257027,0.000000,0.000000,197.000000,164.000000,33.000000,0.000000,0.000000,0.000000,0.219196,0.283509,0.257027,0.000000,0.000000,197.000000,164.000000,33.000000,0.000000,0.000000,0.000000:
1000
0000
0000
0000
,
0000
0000
0000
0000
,
0001
0000
0000
0000
,
0000
0000
0000
0000
,
1001
0000
1000
0000
,
1000
0000
0001
0000
,
0001
0000
1000
0000
,
1000
0000
0001
0000
,
0001
0000
0100
0000
,
0100
0000
0010
0000
,
0010
0000
1000
0000
,
1000
1000
1000
0000
,
1001
0000
0010
0000
,
0100
0000
0010
0000
,
0001
0000
0100
0000
,
0010
0000
0100
0000
,
0001
0000
1000
0000
,
0100
0000
1000
0000
,
0001
0000
0001
0000
,
1000
0000
1000
0000
,
0100
0000
0010
0000
,
0100
0000
0010
0000
,
0001
0000
0100
0000
,
0001
0000
0100
0000
,
0001
0000
1000
0000
,
0001
0000
1000
0000
,
0100
0000
1000
0000
,
0010
0000
0010
0000
,
0110
0000
0000
0000
,
0100
0000
0000
0000
,
0110
0000
0000
0000
,
0100
0000
0000
0000
,
1001
0000
0000
0000
,
0001
0000
0000
0000
,
1001
0000
0000
0000
,
0001
0000
0000
0000
,
0110
0000
0000
0110
,
0000
0000
0000
0000
,
1001
0000
0000
1001
,
0000
0000
0000
0000
,
0110
0000
0000
0110
,
0000
0000
0000
0000
,
1001
0000
1000
0000
,
0100
0000
0010
0000
,
0001
0000
0010
0000
,
0001
0000
0100
0000
,
0001
0000
0100
0000
,
0001
0000
1000
0000
,
0001
0000
1000
0000
,
0100
0000
1000
0000
,
0100
0000
1000
0000
,
0010
0000
0000
0000
,
0000
0000
0000
0000
,
0010
0000
0000
0000
,
0010
0000
0000
0000
,
0110
0000
0100
0000
,
0001
1000
0001
0000
,
1001
0000
1000
0000
,
0100
1000
0100
0000
,
1001
0000
0001
0000
,
0010
0001
0010
0000
,
1001
0000
1000
0000
,
0100
0000
0010
0000
,
1001
0000
1000
0000
,
0100
1000
0100
0000
,
1001
0000
0001
0000
,
0100
0001
0100
0000
,
0110
0000
0010
0000
,
0100
0010
0100
0000
,
1001
0000
1000
0000
,
0001
0000
0010
0000
,
1001
0000
0000
1001
,
0000
0000
1001
0000
,
0000
0001
1000
0001
,
1000
0000
0100
0000
,
0110
0000
0000
0110
,
0000
0000
0110
0000
,
0000
1000
0001
1000
,
0001
0000
0001
0000
,
1001
0000
0000
1001
,
0000
0000
1001
0000
,
0000
0010
0100
0010
,
0100
0000
0001
0000
,
1001
0000
0000
1001
,
0000
0000
1001
0000
,
0000
1000
0100
1000
,
0001
0000
1000
0000
,
0010
0000
0010
0000
,
0010
0000
0010
0000
,
0010
0000
0000
0000
,
0010
0000
0010
0000
,
0010
0000
0000
0000
;

//---------------dance-single - ----------------
#NOTES:
     dance-single:
     :
     Medium:
     12:
     0.586378,0.644905,0.506266,0.124619,0.023366,527.000000,462.000000,65.000000,16.000000,0.000000,0.000000,0.586378,0.644905,0.506266,0.124619,0.023366,527.000000,462.000000,65.000000,16.000000,0.000000,0.000000:
1001
0000
0001
0000
,
1000
0000
1000
0000
,
0110
0000
0100
0000
,
0010
0000
0010
0000
,
0001
1000
0100
1000
0000
0001
1000
0001
,
0000
1000
0100
1000
0000
0001
1000
0001
,
0000
0100
0001
0100
0001
1000
0001
1000
,
0000
0100
0010
0001
0000
1000
0001
1000
,
0000
0001
0010
0001
0000
1000
0001
1000
,
0000
0001
0010
0001
0000
1000
0001
1000
,
0000
0010
1000
0010
1000
0001
1000
0001
,
0010
0000
0010
0000
0010
0001
0011
0000
,
1001
0000
1100
0000
0010
0001
0100
0001
,
0100
0010
1000
0010
0000
1000
0100
0010
,
0000
0100
1000
0010
1000
0001
0010
0001
,
0000
0010
0100
1000
0000
0010
0100
0010
,
1000
0100
1000
0100
0000
0100
0010
0001
,
0000
2000
0000
0000
3010
0000
0110
0000
,
0010
0001
0010
0001
1000
0010
1000
0010
,
0000
0200
0302
1003
,
1001
0000
0001
0000
0100
0010
0100
0010
,
1000
0100
1000
0100
0000
0100
0010
0001
,
0000
0100
0001
0100
0001
1000
0100
0010
,
0000
0010
0001
1000
0010
0000
0100
0000
,
0001
1000
0100
1000
0000
1000
0001
0010
,
0000
0200
0000
0000
1300
0000
1100
0000
,
1001
0000
0000
0101
0000
0000
1010
0000
,
0100
0001
1000
0100
0010
0001
1000
0000
,
1001
0100
1001
0100
,
0101
0010
0101
0010
,
1001
0000
0000
1100
0000
0000
0011
0000
,
0001
1000
0100
0010
0100
1000
0001
0000
,
1001
0010
1001
0010
,
1010
0010
1010
0010
,
0110
0000
0000
1100
0000
0000
0011
0000
,
0001
1000
0010
1000
0001
1000
0010
0000
,
1000
0100
1000
0100
1000
0001
1000
0001
,
0100
0001
0100
0001
1000
0100
0010
0000
,
0100
1000
0100
1000
0001
1000
0001
1000
,
0001
0100
0001
0100
0001
0010
0100
0000
,
1000
0001
1000
0001
0100
0001
0100
0001
,
1000
0100
1000
0100
1000
0010
0100
0000
,
0001
0000
1000
0000
0001
1000
0001
0000
0010
0000
0001
0010
,
0002
0000
1003
0000
,
1010
0000
0101
0000
,
0120
0000
1030
0000
,
0011
0000
1001
0000
,
2010
0000
3001
0000
,
0101
0000
1001
0000
,
0210
0000
1300
0000
,
0011
0000
0110
0000
,
2002
0000
0000
0000
,
0000
0000
0000
3003
,
0200
0000
0000
0000
,
0020
0000
0000
0330
,
0010
1000
0010
1000
0001
0010
0100
0000
,
0020
0000
0031
0100
1000
0100
0001
1000
,
0100
0010
0100
0010
0001
1000
0010
0000
,
2000
0000
3001
1000
0010
0100
0010
0000
,
0110
0000
0100
0010
0001
1000
0010
0000
,
0200
0000
0301
1000
0100
1000
0001
0000
,
0010
0100
1000
0001
0010
1000
0010
0001
,
0100
1000
0100
0001
0100
0010
1000
0000
,
1001
0000
1000
0010
0100
0010
1000
0000
,
0001
0010
0100
0010
0001
0100
1000
0100
,
0001
0010
0100
1000
0001
0000
1001
0000
,
1000
0010
0001
0010
1000
0100
0010
0000
,
0001
1000
0010
1000
0001
0000
0011
0000
,
0010
0100
1000
0010
0001
0010
1000
0000
,
0100
0010
0001
1000
0100
0001
0100
1000
,
0010
0001
0010
1000
0010
0100
0001
1000
,
1100
0000
0000
1100
0000
0000
0101
0000
,
0000
0101
0000
0000
1001
0000
0000
1001
,
0000
0000
1000
0100
1000
0001
1000
0100
,
1000
0001
0010
0100
1000
0100
0010
0000
,
0101
0000
0000
0101
0000
0000
1100
0000
,
0000
1100
0000
0000
1001
0000
0000
1001
,
0000
0000
0001
0100
0001
1000
0001
0100
,
0001
1000
0100
0010
0001
0010
0100
0000
,
1001
0000
0000
1001
0000
0000
1100
0000
,
0000
1100
0000
0000
0101
0000
0000
0101
,
0000
0000
0001
1000
0001
0010
0001
1000
,
0001
0010
0001
1000
0010
0100
0001
0000
,
1001
0000
0000
1001
0000
0000
1010
0000
,
0000
1010
0000
0000
0011
0000
0000
0011
,
0000
0000
0001
0100
1000
0100
0001
0010
,
0100
1000
0001
0010
1000
0010
0001
1000
,
0100
0100
0100
0100
,
0010
0010
0010
0010
,
0001
0001
0010
0100
,
1000
0001
0010
0100
,
2000
0000
0000
0000
,
3000
0000
0000
0000
;

//---------------dance-single - ----------------
#NOTES:
     dance-single:
     :
     Hard:
     16:
     0.820040,1.003186,0.186929,0.023366,0.463428,737.000000,713.000000,24.000000,3.000000,0.000000,0.000000,0.820040,1.003186,0.186929,0.023366,0.463428,737.000000,713.000000,24.000000,3.000000,0.000000,0.000000:
0100
1000
0100
0010
,
0100
1000
0010
0100
,
0001
0010
0001
1000
,
0001
0000
0010
0000
0001
1000
0100
0010
,
0001
1000
0001
0010
0000
0010
0100
1000
,
0000
1000
0001
0010
0000
0010
0100
1000
,
0000
1000
0010
0100
0001
0100
1000
0100
,
0001
1000
0001
0100
0000
0100
0010
1000
,
0000
1000
0001
0100
0000
0100
0010
1000
,
0000
1000
0001
0100
0000
0100
0010
1000
,
0000
1000
0001
0010
1000
0010
0001
1000
,
0010
0000
0000
0000
0010
0000
0000
0000
0010
0100
0010
0000
1000
0010
1000
0000
,
0001
0010
0001
0000
1000
0001
0100
1000
,
0001
0010
1000
0001
0000
0010
0100
1000
,
0000
1000
0001
0100
1000
0001
0010
1000
,
0000
0001
0100
0010
0000
0010
1000
0100
,
1000
0001
0100
0010
0000
0010
1000
0100
,
0000
0000
0100
0000
0010
0000
0001
0000
1000
0001
1000
0000
0001
0100
0001
0000
,
1000
0001
0100
1000
0001
0010
1000
0001
,
0000
0000
0101
0000
1100
1000
0001
0100
,
0110
0000
0010
0100
0010
1000
0100
0001
,
1000
0010
0001
1000
0000
0100
0010
0001
,
1000
0100
0001
1000
0010
0001
1000
0010
,
1000
0001
0010
1000
0010
0001
1000
0100
,
1000
0001
0100
0010
0000
0010
0100
0001
,
0000
0000
0010
0000
0100
0000
1000
0000
0001
0100
0001
0000
1000
0001
1000
0000
,
0001
0010
0001
0000
1000
0000
0010
1000
0010
0000
1000
0000
0001
0010
0001
0000
,
1000
0100
0001
0100
1000
0001
0010
0000
,
0011
0000
0000
0001
1000
0000
0000
1000
0010
0000
0000
0010
0100
0000
0000
0100
,
0001
0000
0000
0001
1000
0000
0000
1000
0010
0000
0000
0010
0100
0000
0000
0000
,
0010
0100
0010
0000
1000
0000
0001
0100
0001
0000
0010
0000
0100
1000
0100
0000
,
0010
0000
0001
1000
0001
0000
1000
0000
0010
0000
0100
0000
0010
0000
1000
0000
,
1001
0000
0000
1000
0010
0000
0000
0010
0100
0000
0000
0100
0001
0000
0000
0001
,
1000
0000
0000
1000
0100
0000
0000
0100
0010
0000
0000
0010
0001
0000
0000
0000
,
1000
0010
1000
0000
0100
0000
0010
0001
0010
0000
0001
0000
0100
0010
0100
0000
,
0001
0000
1000
0001
1000
0000
0010
0000
0001
0000
0010
0000
1000
0000
0001
0000
,
0100
0100
0001
1000
1000
0001
0100
0100
,
0001
1000
1000
0010
0100
0100
0010
0100
,
0001
0001
1000
0100
0100
1000
0001
0001
,
1000
0100
0100
1000
0001
0001
1000
0001
,
0010
0010
0100
1000
1000
0001
0010
0010
,
0100
1000
1000
0001
0100
0100
0001
1000
,
0010
0000
0010
0000
0100
0001
1000
0000
1000
0000
1000
0010
,
0100
0000
0000
0001
0000
0000
1001
0000
0000
1000
0000
0010
,
0100
0000
0010
0100
0000
0000
0101
0000
0000
0101
0000
0000
,
1000
0000
0000
0100
0000
0000
1100
0000
0000
1000
0000
0100
,
0010
0000
0100
0010
0000
0000
0101
0000
0000
0101
0000
0000
,
1001
0000
0000
0010
0000
0000
0110
0000
0000
1000
0000
0001
,
0100
0000
0001
0100
0000
0000
1001
0000
0000
1001
0000
0000
,
0100
0000
0000
0010
0000
0000
0110
0000
0000
1000
0000
0001
,
0100
0000
0001
0100
0000
0000
1001
0000
0000
1001
0000
0000
,
1200
0000
1000
0000
,
1000
0000
1300
0000
,
0020
0000
0001
0000
,
0031
1000
0001
1000
0001
1000
1001
0000
,
0010
0100
1000
0000
0001
0000
0100
0000
0001
0000
0010
0000
0100
0000
1000
0000
,
0100
0000
0010
0000
0001
0000
0100
0000
0010
0000
1000
0100
1000
0100
1000
0000
,
0010
0100
0001
0000
1000
0000
0100
0000
0010
0000
0001
0000
0010
0000
0100
0000
,
1000
0000
0010
0000
0100
0000
0001
0000
0010
0001
0010
0001
0100
0000
0000
0000
,
0001
1000
0100
1000
0001
0000
1000
0000
0001
0000
0100
0000
0010
0000
0100
0000
,
0001
0100
0001
0000
1000
0001
1000
0000
0100
1000
0100
1000
0100
1000
0100
0000
,
1000
0000
0010
0000
0001
0000
0010
0000
1000
0000
0100
0010
0001
0000
1000
0000
,
0010
0000
0001
0000
0010
0000
0100
0000
0001
0000
1000
0100
0010
0000
0000
0000
,
0001
1000
0010
1000
0001
0000
0010
0000
0100
0000
1000
0000
0001
0000
0100
0000
,
0010
0000
0001
0000
0010
0000
0100
0000
0001
0000
1000
0010
1000
0010
1000
0000
,
0100
0010
0001
0010
0100
0000
1000
0000
0010
0000
0100
0000
0010
1000
0010
1000
,
0001
0000
0010
0000
0100
0000
0010
0000
0001
1000
0010
0000
1000
0010
1000
0000
,
0001
0100
0010
0100
0001
0000
1000
0000
0100
0000
0010
0000
0100
0000
1000
0000
,
0001
0100
0001
0000
1000
0010
1000
0000
0100
0010
0100
0010
0001
0100
0001
0000
,
1000
0010
0001
1000
0100
0001
1000
0010
,
0100
1000
0100
0010
1000
0001
0100
0010
,
1000
0001
1000
0000
0001
0000
0010
0100
0010
0000
0001
0000
1000
0010
1000
0000
,
0100
0000
0010
0001
0010
0000
0100
0000
1000
0001
1000
0000
0001
0000
0101
0000
,
0000
0100
0001
1000
0100
0001
0100
1000
,
0001
0000
0100
0000
0010
0000
0001
0000
0010
0000
0100
0000
0001
1000
0001
1000
,
0010
0100
0001
0000
1000
0000
0010
0100
0001
0000
1000
0000
0100
0010
0001
0000
,
1000
0000
0100
0010
0001
0000
1000
0000
0001
1000
0010
1000
0010
0000
1010
0000
,
0000
0100
0001
1000
0100
0001
0100
1000
,
0001
0010
0001
0010
0100
1000
0100
1000
0001
0100
0001
0100
0010
1000
0010
1000
,
0001
0010
0001
0000
1000
0000
0010
0100
0010
0000
1000
0000
0001
0100
0001
0000
,
0010
0000
0100
1000
0100
0000
1000
0000
0001
1000
0001
0000
0100
0000
0110
0000
,
0000
0010
0100
0001
0010
1000
0010
0001
,
1000
0000
0010
0000
0100
0000
1000
0000
0100
0000
0010
0000
1000
0001
1000
0001
,
0010
0100
1000
0000
0001
0000
0010
0100
1000
0000
0001
0000
0100
0010
1000
0000
,
0001
0000
0100
0010
1000
0000
0001
0000
1000
0001
0010
0001
0010
0000
0011
0000
,
0000
0100
1000
0001
0100
1000
0100
0001
,
1000
0010
1000
0010
0100
0001
0100
0001
1000
0100
1000
0100
0010
0001
0010
0001
,
1000
0100
0010
0100
,
1000
0001
0100
0001
,
1000
0100
0010
0100
,
1000
0000
0001
0000
0010
0000
1000
0001
,
2000
0000
0000
0000
,
3000
0000
0000
0000
;

//---------------dance-double - ----------------
#NOTES:
     dance-double:
     :
     Medium:
     13:
     0.598618,0.644905,0.428379,0.124619,0.023366,538.000000,483.000000,55.000000,16.000000,0.000000,0.000000,0.598618,0.644905,0.428379,0.124619,0.023366,538.000000,483.000000,55.000000,16.000000,0.000000,0.000000:
10010000
00000000
10000000
00000000
,
01000000
00000000
00100000
00000000
,
00011000
00000000
00010000
00000000
,
00000010
00000000
00000200
00000000
,
00000301
00010000
00000100
00010000
00000000
00001000
00010000
00001000
,
00000000
01000000
00100000
01000000
00000000
00001000
01000000
00001000
,
00000000
10000000
01000000
10000000
01000000
00100000
00001000
00100000
,
00000000
00001000
00010000
00001000
00000000
01000000
00001000
01000000
,
00000000
00001000
00010000
00001000
00000000
00010000
00000010
00010000
,
00000000
00000100
00000010
00000100
00000000
00001000
00000001
00001000
,
00000000
00000001
00000100
00000001
00000100
00000010
00010000
00000010
,
00010000
00000000
00010000
00000000
00010000
00001000
00011000
00000000
,
02001000
00000000
03100000
00000000
10000000
01000000
00100000
01000000
,
00100000
00001000
01000000
00001000
00000000
00010000
00000100
00000010
,
00000000
00000001
00000100
00000010
00000100
00000010
00010000
00001000
,
00000000
00010000
01000000
00100000
00000000
10000000
01000000
10000000
,
00010000
01000000
00010000
00100000
00000000
00001000
00000010
00000100
,
00000000
00000002
00000000
00000000
00001003
00000100
00000010
00000001
,
00000010
00000100
00010000
00000100
00010000
00001000
00100000
01000000
,
00000000
20000000
32000000
03100000
,
10010000
00000000
10000000
00000000
01000000
10000000
01000000
10000000
,
00010000
01000000
00001000
00010000
00000000
00000100
00000010
00000001
,
00000000
00001000
00000010
00001000
00000010
00010000
00001000
01000000
,
00000000
00100000
10000000
01000000
00010000
01000000
10000000
00000000
,
00001000
00010000
00000100
00000010
00000000
00000001
00000010
00000100
,
00000000
00020000
00000000
00000000
00031000
00000000
00011000
00000000
,
00100000
01000000
00000000
01000000
10000000
00000000
00100000
01000000
,
00010000
00000100
00000010
00000001
00000010
00000100
00010000
00000000
,
00011000
00100000
11000000
00100000
,
01100000
00001000
00011000
00000010
,
00001000
00000001
00000000
00000001
00000010
00000000
00000011
00000000
,
00000001
00001000
00000100
00010000
00001000
01000000
00100000
00000000
,
10100000
10000000
10010000
00010000
,
00110000
00001000
00011000
00000100
,
00000010
00000001
00000000
00000001
00001000
00000000
00001100
00000000
,
00000100
00010000
00100000
01000000
10000000
00100000
00010000
00000000
,
00100000
10000000
00100000
10000000
01000000
00100000
01000000
00100000
,
00001000
00010000
00001000
00010000
00000100
00000010
00000001
00000000
,
00000100
00000001
00000100
00000001
00001000
00000100
00001000
00000100
,
00001000
00010000
00001000
00010000
01000000
00100000
01000000
00000000
,
00010000
01000000
00010000
01000000
10000000
01000000
10000000
01000000
,
00010000
10000000
00010000
10000000
00001000
00010000
00001000
00000000
,
00010000
00000000
00000010
00000000
00000100
00000010
00000100
00000000
00000001
00000000
00001000
00000100
,
00002000
00000000
00003001
00000000
,
00001100
00000000
00010100
00000000
,
00012000
00000000
01003000
00000000
,
01100000
00000000
10010000
00000000
,
00120000
00000000
10030000
00000000
,
00011000
00000000
00010010
00000000
,
00000210
00000000
00000301
00000000
,
00000110
00000000
00010010
00000000
,
00022000
00000000
00000000
00000000
,
00000000
00000000
00000000
00033000
,
00001000
00010000
00001000
00010000
,
00001000
00010000
00001000
00010000
00001000
00010000
00001000
00000000
,
01000000
00010000
01000000
00010000
10000000
01000000
00100000
00000000
,
00002000
00000000
00013000
00000100
00000001
00000100
00010000
00001000
,
00100000
01000000
00100000
01000000
10000000
00010000
00100000
00000000
,
00002000
00000000
00013000
00000010
00000001
00000010
00010000
00000000
,
00000001
00000010
00000001
00000010
00000100
00001000
00000010
00000000
,
00020000
00000000
00031000
00100000
10000000
00100000
00001000
00010000
,
00000100
00000010
00000001
00001000
00000010
00000001
00000010
00001000
,
00000000
00100000
01000000
00100000
00001000
00010000
00000010
00000000
,
00000100
00000001
00000100
00000001
00010000
00001000
00010000
00000000
,
00001000
00100000
10000000
00100000
00001000
00010000
00000010
00000100
,
00000001
00001000
00000100
00000010
00000100
00000000
00000110
00000000
,
00000001
00000010
00001000
00000010
00000001
00000010
00000100
00000000
,
00010000
01000000
00100000
10000001
00010000
00000000
10010000
00000000
,
00100000
01000000
10000000
00100000
00010000
00100000
10000000
00000000
,
00100000
01000000
00001000
00010000
00000100
00000001
00000100
00010000
,
00000010
00000100
00000001
00010000
00000010
00000100
00000001
00001000
,
00001001
00000000
00000000
00010010
00000000
00000000
00011000
00000000
,
00000000
01001000
00000000
00000000
01100000
00000000
00000000
10100000
,
00000000
00000000
00100000
01000000
00100000
10000000
00100000
01000000
,
00100000
10000000
00001000
00100000
01000000
00100000
00001000
00000000
,
00011000
00000000
00000000
00010010
00000000
00000000
00000110
00000000
,
00000000
00000101
00000000
00000000
00001001
00000000
00000000
00000110
,
00000000
00000000
00000100
00000010
00000100
00000001
00000100
00000010
,
00000100
00000001
00010000
00000010
00000001
00000010
00010000
00000000
,
00011000
00000000
00000000
00101000
00000000
00000000
01100000
00000000
,
00000000
11000000
00000000
00000000
10010000
00000000
00000000
01100000
,
00000000
00000000
01000000
10000000
01000000
00100000
01000000
10000000
,
01000000
00100000
00001000
01000000
10000000
01000000
00001000
00000000
,
00011000
00000000
00000000
00010100
00000000
00000000
00000110
00000000
,
00000000
00000011
00000000
00000000
00001001
00000000
00000000
00000110
,
00000000
00000000
00000100
00000010
00000001
00000010
00000100
00000010
,
00000001
00010000
00000100
00000001
00000100
00010000
00001000
01000000
,
00100000
01000000
00100000
01000000
,
00100000
01000000
00100000
01000000
,
00010000
10000000
00010000
00100000
,
00001000
00010000
00001000
00010000
,
00000020
00000000
00000000
00000000
,
00000030
00000000
00000000
00000000
;

//---------------dance-double - ----------------
#NOTES:
     dance-double:
     :
     Hard:
     16:
     0.830054,1.003186,0.210295,0.054521,0.486794,746.000000,719.000000,27.000000,7.000000,0.000000,0.000000,0.830054,1.003186,0.210295,0.054521,0.486794,746.000000,719.000000,27.000000,7.000000,0.000000,0.000000:
// measure 0
10000000
01000000
00100000
00010000
,  // measure 1
10000000
01000000
00100000
00001000
,  // measure 2
00010000
00000010
00000100
00000001
,  // measure 3
00010000
00000000
00000010
00000000
00000100
00000001
00000010
00000100
,  // measure 4
00001000
00000001
00010000
00001000
00000000
00001000
01000000
00100000
,  // measure 5
00000000
00100000
10000000
01000000
00000000
01000000
00100000
00001000
,  // measure 6
00000000
00001000
00000010
00000100
00000001
00001000
00000010
00000100
,  // measure 7
00000010
00010000
00001000
00100000
00000000
00100000
01000000
10000000
,  // measure 8
00000000
10000000
00001000
00100000
00000000
00100000
00001000
00010000
,  // measure 9
00000000
00010000
00000100
00000010
00000000
00000010
00000001
00010000
,  // measure 10
00000000
00010000
00001000
00100000
01000000
00100000
00001000
00010000
,  // measure 11
00000010
00000000
00000000
00000000
00000010
00000000
00000000
00000000
00000010
00000100
00000010
00000000
00001000
00000001
00001000
00000000
,  // measure 12
00000010
00000100
00000010
00000000
00001000
00000001
00000100
00001000
,  // measure 13
00000001
00000010
00001000
00000001
00000000
00000010
00000100
00010000
,  // measure 14
00000000
00001000
10000000
01000000
00010000
10000000
00100000
00010000
,  // measure 15
00000000
01000000
00010000
00001000
00000000
00000100
00000010
00000001
,  // measure 16
00001000
00000001
00000100
00000010
00000000
00000010
00010000
00001000
,  // measure 17
00000000
00000000
00001000
00000000
00100000
00000000
01000000
00000000
10000000
00100000
10000000
00000000
00001000
10000000
00001000
00000000
,  // measure 18
10000000
00010000
01000000
10000000
00010000
00100000
10000000
00001000
,  // measure 19
00000000
00000000
00011000
00000000
00010010
00000010
00001000
00000001
,  // measure 20
00001001
00000000
00000100
00000010
00000100
00010000
00000100
00000001
,  // measure 21
00010000
00000010
00000001
00010000
00000000
00001000
01000000
00100000
,  // measure 22
10000000
00010000
01000000
10000000
00010000
00100000
10000000
00010000
,  // measure 23
00001000
00000010
00000001
00000010
00001000
00000001
00000100
00000010
,  // measure 24
00010000
00001000
00100000
01000000
00000000
01000000
10000000
00001000
,  // measure 25
00000000
00000000
00001000
00000000
00010000
00000000
00000100
00000000
00000010
00000001
00000010
00000000
00000001
00001000
00000001
00000000
,  // measure 26
00010000
00001000
00010000
00000000
00001000
00000000
01000000
00100000
01000000
00000000
00100000
00000000
10000000
01000000
10000000
00000000
,  // measure 27
00001000
00100000
10000000
00100000
00001000
00010000
00000010
00000000
,  // measure 28
00000110
00000000
00000000
00000100
00000001
00000000
00000000
00000001
00010000
00000000
00000000
00010000
00001000
00000000
00000000
00001000
,  // measure 29
00100000
00000000
00000000
00100000
01000000
00000000
00000000
01000000
10000000
00000000
00000000
10000000
00010000
00000000
00000000
00000000
,  // measure 30
00100000
00010000
00100000
00000000
00001000
00000000
00010000
00000010
00010000
00000000
00000001
00000000
00000010
00000100
00000010
00000000
,  // measure 31
00000001
00000000
00010000
00000100
00010000
00000000
00001000
00000000
00100000
00010000
00100000
00010000
10000000
00010000
10000000
00000000
,  // measure 32
10010000
00000000
00000000
10000000
00100000
00000000
00000000
00100000
01000000
00000000
00000000
01000000
00001000
00000000
00000000
00001000
,  // measure 33
00010000
00000000
00000000
00010000
00000100
00000000
00000000
00000100
00000010
00000000
00000000
00000010
00000001
00000000
00000000
00000000
,  // measure 34
00001000
00000010
00001000
00000000
00000100
00000000
00010000
00001000
00010000
00000000
00100000
00000000
01000000
00100000
01000000
00000000
,  // measure 35
10000000
00000000
00001000
00100000
00001000
00000000
00010000
00000000
00000100
00001000
00000100
00001000
00000010
00000100
00000010
00000000
,  // measure 36
00001000
00001000
00000001
00000010
00000010
00000100
00010000
00010000
,  // measure 37
00001000
01000000
01000000
00100000
10000000
10000000
00010000
00010000
,  // measure 38
00100000
00100000
00001000
00010000
00010000
00000100
00000010
00000010
,  // measure 39
00000001
00000100
00000100
00000001
00001000
00001000
00010000
00010000
,  // measure 40
01000000
01000000
00100000
10000000
10000000
00001000
00010000
00010000
,  // measure 41
00000100
00000010
00000010
00000001
00010000
00010000
00001000
01000000
,  // measure 42
00100000
00000000
10100000
00000000
10000000
01000000
00100000
00000000
01100000
00000000
00100000
00001000
,  // measure 43
00020000
00000000
00000000
00031000
00000000
00000000
00010010
00000000
00000000
00000010
00000000
00001000
,  // measure 44
00000001
00000000
00001000
00000001
00000000
00000000
00000110
00000000
00000000
00000110
00000000
00000000
,  // measure 45
00020000
00000000
00000000
00031000
00000000
00000000
01001000
00000000
00000000
01000000
00000000
00010000
,  // measure 46
10000000
00000000
00010000
10000000
00000000
00000000
11000000
00000000
00000000
11000000
00000000
00000000
,  // measure 47
01002000
00000000
00000000
00013000
00000000
00000000
00010010
00000000
00000000
00000010
00000000
00001000
,  // measure 48
00000001
00000000
00001000
00000001
00000000
00000000
00000101
00000000
00000000
00000101
00000000
00000000
,  // measure 49
00000020
00000000
00000000
00000130
00000000
00000000
00010010
00000000
00000000
00010000
00000000
00001000
,  // measure 50
00010000
00000000
00001000
00010000
00000000
00000000
01100000
00000000
00000000
01100000
00000000
00000000
,  // measure 51
20010000
00000000
00010000
00000000
,  // measure 52
00010000
00000000
30010000
00000000
,  // measure 53
00002000
00000000
00010000
00000000
,  // measure 54
00013000
00001000
00010000
00001000
00010000
00001000
00011000
00000000
,  // measure 55
00000010
00000100
00000001
00000000
00001000
00000000
00000100
00000000
00001000
00000000
00000001
00000000
00000010
00000000
00000100
00000000
,  // measure 56
00010000
00000000
00001000
00000000
00100000
00000000
01000000
00000000
10000000
00000000
00100000
01000000
00100000
01000000
00100000
00000000
,  // measure 57
10000000
00100000
01000000
00000000
00010000
00000000
01000000
00000000
00010000
00000000
10000000
00000000
01000000
00000000
00100000
00000000
,  // measure 58
00001000
00000000
00010000
00000000
00000100
00000000
00000010
00000000
00000001
00000100
00000001
00000100
00000001
00000000
00000000
00000000
,  // measure 59
00001000
00000010
00000100
00000010
00001000
00000000
00000001
00000000
00000010
00000000
00000100
00000000
00010000
00000000
00001000
00000000
,  // measure 60
10000000
00100000
10000000
00000000
00001000
00010000
00001000
00000000
01000000
00100000
01000000
00100000
01000000
00100000
01000000
00000000
,  // measure 61
00001000
00000000
01000000
00000000
10000000
00000000
01000000
00000000
00001000
00000000
00010000
00001000
00010000
00000000
00000100
00000000
,  // measure 62
00000001
00000000
00000100
00000000
00010000
00000000
00001000
00000000
00100000
00000000
01000000
10000000
01000000
00000000
00000000
00000000
,  // measure 63
10000000
01000000
00100000
01000000
10000000
00000000
00100000
00000000
01000000
00000000
00100000
00000000
10000000
00000000
01000000
00000000
,  // measure 64
00100000
00000000
00001000
00000000
00010000
00000000
00000100
00000000
00000010
00000000
00000001
00001000
00000001
00001000
00000001
00000000
,  // measure 65
00000010
00000100
00001000
00000100
00000010
00000000
00000001
00000000
00000100
00000000
00010001
00000000
00001000
01000000
00001000
01000000
,  // measure 66
00001000
00000000
00100000
00000000
01000000
00000000
10000000
00000000
00001000
01000000
00001000
00000000
01000000
00100000
01000000
00000000
,  // measure 67
00001000
10000000
01000000
10000000
00001000
00000000
00100000
00000000
10000000
00000000
00100000
00000000
00001000
00000000
00010000
00000000
,  // measure 68
00000010
00000100
00000010
00000000
00001000
00000001
00001000
00000000
00000100
00000010
00000100
00000010
00000001
00001000
00000001
00000000
,  // measure 69
00001000
00000100
00000001
00001000
00000010
00000001
00001000
00010000
,  // measure 70
01000000
00100000
10000000
01000000
00010000
10000000
00100000
00010000
,  // measure 71
10000000
00010000
10000000
00000000
00001000
00000000
00010000
00001000
00010000
00000000
00000010
00000000
00000100
00000010
00000100
00000000
,  // measure 72
00000001
00000000
00010000
00001000
00010000
00000000
00001000
00000000
00100000
01000000
00100000
00000000
00010000
00000000
10010000
00000000
,  // measure 73
00000000
10000000
01000000
00100000
00010000
10000000
01000000
00001000
,  // measure 74
00000100
00000000
00000010
00000000
00000001
00000000
00000100
00000000
00001000
00000000
00000100
00000000
00000001
00000010
00000100
00001000
,  // measure 75
00000001
00000010
00000001
00000000
00010000
00000000
00001000
01000000
00001000
00000000
10000000
00000000
01000000
00100000
01000000
00000000
,  // measure 76
10000000
00000000
00001000
00100000
00001000
00000000
00010000
00000000
00000010
00000100
00000010
00000100
00000010
00000000
00000110
00000000
,  // measure 77
00000000
00000001
00000100
00001000
00000001
00000010
00001000
00000001
,  // measure 78
00010000
00000100
00010000
00000100
00001000
00010000
00001000
00010000
01000000
00100000
01000000
00100000
10000000
01000000
00100000
00010000
,  // measure 79
10000000
01000000
10000000
00000000
00001000
00000000
00010000
00000010
00010000
00000000
00000001
00000000
00000010
00000100
00000010
00000000
,  // measure 80
00000001
00000000
00010000
00000100
00010000
00000000
00001000
00000000
00100000
01000000
00100000
00000000
00010000
00000000
10010000
00000000
,  // measure 81
00000000
10000000
01000000
00010000
10000000
00100000
00010000
10000000
,  // measure 82
00100000
00000000
01000000
00000000
00001000
00000000
00010000
00000000
00000010
00000000
00000100
00000000
00000001
00000100
00000010
00001000
,  // measure 83
00000001
00000010
00000001
00000000
00010000
00000000
00001000
00010000
00001000
00000000
10000000
00000000
01000000
00100000
01000000
00000000
,  // measure 84
10000000
00000000
00001000
00100000
00001000
00000000
00010000
00000000
00000010
00000100
00000010
00000100
00000010
00000000
00000110
00000000
,  // measure 85
00000000
00001000
00000100
00000001
00001000
00000010
00000001
00010000
,  // measure 86
00001000
01000000
00001000
01000000
00100000
01000000
00100000
01000000
00010000
10000000
00010000
10000000
01000000
00100000
00001000
00010000
,  // measure 87
00001000
00010000
00000100
00000001
,  // measure 88
00000100
00010000
00001000
00100000
,  // measure 89
10000000
00100000
00001000
00010000
,  // measure 90
00000100
00000000
00000010
00000000
00000001
00000000
00001000
00000001
,  // measure 91
00002000
00000000
00000000
00000000
,  // measure 92
00003000
00000000
00000000
00000000
;

//---------------dance-single - ----------------
#NOTES:
     dance-single:
     :
     Easy:
     7:
     0.333802,0.496141,0.140197,0.077887,0.000000,300.000000,282.000000,18.000000,10.000000,0.000000,0.000000,0.333802,0.496141,0.140197,0.077887,0.000000,300.000000,282.000000,18.000000,10.000000,0.000000,0.000000:
0000
0000
0000
0000
,
0000
0000
0000
0000
,
0000
0000
0000
0000
,
0000
0000
0000
0000
,
0000
1000
0000
0100
,
0000
0010
0000
0100
,
0000
0010
0001
0100
,
0000
0100
0010
1000
,
0000
0001
0000
0010
,
0000
0100
0000
0010
,
0000
0100
1000
0010
,
1001
0110
1001
0110
,
1001
0000
1000
0000
0000
0001
0010
0000
,
0100
0000
0010
0000
0000
0100
1000
0000
,
0010
0000
0100
0000
0000
0001
1000
0000
,
0010
0000
1000
0000
0000
0001
0010
0000
,
0100
0000
0010
0000
0000
0100
1000
0000
,
0001
0000
0100
0000
0000
0010
0100
0000
,
0001
0000
1000
0000
0000
0010
1000
0000
,
0100
0000
0010
0000
0000
0010
0100
0000
,
0010
0000
0001
0000
0000
0100
0001
0000
,
0100
0000
0010
0000
0000
1000
0001
0000
,
0010
0000
0100
0000
0000
1000
0010
0000
,
0100
0000
0001
0000
0000
1000
0100
0000
,
1000
0000
0010
0000
0000
0100
0001
0000
,
1000
0000
0100
0000
0000
0010
0001
0000
,
0100
0000
0010
0000
0000
0100
0010
0000
,
1000
0000
0100
0000
0000
0010
0001
0000
,
1000
0010
0001
0010
,
1000
0010
0001
0010
,
1000
0010
1000
0010
,
0100
0001
0100
0001
,
0100
1000
0100
0001
,
0100
1000
0100
0001
,
1000
0100
1000
0010
,
0100
0001
0010
0100
,
1000
0000
0000
0100
0000
0000
0100
0000
,
0000
1000
0000
0000
0001
0000
1000
0000
,
0010
0000
0000
0010
0000
0000
0100
0000
,
0000
0001
0000
0000
0100
0000
0010
0000
,
1000
0000
0000
1000
0000
0000
0100
0000
,
0000
0100
0000
0000
0010
0000
0100
0000
,
0010
0001
0010
0100
,
2000
0000
0100
0000
,
0100
0000
0100
0000
,
3200
0000
0010
0000
,
0320
0000
0032
0000
,
2003
0000
0001
0000
,
0000
0000
3001
0100
,
0020
0000
1000
0000
,
0230
0000
0302
0000
,
0020
0000
0000
0000
,
0000
0000
0000
0000
,
0033
0000
0000
0000
,
0000
0000
0000
0002
,
1003
0001
0100
0001
,
1000
0010
1000
0001
,
1000
0001
0100
0001
,
1000
0001
0010
0100
,
1000
0001
0100
0001
,
1000
0010
1000
0100
,
1000
0010
0001
0010
,
1000
0100
0001
0100
,
1000
0001
0010
0001
,
1000
0010
1000
0100
,
1000
0001
0010
0001
,
1000
0010
1000
0100
,
0010
0001
0010
0001
,
1000
0010
1000
0010
,
0100
0001
0010
0001
,
0100
0010
1000
0100
,
1001
0000
0000
1000
0000
0000
0011
0000
,
0000
0100
0000
0000
1010
0000
0000
0001
,
0000
1000
0100
1000
,
0001
0010
0001
0010
,
0110
0000
0000
0100
0000
0000
1100
0000
,
0000
1000
0000
0000
1010
0000
0000
0010
,
0000
0100
0001
1000
,
0001
0010
0100
1000
,
1001
0000
0000
0100
0000
0000
1001
0000
,
0000
0010
0000
0000
1001
0000
0000
0100
,
0000
0001
1000
0001
,
0100
0010
1000
0001
,
1001
0000
0000
0010
0000
0000
1001
0000
,
0000
0100
0000
0000
1001
0000
0000
0010
,
0000
1000
0001
0100
,
0001
0010
0100
1000
,
0001
0000
0100
0000
,
0010
0000
1000
0000
,
0001
0000
1000
0000
,
0010
0000
0100
0000
,
1001
0000
0000
0000
;

//---------------dance-single - ----------------
#NOTES:
     dance-single:
     :
     Challenge:
     18:
     0.931307,1.182326,0.109042,0.085676,0.981377,837.000000,823.000000,14.000000,11.000000,0.000000,0.000000,0.931307,1.182326,0.109042,0.085676,0.981377,837.000000,823.000000,14.000000,11.000000,0.000000,0.000000:
0000
0000
0000
0000
,
0000
0000
0000
0000
,
0000
0000
0000
0000
,
0000
0000
0000
0000
,
0001
1000
0100
1000
0000
0100
0010
0100
,
0000
1000
0100
1000
0000
0100
0010
0100
,
0000
0100
1000
0100
0010
0001
0100
0001
,
0000
1000
0001
0010
0000
0100
0010
0001
,
0000
0001
0100
0001
0000
0100
0010
0100
,
0000
0001
0100
0001
0000
0100
0010
0100
,
0000
0001
0100
0010
1000
0001
0010
0100
,
1000
0000
0000
0001
0100
0000
0000
0010
1000
0010
0100
0001
0010
0100
1000
0002
,
2000
0000
0000
0000
3003
1000
0001
1000
,
0100
1000
0001
0100
0000
0100
0010
1000
,
0001
0100
0001
0010
0100
0010
0001
1000
,
0000
0100
0010
0001
0000
0100
0010
0100
,
1000
0100
0001
0100
0000
0100
0010
0001
,
1000
0000
0020
0000
0000
0000
1030
0000
0001
1000
0001
1000
0001
1000
0001
0000
,
0010
0001
1000
0010
0001
0010
0100
0001
,
1000
0000
0000
0000
0000
0000
0200
0000
0000
0000
0000
0000
0310
0000
0000
1000
0001
1000
0001
0000
0000
1000
0000
0000
,
0001
1000
0100
0010
0001
1000
0100
0010
,
0100
1000
0001
1000
0001
0010
0100
1000
,
0001
0100
0001
0100
0001
0000
1000
0010
1000
0010
1000
0000
0001
1000
0001
1000
,
0001
0000
1000
0010
1000
0010
1000
0000
0001
0010
0001
0010
0100
1000
0010
0100
,
0001
1000
0100
1000
0001
0100
0010
1000
,
0001
0000
0200
0000
0000
0000
0310
0000
1000
0010
0100
0001
1000
0100
1000
0010
,
1000
0001
1000
0001
1000
0000
0001
1000
0001
1000
0001
0000
1000
0001
1000
0001
,
1000
0000
0001
0100
0010
0100
0001
1000
0100
0010
0100
1000
0010
0100
0001
1000
,
0001
0100
0001
0000
0100
0010
0100
0000
0010
1000
0010
0000
1000
0100
1000
0000
,
0100
0010
0100
0000
0010
0001
0010
0000
0001
1000
0001
0000
0100
0010
0100
0000
,
0001
0100
0001
0100
0001
0000
1000
0010
1000
0010
1000
0000
0001
1000
0001
1000
,
0001
0000
1000
0010
1000
0000
0100
0000
0010
0001
0010
0100
1000
0010
0100
0001
,
1000
0010
1000
0000
0010
0100
0010
0000
0100
0001
0100
0000
0001
0010
0001
0000
,
0010
0100
0010
0000
0100
1000
0100
0000
1000
0001
1000
0000
0010
0100
0010
0000
,
1000
0010
1000
0010
1000
0000
0001
0100
0001
0100
0001
0000
1000
0001
1000
0001
,
1000
0000
0001
0100
0001
0100
0010
0100
0010
0100
0010
1000
0001
0100
0010
1000
,
0001
0000
1000
0010
0100
0000
0010
0000
0100
0001
0010
0000
0100
0000
1000
0010
,
0100
0000
0010
0000
0100
0001
1000
0000
0010
0100
0001
0010
0100
1000
0100
1000
,
0010
0000
0100
0001
1000
0000
0100
0000
0010
0001
0100
0000
0010
0000
1000
0100
,
0010
0000
0100
0000
0010
0001
0100
0000
0010
0000
0010
0000
1000
0000
0001
0000
,
1000
0000
0001
1000
0100
0000
0010
0000
0001
0100
0010
0000
0100
0000
0001
1000
,
0100
0000
0010
0000
0001
0100
0010
0000
0100
0000
0010
0000
1000
0000
0001
0000
,
0010
0000
0011
0000
0001
0100
0010
0000
1010
0000
1000
0001
,
1000
0000
0000
0010
0000
0000
0100
0000
0000
0001
0000
0010
,
0100
0000
0100
1000
0000
0000
1001
0000
0000
0000
0000
0001
,
1000
0000
0000
0010
0000
0000
0100
0000
0000
0001
0000
0100
,
0001
0000
0001
0010
0000
0000
0110
0000
0000
1001
0000
0000
,
1010
0000
0000
1000
0000
0000
0100
0000
0000
0010
0000
0001
,
0010
0000
0100
1000
0000
0000
0002
0000
0000
0023
0000
0000
,
0130
0000
0100
0000
0100
1000
0100
0000
0100
0000
0100
1000
,
0100
0000
0100
0000
0100
1000
0100
0010
0001
0100
0010
2000
,
0002
0000
0000
0000
,
0000
0000
0000
0000
,
3000
0000
0000
0000
,
0003
0000
0000
0000
0000
0000
1000
0100
,
0010
0001
0010
0000
0001
0000
0000
0000
1010
0000
0000
0000
1000
0001
0100
0001
,
1000
0000
0000
0000
1001
0000
0000
0000
0001
0000
1000
0100
1000
0010
0100
0000
,
0001
1000
0001
0000
1000
0000
0000
0000
0011
0000
0000
0000
0010
0001
0010
0001
,
1000
0000
0000
0000
0101
0000
0000
0000
1000
0010
0100
0001
0010
0001
1000
0100
,
1000
0010
1000
0001
1000
0000
0000
0000
0101
0000
0000
0000
0001
0010
0001
0010
,
0001
0000
0000
0000
1100
0000
0000
0000
1000
0001
1000
0000
0001
1000
0001
0000
,
0100
0000
0000
0001
0000
0000
0010
0000
0000
1000
0000
0000
0010
0000
0000
0001
1000
0000
0001
0000
0000
1000
0000
0000
,
0010
0000
0000
0001
0000
0000
0010
0000
0000
1000
0000
0000
0001
0000
0000
0100
0010
0000
0100
0000
0000
0010
0000
0000
,
1000
0010
0100
0001
1000
0001
0010
0100
1000
0000
0000
0000
0001
0100
0010
0100
,
0001
1000
0100
1000
0001
0000
0000
0000
1000
0000
0001
0010
0001
1000
0001
0000
,
1000
0100
0010
0001
0100
0010
1000
0100
1000
0000
0000
0000
0100
0010
0100
1000
,
0001
0000
0000
0000
0101
0000
0000
0000
0100
0010
1000
0001
0010
0100
1000
0001
,
1000
0010
0100
0001
0010
0100
0010
0001
1000
0000
0000
0000
0001
0100
0001
0010
,
0001
0000
0000
0000
1001
0000
0000
0000
1000
0100
0010
0001
1000
0100
0010
0001
,
1000
0000
0000
0100
0000
0000
1000
0000
0000
0010
0000
0000
1000
0000
0000
0100
1000
0000
0001
0000
0000
1000
0000
0000
,
0100
0010
0001
0100
0010
1000
0001
0010
,
0001
0100
0010
1000
0001
0010
0100
0010
0001
0100
0010
1000
0001
0010
0001
1000
,
0100
0010
0100
0010
0001
0100
0001
1000
0100
0010
0001
0010
0001
1000
0010
0000
,
0000
0100
0001
0100
1000
0100
0000
0010
,
0001
0000
0010
0000
0100
0000
0010
0000
0001
0000
1000
0000
0001
1000
0001
1000
,
0100
0010
0001
0100
0010
1000
0001
0010
0001
0100
0010
1000
0100
1000
0010
0100
,
0001
0010
0100
1000
0001
0010
0100
0010
0001
0100
0010
1000
0001
0010
0001
0000
,
0000
1000
0010
0001
0010
1000
0001
0100
,
0010
1000
0010
0100
0001
0010
0001
0100
0001
0010
0100
1000
,
0001
0010
0001
1000
0001
0100
0001
1000
0001
0010
0001
1000
0001
0100
0001
1000
,
0001
0010
0001
1000
0001
0100
0001
1000
0001
0010
0001
1000
0001
0100
0001
0000
,
0000
1000
0100
1000
0010
0100
0000
0010
,
0100
0001
0010
0001
1000
0100
0010
0100
,
1000
0100
1000
0001
1000
0010
1000
0001
1000
0100
1000
0001
1000
0010
1000
0001
,
1000
0100
1000
0001
1000
0010
1000
0001
1000
0100
1000
0001
1000
0010
1000
0000
,
0000
0010
0100
0001
0010
0001
1000
0001
,
0010
0100
1000
0010
0001
0010
1000
0100
0001
0100
1000
0010
0100
0001
0010
0001
,
1000
0100
1000
0010
0100
0001
0010
0001
,
1000
0010
1000
0100
1000
0001
0100
0001
,
0010
0100
1000
0100
0010
0100
1000
0001
,
0010
0100
0010
0001
1000
0100
0010
0100
,
2000
0002
0000
0000
0000
0000
0000
0000
0000
0000
0000
0000
0000
0000
0000
0000
0000
0000
0000
0000
0000
0000
0000
0000
0000
0000
0000
0000
0000
0000
0000
0000
0000
0000
3000
0000
0000
0000
0000
0000
0000
0000
0000
0000
0000
0000
0000
0000
,
0003
0000
0000
0000
;

//---------------dance-double - ----------------
#NOTES:
     dance-double:
     :
     Easy:
     8:
     0.350492,0.497504,0.272605,0.140197,0.000000,315.000000,280.000000,35.000000,18.000000,0.000000,0.000000,0.350492,0.497504,0.272605,0.140197,0.000000,315.000000,280.000000,35.000000,18.000000,0.000000,0.000000:
00000000
00000000
00000000
00000000
,
00000000
00000000
00000000
00000000
,
00000000
00000000
00000000
00000000
,
00000000
00000000
00000000
00000000
,
10000000
00000000
00100000
00000000
,
01000000
00000000
00010000
00000000
,
00100000
00001000
00010000
00000000
,
00000100
00000000
00001000
00000000
,
00000010
00000000
00000100
00000000
,
00000001
00000000
00001000
00000000
,
00000100
00010000
00001000
01000000
,
01010000
10100000
11000000
00110000
,
01002000
00000000
00000000
01003000
,
00010000
00100000
00001000
00010000
,
00001000
00000010
00000001
00001000
,
00001000
00000010
00000100
00000001
,
00001000
00000010
00001000
00000100
,
00000010
00000001
00000200
00000000
,
00000310
00001000
00001000
00000100
,
00010000
00000000
00001000
00000000
01000000
00000000
00100000
01000000
,
00010000
10000000
00010000
00100000
,
00001000
00010000
00000100
00000010
,
00000001
00000000
00000000
00000100
00000000
00000000
00000010
00000000
,
00000000
00010000
00000000
00000000
00001000
00000000
00100000
00000000
,
00010000
01000000
00010000
00100000
,
00001000
00200000
00000000
00301000
00020000
00000000
00030200
00000000
,
00001300
00000010
00000100
00000001
,
00000010
00000100
00001000
00000001
,
00001000
00000100
00010000
00001000
,
00010000
00000100
00001000
00000100
,
00010000
00000000
00000000
00100000
00000000
00000000
10000000
00000000
,
00000000
00100000
00000000
00000000
01000000
00000000
00010000
00000000
,
00100000
00001000
00100000
00010000
,
00100000
00001000
00010000
00000100
,
00001000
00000000
00000000
00000010
00000000
00000000
00000100
00000000
,
00000010
00001000
00000010
00000100
,
00001001
00000000
00000000
00001000
00000000
00000000
00001100
00000000
,
00000000
00001000
00000000
00000000
00000100
00000000
00010000
00000000
,
00011000
00000000
00000000
00010000
00000000
00000000
00110000
00000000
,
00000000
00100000
00000000
00000000
01000000
00000000
10000000
00000000
,
10100000
00000000
00000000
00100000
00000000
00000000
01100000
00000000
,
00000000
01000000
00000000
00000000
00010000
00000000
00100000
00000000
,
00001000
00010000
00000100
00000010
,
00000200
00000000
00000000
00000000
,
00000000
00000000
00000000
00000000
,
00002300
00000000
00000000
00000000
,
00003020
00000000
00000230
00000000
,
00000302
00000000
00000000
00000000
,
00000000
00000000
00002003
00003020
,
00000230
00000000
00000000
00000000
,
00000320
00000000
00020030
00000000
,
00002000
00000000
00000000
00000000
,
00000000
00000000
00000000
00000000
,
00033000
00000000
00000000
00000000
,
00000000
00000000
00000000
00200000
,
00310000
01000000
00100000
10000000
,
01000000
10000000
00010000
00100000
,
00001000
00000010
00000001
00000100
,
00000010
00001000
00000100
00010000
,
00001000
01000000
10000000
01000000
,
00100000
10000000
00010000
00100000
,
00001000
00000000
00100000
00000000
00001000
00000000
00010000
00001000
,
00010000
00000000
00000100
00000000
00010000
00000000
00001000
00010000
,
00001000
01000000
00100000
01000000
,
00010000
00100000
00001000
00010000
,
00000100
00001000
00000010
00000100
,
00000001
00000010
00000100
00001000
,
00000100
00010000
00000010
00000100
,
00000001
00000010
00000001
00001000
,
00000100
00000000
00010000
00000000
00001000
00010000
00001000
00000000
,
00010000
00000000
00100000
00000000
01000000
00100000
01000000
00000000
,
10010000
00000000
00000000
01010000
00000000
00000000
00110000
00000000
,
00000000
00101000
00000000
00000000
00011000
00000000
00000000
00001100
,
00000000
00001000
00000010
00000000
,
00001000
00000010
00000100
00000001
,
00000011
00000000
00000000
00000110
00000000
00000000
00001100
00000000
,
00000000
00010100
00000000
00000000
00011000
00000000
00000000
00110000
,
00000000
00010000
01000000
00100000
,
10000000
01000000
00100000
00010000
,
00011000
00000000
00000000
00001100
00000000
00000000
00011000
00000000
,
00000000
01010000
00000000
00000000
00011000
00000000
00000000
00001010
,
00000000
00001000
00000001
00000000
,
00000001
00001000
00000100
00010000
,
00011000
00000000
00000000
00110000
00000000
00000000
00011000
00000000
,
00000000
00001010
00000000
00000000
00011000
00000000
00000000
01010000
,
00000000
00010000
01000000
00100000
,
10000000
00010000
00100000
00010000
01000000
00100000
10000000
00010000
,
00100000
00000000
00001000
00000000
,
01000000
00000000
00100000
00000000
,
10000000
01000000
00100000
00010000
,
00100000
00001000
00010000
00000100
,
00000002
00000003
00000000
00000000
;

//---------------dance-double - ----------------
#NOTES:
     dance-double:
     :
     Challenge:
     17:
     0.871223,1.146498,0.288182,0.070098,0.747716,783.000000,746.000000,37.000000,9.000000,0.000000,0.000000,0.871223,1.146498,0.288182,0.070098,0.747716,783.000000,746.000000,37.000000,9.000000,0.000000,0.000000:
// measure 0
00000000
00000000
00000000
00000000
,  // measure 1
00000000
00000000
00000000
00000000
,  // measure 2
00000000
00000000
00000000
00000000
,  // measure 3
00000000
00000000
00000000
00000000
,  // measure 4
10000000
00010000
01000000
00010000
00000000
01000000
00100000
01000000
,  // measure 5
00000000
00100000
10000000
00100000
00000000
10000000
01000000
10000000
,  // measure 6
00000000
01000000
00100000
00010000
00000100
00001000
00000010
00000001
,  // measure 7
00000000
00000100
00000010
00001000
00000000
00001000
00000001
00000010
,  // measure 8
00000000
00000100
00001000
00000100
00000000
00000010
00000100
00000010
,  // measure 9
00000000
00000001
00000010
00000001
00000000
00000100
00000001
00000100
,  // measure 10
00000000
00000001
00000100
00000010
00001000
00000100
00010000
00001000
,  // measure 11
00011000
00000000
00000000
00000000
01010000
00000000
00000000
00000000
01000000
00100000
10000000
00010000
00100000
00001000
00010000
00000100
,  // measure 12
00002000
00000000
00000000
00000000
00003000
00000100
00000001
00000100
,  // measure 13
00001000
00000010
00010000
00001000
00000000
00100000
01000000
10000000
,  // measure 14
00000000
10000000
00100000
01000000
00010000
00100000
00010000
10000000
,  // measure 15
00000000
01000000
00100000
00010000
00000000
00010000
00001000
00000100
,  // measure 16
00000010
00000001
00000100
00000001
00001000
00000100
00000010
00000001
,  // measure 17
00000000
00000000
00000020
00000000
00000000
00000000
00000130
00000000
00000010
00000001
00000100
00000010
00001000
00000100
00010000
00000100
,  // measure 18
00001000
00000100
00000010
00000001
00000100
00000010
00001000
00000001
,  // measure 19
00001000
00000000
00000000
00000000
00000000
00000000
00011000
00000000
00000000
00000000
00000000
00000000
00001000
00000000
00000000
01000000
00010000
00000000
01000000
00000000
00000000
00100000
00000000
00000000
,  // measure 20
10000000
01000000
00100000
00010000
10000000
01000000
10000000
00100000
,  // measure 21
01000000
00010000
00100000
00010000
10000000
00100000
01000000
00010000
,  // measure 22
00100000
00001000
00010000
00000100
00001000
00000000
00001000
00000100
00010000
00001000
00100000
00000000
00100000
00001000
00010000
00000100
,  // measure 23
00001000
00000000
00001000
00000010
00000100
00000000
00000001
00000000
00001000
00000100
00010000
00001000
01000000
00100000
10000000
01000000
,  // measure 24
00100000
01000000
10000000
00100000
01000000
00010000
00100000
00001000
,  // measure 25
00010000
00000000
00000020
00000000
00000000
00000000
00000130
00000000
00000001
00000100
00000010
00001000
00000100
00010000
00001000
00100000
,  // measure 26
00010000
01000000
00010000
01000000
00100000
00000000
01000000
00100000
01000000
00100000
00010000
00000000
00100000
00001000
00100000
00001000
,  // measure 27
00010000
00000000
00010000
00001000
00000100
00000001
00000100
00000010
00000001
00000100
00000010
00001000
00000010
00000100
00000010
00001000
,  // measure 28
00000100
00000000
00000000
00000010
00000001
00000000
00000000
00000001
00000100
00000000
00000000
00000100
00000010
00000000
00000000
00000010
,  // measure 29
00001000
00000000
00000000
00000100
00010000
00000000
00000000
00010000
00001000
00000000
00000000
00001000
01000000
00000000
00000000
01000000
,  // measure 30
00100000
00000000
10000000
00100000
10000000
00000000
00010000
00000000
00100000
00010000
00100000
00000000
00010000
00000000
01000000
00010000
,  // measure 31
01000000
00000000
00100000
01000000
00100000
00000000
01000000
00000000
00100000
10000000
00010000
00100000
00001000
00010000
00000100
00001000
,  // measure 32
00000010
00000000
00000000
00001000
00000010
00000000
00000000
00000010
00010000
00000000
00000000
00010000
00001000
00000000
00000000
00001000
,  // measure 33
01000000
00000000
00000000
01000000
00100000
00000000
00000000
00100000
10000000
00000000
00000000
10000000
01000000
00000000
00000000
01000000
,  // measure 34
00100000
00001000
00010000
00000100
00001000
00000000
00001000
00000100
00000010
00000100
00001000
00000000
00000100
00000010
00000001
00000100
,  // measure 35
00000010
00000000
00000010
00001000
00000100
00010000
00001000
00100000
00001000
00010000
00000100
00000010
00000001
00000100
00000010
00001000
,  // measure 36
00000100
00000100
00010000
00001000
00001000
01000000
00001000
00001000
,  // measure 37
00010000
00000100
00000100
00010000
00000100
00010000
00001000
01000000
,  // measure 38
00100000
01000000
01000000
00001000
00010000
00010000
00001000
00100000
,  // measure 39
00100000
00001000
01000000
01000000
00001000
00010000
00001000
00000100
,  // measure 40
00000001
00000100
00000100
00000010
00000001
00000001
00000100
00000010
,  // measure 41
00000010
00001000
00000100
00000100
00001000
00000100
00010000
00001000
,  // measure 42
00100000
00000000
11000000
00000000
10000000
00010000
00100000
00000000
00011000
00000000
00001000
00000100
,  // measure 43
00000002
00000000
00000000
00000100
00000000
00000000
00000103
00000000
00000000
00000010
00000000
00000001
,  // measure 44
00000010
00000000
00000100
00001000
00000000
00000000
00011000
00000000
00000000
00001000
00000000
00000000
,  // measure 45
01010000
00000000
00000000
00010000
00000000
00000000
00010000
00000000
00000000
10000000
00000000
01000000
,  // measure 46
00100000
00000000
00100000
00010000
00000000
00000000
00011000
00000000
00000000
00001100
00000000
00000000
,  // measure 47
00000120
00000000
00000000
00000100
00000000
00000000
00000130
00000000
00000000
00000010
00000000
00000001
,  // measure 48
00000010
00000000
00000010
00000100
00000000
00000000
00001100
00000000
00000000
00010100
00000000
00000000
,  // measure 49
00101000
00000000
00100000
00000000
00010000
01000000
00100000
00000000
10100000
00000000
10000000
01000000
,  // measure 50
00100000
00000000
00110000
00000000
00100000
00001000
00010000
00001000
00000010
00000001
00000010
00001000
,  // measure 51
00000002
00000000
00000000
00000000
,  // measure 52
00000103
00000000
00000000
00000000
,  // measure 53
00010000
00000000
00000000
00000000
,  // measure 54
10000000
00000000
00000000
00020000
,  // measure 55
00130000
00010000
01000000
00000000
00100000
00000000
10000000
00000000
00010000
00000000
00000000
00000000
00100000
00001000
00010000
00000000
,  // measure 56
00000100
00000000
00000000
00000000
00001100
00000000
00000000
00000000
00001000
00000000
00000001
00000100
00000010
00000100
00000001
00000000
,  // measure 57
00001000
00000100
00001000
00000000
00000100
00000000
00000000
00000000
00010100
00000000
00000000
00000000
00000100
00010000
00000100
00010000
,  // measure 58
00001000
00000000
00000000
00000000
00101000
00000000
00000000
00000000
00100000
00010000
01000000
00100000
01000000
00000000
00100000
00000000
,  // measure 59
10000000
00010000
00100000
00000000
01000000
00000000
00000000
00000000
11000000
00000000
00000000
00000000
01000000
00100000
00010000
10000000
,  // measure 60
00010000
00000000
01010000
00000000
01000000
00001000
00010000
00000000
,  // measure 61
00010000
00000000
00001000
00000000
00000010
00000000
00000001
00000000
00000010
00000000
00001000
00000010
00010000
00000000
00001000
00000000
,  // measure 62
00010000
00000000
10000000
00000000
00100000
00000000
00010000
00000000
01000000
00000000
10000000
01000000
00100000
00000000
10000000
00000000
,  // measure 63
00010000
01000000
00010000
00100000
01000000
10000000
00010000
01000000
00010000
00000000
00000000
00000000
10000000
00010000
01000000
00010000
,  // measure 64
00100000
00000000
00000000
00000000
00110000
00000000
00000000
00000000
01000000
00000000
00010000
00100000
00001000
00010000
00000100
00000000
,  // measure 65
00001000
00000010
00000100
00000001
00000010
00000000
00000000
00000000
00000110
00000000
00000000
00000000
00000001
00001000
00000001
00000100
,  // measure 66
00000010
00000000
00000000
00000000
00001010
00000000
00000000
00000000
00001000
00000010
00010000
00001000
00100000
00010000
01000000
00010000
,  // measure 67
10000000
00100000
01000000
00010000
00100000
00000000
00000000
00000000
11000000
00000000
00000000
00000000
10000000
01000000
10000000
00010000
,  // measure 68
01000000
00000000
00000000
00000000
01010000
00000000
00000000
00000000
01000000
00010000
01000000
00000000
00010000
00100000
00010000
00000000
,  // measure 69
00100000
00000000
00001000
00000000
00000010
00000000
00000001
00000000
00000100
00000000
00001000
00000100
00000001
00000000
00000100
00000000
,  // measure 70
00001000
01000000
10000000
01000000
00010000
00100000
01000000
10000000
,  // measure 71
10010000
00000000
10000000
00010000
01000000
00000000
01010000
00000000
00010000
00100000
00001000
00000000
00101000
00000000
00001000
00010000
,  // measure 72
00000100
00000000
00001100
00000000
00001000
00000100
00000010
00000000
00000011
00000000
00000001
00000100
00000010
00000000
00002010
00000000
,  // measure 73
00000000
00003100
00010000
00001000
01000000
00010000
00000000
01000000
,  // measure 74
00010000
00100000
10000000
00100000
01000000
10000000
00100000
01000000
,  // measure 75
01010000
00000000
00010000
00100000
00001000
00000000
00101000
00000000
00100000
00001000
00010000
00000000
00011000
00000000
00010000
00000100
,  // measure 76
00001000
00000000
00001100
00000000
00001000
00000010
00000100
00000000
00000101
00000000
00000010
00001000
00000100
00000000
00001100
00000000
,  // measure 77
00000000
00001000
00000010
00000100
00000001
00000010
00000100
00001000
,  // measure 78
00000100
00010000
00001000
01000000
00001000
00100000
00001000
00010000
00000100
00001000
00100000
00001000
,  // measure 79
01000000
00100000
10000000
00010000
00100000
01000000
10000000
00100000
01000000
00010000
00100000
00010000
01000000
00100000
10000000
01000000
,  // measure 80
00100000
01000000
10000000
00100000
01000000
00010000
10000000
01000000
00100000
01000000
10000000
00010000
10000000
00100000
01000000
00000000
,  // measure 81
00000000
01000000
00010000
00100000
00001000
00000100
00000000
00001000
,  // measure 82
00000100
00000001
00000100
00001000
00000010
00000100
00000001
00001000
,  // measure 83
00000100
00000010
00000001
00000100
00000010
00001000
00000100
00001000
00000001
00001000
00000010
00000100
00000001
00000010
00000100
00000010
,  // measure 84
00000001
00000100
00000010
00001000
00000100
00000010
00000001
00001000
00000010
00001000
00000100
00000010
00000001
00000100
00000001
00000000
,  // measure 85
00000000
00000100
00000010
00001000
00000100
00010000
00001000
00010000
,  // measure 86
00000100
00001000
00000010
00010000
00001000
01000000
00100000
10000000
00010000
00100000
00001000
00010000
00000010
00000100
00000001
00000010
,  // measure 87
00000100
00001000
00000100
00010000
00000100
00001000
00000100
00010000
,  // measure 88
00001000
00100000
00001000
00010000
00001000
00100000
00001000
00010000
,  // measure 89
00001000
00010000
00100000
10000000
00010000
01000000
00010000
10000000
,  // measure 90
01000000
00100000
00010000
00001000
00000100
00000010
00000001
00000100
,  // measure 91
00020000
00000000
00000000
00000000
,  // measure 92
00030000
00000000
00000000
00000000
;
