#TITLE:Chirality;
#SUBTITLE:;
#ARTIST:かめりあ;
#TITLETRANSLIT:;
#SUBTITLETRANSLIT:;
#ARTISTTRANSLIT:CAMELLIA;
#CREDIT:DigiMindAxel;
#BANNER:Chirality.png;
#BACKGROUND:Chirality-bg.png;
#LYRICSPATH:;
#CDTITLE:REFLEC BEAT.png;
#MUSIC:Chirality.ogg;
#METERTYPE:DDR X;
#OFFSET:-10.563;
#SAMPLESTART:20.051;
#SAMPLELENGTH:12.000;
#SELECTABLE:YES;
#BPMS:0.000=201.000;
#STOPS:28.000=0.896
,185.000=0.896
;
#BGCHANGES:;

//---------------dance-single - ----------------
#NOTES:
     dance-single:
     :
     Easy:
     6:
     0.221,0.316,0.098,0.108,0.000:
1001
0000
0000
0000
,
0000
0000
0000
0000
,
1001
0000
0000
0000
,
0000
0000
0000
0000
,
1001
0000
0000
0000
,
0000
0000
0000
0000
,
1001
0000
0000
0000
,
0000
0001
0000
0001
,
0000
0001
0000
1000
,
0000
0100
0000
0100
,
0000
1000
0000
0010
,
0000
0100
0000
0100
,
0000
0100
0000
0001
,
0000
1000
0000
1000
,
0000
1000
0000
0010
,
0000
0110
0000
0010
,
0000
0010
0000
0100
,
0000
0010
0000
0010
,
0000
0100
0000
0001
,
0000
2000
0000
0000
,
0000
3001
0000
1000
,
0000
0001
0000
0001
,
0000
1000
0000
0100
,
0000
2000
0000
0000
,
0000
3200
0000
0000
,
0000
0320
0000
0000
,
0000
0032
0000
0000
,
0000
2003
0000
0000
,
0000
3020
0000
0000
,
0000
0230
0000
0000
,
0000
0302
0000
0000
,
0000
0000
1003
0000
0000
0001
0000
0000
,
1000
0000
0000
0001
0000
0000
1000
0000
,
0000
0000
0010
0000
0000
0100
0000
0000
,
0010
0000
0000
0100
0000
0000
0010
0000
,
0000
0000
1000
0000
0000
0001
0000
0000
,
1000
0000
0000
0001
0000
0000
1000
0000
,
0000
0000
0001
0000
0000
0100
0000
0000
,
0001
0000
0000
0100
0000
0000
0001
0000
,
0000
1001
0000
0000
,
0000
0000
0000
0000
,
0000
1001
0000
0000
,
0000
0000
0000
0000
,
0000
1001
0000
0000
,
0000
0000
0000
0000
,
0000
1001
0000
0000
,
0000
0000
1000
0100
,
1000
0000
0001
0100
,
0001
0000
1000
0001
,
1000
0000
0001
0010
,
0001
0000
1000
0001
,
1000
0000
0010
0100
,
0010
0000
1000
0100
,
1000
0100
1000
0001
,
1000
0000
0001
0100
,
0001
1000
0001
0000
,
0100
0010
0100
0001
,
1000
0001
1000
0100
,
1000
0000
0100
1000
,
0100
1000
0001
1000
,
0001
0000
0010
0001
,
0010
0001
0100
0010
,
0100
0000
0010
0000
1000
0000
0000
1000
,
0000
0001
0000
0000
0001
0000
1000
0000
,
0000
1000
0000
0001
0000
0000
0001
0000
,
0100
0000
0000
0100
0000
0010
0000
0000
,
0010
0000
1000
0000
0000
1000
0000
0100
,
0000
0000
2002
0000
,
0000
0000
0000
0000
,
0000
0000
0000
0000
,
0000
0000
0000
0000
,
0000
0000
3003
0000
;

//---------------dance-single - ----------------
#NOTES:
     dance-single:
     :
     Medium:
     8:
     0.415,0.421,0.363,0.029,0.020:
1001
0000
0000
0000
0000
1000
0000
1100
,
0000
0000
0000
0000
,
1001
0000
0000
0000
0000
0001
0000
0011
,
0000
0000
0000
0000
,
1001
0000
0000
0000
0000
1000
0000
1100
,
0000
0000
0000
0000
,
1001
0000
0000
0000
0000
0001
0000
0011
,
0000
1001
0000
1100
,
0000
0000
1100
0000
0000
0000
0010
0100
,
0010
0110
0000
0101
,
0000
0101
0000
0001
,
1000
1100
0000
1001
,
0000
0000
1001
0000
0000
0000
0100
0010
,
0100
0000
0101
0000
0000
0000
0000
0001
,
0000
0100
0000
0000
0010
0000
0000
0000
0000
0000
0000
0000
0110
0000
0000
0000
,
0000
1001
0000
0011
,
0000
0000
0011
0000
0000
0000
0001
1000
,
0001
1100
0000
0110
,
0000
0110
0000
0010
,
0100
0002
0000
0000
,
0000
0000
1003
0000
0001
0100
0001
0100
,
0001
1001
1000
1100
,
0010
0110
0100
0101
,
0000
0000
0001
1000
0000
1000
0000
1000
,
0000
0001
0000
0001
0000
0010
0000
0010
,
0000
0000
0001
0100
0000
0001
0000
0100
,
0000
0010
0000
0010
0000
1000
0000
0001
,
0000
0000
1000
0100
0000
0010
0000
0010
,
0000
0100
0000
0100
0000
1000
0000
0001
,
0000
0000
1000
0001
0000
0100
0000
0100
,
0000
0001
0000
0001
0000
1000
0000
0100
,
0000
0000
1000
0001
0000
1000
0001
0000
,
1000
0001
0000
1000
0001
0000
1000
0001
,
1000
0000
0100
1000
0000
0100
1000
0000
,
0100
1000
0000
0100
1000
0000
0010
0100
,
0010
0000
0100
0001
0000
0100
0001
0000
,
0100
0001
0000
0100
0001
0000
1000
0001
,
1000
0000
0100
0010
0000
0100
0010
0000
,
0100
0010
0000
0100
0010
0000
0001
1000
,
0001
1000
0100
0000
0000
0000
0000
1000
,
0000
1100
0000
0000
0000
0000
0000
0000
,
0000
0000
1001
0000
0000
0000
0000
0001
,
0000
0011
0000
0000
0000
0000
0000
0000
,
0000
0000
1001
0000
0000
0000
0000
0100
,
0000
0110
0000
0000
0000
0000
0000
0000
,
0000
0000
1001
0000
0000
0000
0000
0010
,
0000
0110
0000
0000
0001
0100
0000
0001
,
0100
0000
0001
1000
0000
0001
1000
0000
,
0100
1000
0100
0000
0010
0001
0000
0010
,
0001
0000
0100
0010
0000
0100
0010
0000
,
1000
0001
1000
0000
0100
1000
0000
0100
,
1000
0000
0001
0100
0000
0001
0100
0000
,
0001
1000
0001
0000
1000
0000
0010
0000
,
0001
0010
1000
0100
,
0001
0000
0100
0000
1000
0000
0010
0100
,
0010
0000
1000
0001
0000
1000
0001
0000
,
0010
0001
0010
0000
0001
1000
0000
0001
,
1000
0000
0010
1000
0000
0010
1000
0000
,
0100
0010
0100
0000
1000
0001
0000
1000
,
0001
0000
0010
0001
0000
0010
0001
0000
,
0100
0000
0010
0000
0100
0000
0000
0000
0001
0000
0000
0001
0000
0000
0000
0000
,
1000
0000
0000
1000
0000
0000
0000
0000
0010
0000
0000
0010
0000
0000
0000
0000
,
0100
0010
0100
0010
1000
0001
0000
1000
,
0000
1000
0001
0000
0100
0000
0010
0100
,
0000
0010
0000
0010
0100
0000
0001
0000
,
1000
0100
0000
1000
0000
1000
0100
0000
,
1000
0000
0001
0100
0000
0001
0000
0001
,
0100
0000
2002
0000
,
0000
0000
0000
0000
,
0000
0000
0000
0000
,
0000
0000
0000
0000
,
0000
0000
3003
0000
;

//---------------dance-single - ----------------
#NOTES:
     dance-single:
     :
     Hard:
     11:
     0.588,0.596,0.500,0.432,0.108:
1001
0000
0000
0000
0001
0100
0000
0220
,
0000
0000
0000
0330
,
1001
0000
0000
0000
1000
0100
0000
0220
,
0000
0000
0000
0330
,
1001
0000
0000
0000
0001
1000
0000
2020
,
0000
0000
0000
3030
,
1001
0000
0000
0000
1000
0001
0000
0011
,
0000
0000
0000
0110
0000
0000
0100
0000
0000
0010
0000
0100
,
0000
0000
0001
0000
0000
0000
0002
0000
0000
0000
0000
0000
1000
0000
0000
0000
0000
0000
1003
0000
0000
0100
0000
0000
,
0010
0000
0000
0101
0000
0000
0001
0000
0000
0100
0000
0001
,
0000
1000
0000
2000
0000
0000
0001
0000
0000
3002
0000
0000
,
0203
0000
0000
0310
0000
0000
0100
0000
0000
0001
0000
1000
,
0000
0000
0100
0000
0000
0000
0200
0000
0000
0000
0000
0000
1000
0000
0000
1300
0000
0000
0001
0000
0000
0100
0000
0000
,
0010
0000
0110
0000
0100
0000
0001
1000
,
0000
0100
0000
0000
0010
0000
0001
0000
0010
0000
0000
0000
0011
0000
0000
0000
,
0000
0000
0000
1001
0000
0000
1000
0000
0000
0100
0000
1000
,
0000
0000
0010
0000
0000
0000
0020
0000
0000
0000
0000
0000
0100
0000
0000
0000
0000
0000
0130
0000
0000
0001
0000
0000
,
1000
0000
0000
1100
0000
0000
0100
0000
0000
1000
0000
0001
,
0000
0010
0000
0020
0000
0000
0001
0000
0000
0032
0000
0000
,
2003
0000
0000
3001
0010
0100
2000
0000
0000
3020
0000
0000
,
1030
0001
0010
0000
0001
0010
0100
0010
,
0001
0000
0011
0000
0001
0100
0010
0000
,
1000
0100
0010
0000
0001
1000
0100
1000
,
0002
0000
1003
0001
0000
0011
0000
0011
,
0000
1001
0000
0110
0000
2001
0000
0010
,
3010
0000
1000
0001
0000
0011
0000
0011
,
0000
1001
0000
0110
0000
1002
0000
0103
,
0000
0000
0001
1000
0000
1010
0000
1010
,
0000
0110
0000
1001
0000
0210
0000
0001
,
0301
0000
1000
0001
0000
0101
0000
0101
,
0000
0110
0000
1001
0000
0120
0000
2030
,
0000
0000
3001
0100
0000
0001
1000
0000
,
0100
0000
0010
0000
0000
0000
0100
0000
1000
0000
0000
0000
0001
1000
0001
0000
,
1000
0001
0010
0100
0000
1000
0010
0000
,
0100
0001
0000
0010
0100
0000
2000
0000
,
3002
0000
1003
0100
0000
0010
0100
0000
,
1000
0001
0000
0100
0001
0000
0020
0000
,
0130
0000
1000
0100
0000
0100
0010
0000
,
0001
0100
0000
0100
0010
0000
1000
0010
,
0100
0010
1010
0000
0000
0000
0100
0010
,
0000
2002
0000
0000
0000
0000
0000
0000
,
3003
0000
1001
0000
0000
0000
0010
0100
,
0000
2002
0000
0000
0000
0000
0000
0000
,
3003
0000
1001
0000
0000
0000
0001
0010
,
0000
0022
0000
0000
0000
0000
0000
0000
,
0033
0000
1001
0000
0000
0000
1000
0010
,
0000
1010
0000
0000
0100
0010
0100
0001
,
0100
1000
0200
0010
0000
0310
1000
0000
,
1001
0000
0110
0000
0100
0010
0100
1000
,
0010
0001
0020
0100
0000
0130
0001
0000
,
1001
0000
0110
0000
0010
0100
0010
0001
,
0100
1000
0200
0010
0000
0310
1000
0100
,
0010
0000
0001
0000
1000
0000
0000
0000
0001
0000
0000
0001
0000
0000
1000
0000
,
0010
0000
0000
0010
0000
0000
1000
0000
0001
0000
0010
0000
0100
0000
1000
0000
,
0000
1000
0001
0100
0000
0000
0010
1000
,
0100
0010
0100
1000
0002
0100
0000
0103
,
0001
1000
0100
0000
1000
0001
0010
0100
,
0010
0001
2000
0010
0000
3010
1000
0100
,
0010
0001
0100
0000
0001
1000
0010
0100
,
0010
1000
0200
0010
0000
0310
0001
0010
,
0100
0000
1000
0000
0001
0000
0100
0000
0001
0000
0000
0001
0000
0000
0010
0000
,
0100
0000
0000
0100
0000
0000
1000
0001
1000
0000
0000
1000
0000
0000
0010
0000
,
0100
0000
0000
0100
0000
0000
0010
0100
0020
0000
0100
0000
0000
0000
0130
0000
,
0000
0001
1000
0000
1001
0000
0200
1000
,
0000
1300
0000
0010
0100
0000
0110
0000
,
0200
0001
0000
0301
0000
1000
0100
0000
,
1100
0000
2000
0001
0000
3001
1000
0010
,
0100
0000
2002
0000
,
0000
0000
0000
0000
,
0000
0000
0000
0000
,
0000
0000
0000
0000
,
0000
0000
3003
0000
;

//---------------dance-single - ----------------
#NOTES:
     dance-single:
     :
     Challenge:
     15:
     0.790,0.771,0.638,0.304,0.358:
1100
0000
0000
0000
1000
0001
0000
0022
,
0000
0000
0000
0033
,
0011
0000
0000
0000
0001
1000
0000
2100
,
0000
0000
0100
0000
3100
1000
0100
0010
,
0001
0000
0000
0000
0001
1000
0000
2002
,
0000
0000
0000
3003
,
1001
0000
0000
0000
0010
0100
0010
0100
0010
0100
0010
0100
0010
0000
0100
0000
,
0001
0000
0000
0000
0000
0000
0000
0000
0000
0000
0000
0000
1002
0000
0000
0000
0000
0000
0000
0000
0000
0000
0000
0000
1003
0000
0000
0010
0000
0000
1000
0000
0000
0000
0000
0000
0010
0000
0000
0000
0000
0000
0000
0000
0110
0000
0000
0000
,
0000
0000
0101
0000
0000
0000
0002
0000
0000
1000
0000
0000
1003
0000
0000
0000
0000
0000
0010
0000
0000
0010
0000
0000
,
0100
0000
0000
0000
0000
0000
0000
0000
0000
0000
0000
0000
2001
0000
0000
0000
0000
0000
0000
0000
0000
0000
0000
0000
3001
0000
0000
0010
0000
0000
0001
0000
0000
0000
0000
0000
0100
0000
0000
0000
0000
0000
0000
0000
0110
0000
0000
0000
,
0000
0000
0000
0000
1100
0000
0000
0000
0000
0000
0000
0000
2000
0000
0000
0000
0000
0000
0000
0000
0000
0000
0000
0000
3001
0000
0000
0000
0000
0000
0100
0000
0000
0001
0000
0000
0100
0000
0000
0000
0000
0000
0000
0000
0000
0000
0000
0000
,
0110
0000
0000
0000
0000
0000
0000
0000
0000
0000
0000
0000
0201
0000
0000
0000
0000
0000
0000
0000
0000
0000
0000
0000
0310
0000
0000
1000
0000
0000
0010
0000
0000
0000
0000
0000
1000
0000
0000
0000
0000
0000
0000
0000
1001
0000
0000
0000
,
0000
0000
0011
0000
0000
0000
0020
0000
0000
0000
0000
0000
0031
0000
0000
0001
0000
0000
1000
0000
0000
1000
0000
0000
,
0010
0000
0110
0000
0010
1000
0100
0010
,
0000
0100
0000
0000
2000
0000
0010
0000
3010
0000
0000
0000
0220
0000
0000
0000
,
0330
0000
0000
0000
0000
0000
0000
0000
0000
0000
0000
0000
2001
0000
0000
0000
0000
0000
0000
0000
0000
0000
0000
0000
3100
0000
0000
1000
0000
0000
0100
0000
0000
1000
0000
0000
0100
0000
0000
0000
0000
0000
0000
0000
1100
0000
0000
0000
,
0000
0000
1001
0000
0000
0000
0002
0000
0000
0100
0000
0000
0103
0000
0000
0000
0000
0000
0001
0000
0000
1000
0000
0000
,
1000
0000
0000
0000
0000
0000
0000
0000
0000
0000
0000
0000
1002
0000
0000
0000
0000
0000
0000
0000
0000
0000
0000
0000
0013
0000
0000
0001
0000
0000
0010
0000
0000
0001
0000
0000
0010
0000
0000
0000
0000
0000
0000
0000
0011
0000
0000
0000
,
0000
0000
0000
0000
1001
0000
0000
0000
0000
0000
0000
0000
2000
0000
0000
0000
0000
0000
0000
0000
0000
0000
0000
0000
3010
0000
0000
0000
0000
0000
0100
0000
0000
0010
0000
0000
0100
0000
0000
0000
0000
0000
0000
0000
0000
0000
0000
0000
,
0110
0000
0000
0000
0000
0000
0000
0000
0000
0000
0000
0000
0010
0000
0000
0000
0100
0000
0000
0000
1000
0000
0000
0000
0100
0000
0000
0000
0010
0000
0000
0000
0001
0000
0000
0000
0100
0000
0000
0010
0000
0000
0100
0000
0000
0010
0000
0000
,
0100
0000
0001
1000
0001
1000
0001
0000
1000
0000
0100
0000
0010
0000
0100
0000
,
0100
0000
1100
0000
1000
0001
0010
0100
,
0000
1000
0000
0000
0010
0000
0000
0000
0110
0000
0000
0000
0010
0000
0100
0000
,
0001
0100
0001
0100
0001
0000
1000
0000
0000
0000
1001
0000
0000
0000
1001
0000
,
0000
0101
0000
0110
0000
0200
0001
0001
,
0301
0000
1000
0001
1000
0000
0010
0000
0000
0000
0110
0000
0000
0000
0110
0000
,
0000
1001
0000
0011
0000
1002
0000
0103
,
0000
0000
0001
1000
0000
1001
0000
1001
,
0000
0101
0000
0110
0000
0020
1000
1000
,
1030
0000
0001
1000
0001
0000
0010
0000
0000
0000
0011
0000
0000
0000
0011
0000
,
0000
1001
0000
1010
0000
1010
0000
0200
,
0000
0000
0310
0110
0000
1000
0100
0010
,
0001
0000
0100
0000
0001
0000
0010
0000
0100
0000
1000
0000
0001
1000
0001
1000
,
0001
1000
0001
1001
0000
0100
0001
0100
,
0010
0000
1000
0000
0001
0000
1000
0000
0010
0100
0020
0000
0200
0000
0000
0000
,
0330
0000
0100
0101
0000
0001
1000
0100
,
0010
0001
0010
0100
1000
0010
0200
0000
,
0310
0000
0100
0101
0000
0001
1001
0000
,
1000
0000
1100
0000
0000
0000
0100
0000
0110
0000
0000
0000
0010
0001
0010
0001
,
0100
0010
0100
0010
0100
0000
0000
0000
0000
0000
0000
0000
0001
0000
1000
0000
,
0000
2200
0000
0000
0000
0000
0000
0000
,
3300
0000
0110
0000
0000
0000
1000
0001
,
0000
0102
0000
0000
0103
0001
0010
0100
,
1000
0001
1001
0000
0000
0000
0010
0100
,
0000
0220
0000
0000
0000
0000
0000
0000
,
0330
0000
0000
0000
1001
0000
0000
0000
0100
0010
0100
0010
0100
0010
0100
0010
,
0100
0010
1000
0000
0100
0010
0100
1000
,
0001
0010
0100
0001
0100
1000
0001
0000
,
1000
0100
0001
0100
1000
0010
0100
0010
,
1000
0100
0010
1000
0010
0001
1000
0000
,
0001
0010
1000
0010
0001
1000
0010
1000
,
0001
0100
1000
0100
0010
1000
0001
0000
,
1000
0000
0100
0000
0001
0000
0100
0000
1000
0000
0010
1000
0000
0010
1000
0000
,
0100
0000
0010
0001
0000
0010
0001
0000
1000
0000
0010
0000
0100
0010
0100
0000
,
0000
0010
1000
0001
0000
0000
0010
0100
,
0010
0001
0100
1000
0100
0010
1000
0001
,
1000
0100
0001
0100
1000
0001
0010
0001
,
1000
0100
0010
1000
0010
0001
1000
0001
,
0010
1000
0010
0001
0010
0100
0010
0001
,
0100
1000
0100
0010
1000
0001
1000
0010
,
0100
0010
0100
0000
0001
0000
1000
0000
0100
0000
1000
0100
0000
1000
0100
0000
,
0010
0000
0001
0100
0000
0001
0100
0010
0100
0000
0001
1000
0000
0001
1000
0000
,
0100
0000
0010
0001
0000
0010
0001
1000
0001
0000
1001
0000
0000
0000
0100
0000
,
1000
0100
1000
0010
0110
0000
0100
0101
,
0000
0001
0010
0001
0100
0010
0110
0000
,
0100
1100
0000
1000
0001
0100
0001
0100
,
0101
0000
0000
0000
0100
0010
0100
0010
1000
0001
1000
0001
1000
0100
1000
0100
,
1000
0000
0000
0000
1100
0000
0100
1000
,
0001
0010
0100
0010
0001
1000
0010
0100
,
0020
0000
0130
0001
1000
0010
1000
0001
,
0010
0000
0100
0000
1000
0000
0010
0000
0100
0000
0001
0000
0100
0000
0000
0010
,
0000
0000
0000
1000
0000
0000
0000
0000
0000
0100
0000
0000
0000
0000
0000
0000
0010
0000
0000
0000
0000
0000
0000
0000
0000
0000
0000
0000
0000
0000
0000
0000
;

//---------------dance-single - ----------------
#NOTES:
     dance-single:
     :
     Beginner:
     2:
     0.088,0.132,0.137,0.000,0.000:
1001
0000
0000
0000
,
0000
0000
0000
0000
,
1001
0000
0000
0000
,
0000
0000
0000
0000
,
1001
0000
0000
0000
,
0000
0000
0000
0000
,
1001
0000
0000
0000
,
0000
0001
0000
0000
,
0000
0010
0000
0000
,
0000
0001
0000
0000
,
0000
0010
0000
0000
,
0000
0001
0000
0000
,
0000
0010
0000
0000
,
0000
0001
0000
0000
,
0000
1000
0000
0000
,
0000
0010
0000
0000
,
0000
0100
0000
0000
,
0000
0010
0000
0000
,
0000
0100
0000
0000
,
0000
0001
0000
0000
,
0000
1000
0000
0000
,
0000
0100
0000
0000
,
0000
1000
0000
0000
,
0000
1001
0000
0000
,
0000
0000
0000
0000
,
0000
0001
0000
0000
,
0000
0000
0000
0000
,
0000
0001
0000
0000
,
0000
0000
0000
0000
,
0000
0001
0000
0000
,
0000
0000
0000
0000
,
0000
1001
0000
0000
,
0000
0000
0000
0000
,
0000
1000
0000
0000
,
0000
0000
0000
0000
,
0000
1000
0000
0000
,
0000
0000
0000
0000
,
0000
1000
0000
0000
,
0000
0000
0000
0000
,
0000
0110
0000
0000
,
0000
0000
0000
0000
,
0000
0010
0000
0000
,
0000
0000
0000
0000
,
0000
0010
0000
0000
,
0000
0000
0000
0000
,
0000
0010
0000
0000
,
0000
0000
1000
0000
,
0000
0000
0100
0000
,
0000
0000
1000
0000
,
0000
0000
0001
0000
,
0000
0000
1000
0000
,
0000
0000
0100
0000
,
0000
0000
1000
0000
,
0000
0000
1001
0000
,
0000
0000
0000
0010
,
0000
0000
0000
0000
,
0000
0000
0100
0000
,
0000
0000
0000
0000
,
0000
0000
0010
0000
,
0000
0000
0000
0000
,
0000
0000
1001
0000
,
0000
0000
0000
0000
,
0000
0000
1001
0000
,
0000
0000
0000
1001
,
0000
0000
0000
0000
,
1001
0000
0000
0000
,
0000
1001
0000
0000
,
0000
0000
0110
0000
;

//---------------dance-double - ----------------
#NOTES:
     dance-double:
     :
     Easy:
     6:
     0.226,0.316,0.108,0.118,0.000:
10010000
00000000
00000000
00000000
,
00000000
00000000
00000000
00000000
,
10010000
00000000
00000000
00000000
,
00000000
00000000
00000000
00000000
,
10010000
00000000
00000000
00000000
,
00000000
00000000
00000000
00000000
,
10010000
00000000
00000000
00000000
,
00000000
10010000
00000000
10000000
,
00000000
01000000
00000000
00100000
,
00000000
00001000
00000000
01000000
,
00000000
00001000
00000000
00010000
,
00000000
00000010
00000000
00000100
,
00000000
00000010
00000000
00001000
,
00000000
00000001
00000000
00000010
,
00000000
00000001
00000000
00010000
,
00000000
00011000
00000000
00001000
,
00000000
00100000
00000000
01000000
,
00000000
10000000
00000000
00100000
,
00000000
01000000
00000000
00010000
,
00000000
00002000
00000000
00000000
,
00000000
00023000
00000000
00031000
,
00000000
00010000
00000000
00001000
,
00000000
00100000
00000000
01000000
,
00000000
00200000
00000000
00000000
,
00000000
00302000
00000000
00000000
,
00000000
00023000
00000000
00000000
,
00000000
00030020
00000000
00000000
,
00000000
00000230
00000000
00000000
,
00000000
00000320
00000000
00000000
,
00000000
00020030
00000000
00000000
,
00000000
00030002
00000000
00000000
,
00000000
00000000
00001003
00000000
00000000
00001000
00000000
00000000
,
00000010
00000000
00000000
00000010
00000000
00000000
00001000
00000000
,
00000000
00000000
00010000
00000000
00000000
00010000
00000000
00000000
,
00100000
00000000
00000000
00100000
00000000
00000000
01000000
00000000
,
00000000
00000000
10000000
00000000
00000000
10000000
00000000
00000000
,
00010000
00000000
00000000
00010000
00000000
00000000
01000000
00000000
,
00000000
00000000
00001000
00000000
00000000
00001000
00000000
00000000
,
00010000
00000000
00000000
00010000
00000000
00000000
00000010
00000000
,
00000100
00000110
00000000
00000000
,
00000000
00000000
00000000
00000000
,
00000000
00000110
00000000
00000000
,
00000000
00000000
00000000
00000000
,
00000000
00000110
00000000
00000000
,
00000000
00000000
00000000
00000000
,
00000000
00000110
00000000
00000000
,
00000000
00000000
00010000
00001000
,
00010000
00000000
00001000
01000000
,
00001000
00000000
10000000
00010000
,
10000000
00000000
01000000
00100000
,
01000000
00000000
10000000
00010000
,
10000000
00000000
00100000
01000000
,
00100000
00000000
10000000
01000000
,
10000000
01000000
10000000
00001000
,
10000000
00000000
00001000
00010000
,
00000100
00000010
00000100
00000000
,
00001000
00000100
00001000
00000001
,
00010000
00000001
00010000
00001000
,
00100000
00000000
01000000
10000000
,
01000000
10000000
00001000
10000000
,
00001000
00000000
00010000
00001000
,
00010000
00001000
00000100
00000010
,
00000100
00000000
00000010
00000000
00000001
00000000
00000000
00001000
,
00000000
00000100
00000000
00000000
00010000
00000000
00001000
00000000
,
00000000
01000000
00000000
00100000
00000000
00000000
10000000
00000000
,
00100000
00000000
00000000
01000000
00000000
00001000
00000000
00000000
,
00010000
00000000
00001000
00000000
00000000
00010000
00000000
00000010
,
00000000
00000000
00000220
00000000
,
00000000
00000000
00000000
00000000
,
00000000
00000000
00000000
00000000
,
00000000
00000000
00000000
00000000
,
00000000
00000000
00000330
00000000
;

//---------------dance-double - ----------------
#NOTES:
     dance-double:
     :
     Medium:
     8:
     0.444,0.456,0.441,0.039,0.025:
10010000
00000000
00000000
00000000
00000000
10100000
00000000
10100000
,
00000000
00000000
00000000
00000000
,
10010000
00000000
00000000
00000000
00000000
00110000
00000000
00110000
,
00000000
00000000
00000000
00000000
,
00011000
00000000
00000000
00000000
00000000
00010010
00000000
00010010
,
00000000
00000000
00000000
00000000
,
00000110
00000000
00000000
00000000
00000000
00000011
00000000
00000011
,
00000000
00001001
00000000
00000101
,
00000000
00000000
00000101
00000000
00000000
00000000
00000100
00000010
,
00000100
00000110
00000000
00011000
,
00000000
00011000
00000000
00100000
,
01000000
11000000
00000000
10010000
,
00000000
00000000
10010000
00000000
00000000
00000000
01000000
00100000
,
01000000
00000000
01010000
00000000
00000000
00000000
00000000
00001000
,
00000000
00010000
00000000
00000000
00001000
00000000
00000000
00000000
00000000
00000000
00000000
00000000
00011000
00000000
00000000
00000000
,
00000000
00010100
00000000
00000110
,
00000000
00000000
00000110
00000000
00000000
00000000
00000001
00001000
,
00000001
00001001
00000000
00001010
,
00000000
00001010
00000000
00000100
,
00010000
00002000
00000000
00023000
,
00000000
00000000
00031000
00010000
00001000
01000000
00100000
01000000
,
00100000
10010000
10000000
11000000
,
00100000
01100000
01000000
01010000
,
00010000
00000000
10000000
00001000
00000000
00001000
00000000
00001000
,
00000000
00010000
00000000
00010000
00000000
00000010
00000000
00000010
,
00000000
00001000
00000001
00001000
00000000
00000010
00000000
00000010
,
00000000
00010000
00000000
00010000
00000000
00001000
00000000
00100000
,
00000000
01000000
10000000
01000000
00000000
00100000
00000000
00100000
,
00000000
00001000
00000000
00001000
00000000
00010000
00000000
00000100
,
00000000
00000010
00000001
00000010
00000000
00000100
00000000
00000100
,
00000000
00001000
00000000
00001000
00000000
00000001
00000000
00000000
,
00000000
00000000
00000010
00000100
00000000
00000010
00000100
00000000
,
00010000
00001000
00000000
00010000
00001000
00000000
00100000
01000000
,
00100000
00000000
00010000
10000000
00000000
00010000
10000000
00000000
,
01000000
10000000
00000000
01000000
10000000
00000000
00100000
01000000
,
00100000
00000000
01000000
00001000
00000000
01000000
00001000
00000000
,
00010000
00001000
00000000
00010000
00001000
00000000
00010000
00000100
,
00010000
00000000
00000100
00000010
00000000
00000100
00000010
00000000
,
00000001
00000100
00000000
00000001
00000100
00000000
00000001
00001000
,
00000001
00001000
00000100
00000000
00000000
00000000
00000000
00011000
,
00000000
00011000
00000000
00000000
00000000
00000000
00000000
00000000
,
00000000
00000000
01100000
00000000
00000000
00000000
00000000
10100000
,
00000000
10100000
00000000
00000000
00000000
00000000
00000000
00000000
,
00000000
00000000
10001000
00000000
00000000
00000000
00000000
00101000
,
00000000
00101000
00000000
00000000
00000000
00000000
00000000
00000000
,
00000000
00000000
00011000
00000000
00000000
00000000
00000000
00000110
,
00000000
00000110
00000000
00000000
00000010
00000001
00000000
00000010
,
00000001
00000000
00000010
00000100
00000000
00000010
00000100
00000000
,
00010000
00001000
00010000
00001000
01000000
00100000
00000000
01000000
,
00100000
00000000
10000000
01000000
00000000
10000000
01000000
00000000
,
10000000
00010000
10000000
01000000
00100000
00001000
00000000
00100000
,
00001000
00000000
00010000
00001000
00000000
00010000
00001000
00000000
,
00000100
00000010
00000100
00000010
00000001
00000000
00000100
00000000
,
00000010
00000000
00010000
00000000
00001000
01000000
00100000
01000000
,
00000000
00010000
10000000
00010000
00000000
00000000
00100000
01000000
,
00100000
00000000
00010000
01000000
00000000
00010000
01000000
00000000
,
00010000
00001000
00010000
00001000
00000100
00000010
00000000
00000100
,
00000010
00000000
00000001
00000100
00000000
00000001
00000100
00000000
,
00000010
00000100
00000010
00000100
00000001
00010000
00000000
00000001
,
00010000
00000000
00001000
00010000
00000000
00001000
00010000
00000000
,
00100000
00000000
01000000
00000000
00100000
00000000
01000000
00000000
10000000
00000000
00000000
10000000
00000000
00000000
00000000
00000000
,
00100000
00000000
00000000
00100000
00000000
00000000
00000000
00000000
01000000
00000000
00000000
01000000
00000000
00000000
00000000
00000000
,
00001000
00000000
00000000
00001000
00000000
00000000
00001000
00000000
00010000
00000000
00010000
00000000
00000000
00000000
00000010
00000000
,
00000000
00000010
00000100
00000000
00000010
00000000
00000001
00000001
,
00000000
00001000
00000000
00001000
00000100
00000000
00000100
00000000
,
00010000
00010000
00000000
00001000
00000000
00001000
01000000
00000000
,
01000000
00000000
00010000
00010000
00000000
10000000
00000000
10000000
,
01000000
00000000
00022000
00000000
,
00000000
00000000
00000000
00000000
,
00000000
00000000
00000000
00000000
,
00000000
00000000
00000000
00000000
,
00000000
00000000
00033000
00000000
;

//---------------dance-double - ----------------
#NOTES:
     dance-double:
     :
     Hard:
     11:
     0.588,0.596,0.471,0.412,0.108:
10010000
00000000
00000000
00000000
10000000
01000000
00000000
22000000
,
00000000
00000000
00000000
33000000
,
10010000
00000000
00000000
00000000
00010000
01000000
00000000
02020000
,
00000000
00000000
00000000
03030000
,
10001000
00000000
00000000
00000000
00001000
00010000
00000000
00022000
,
00000000
00000000
00000000
00033000
,
00010001
00000000
00000000
00000000
00000001
00000100
00000000
00000101
,
00000000
00000000
00000000
00001001
00000000
00000000
00001000
00000000
00000000
00000010
00000000
00000100
,
00000000
00000000
00000001
00000000
00000000
00000000
00000002
00000000
00000000
00000000
00000000
00000000
00001000
00000000
00000000
00000000
00000000
00000000
00001003
00000000
00000000
00000010
00000000
00000000
,
00010000
00000000
00000000
00011000
00000000
00000000
00001000
00000000
00000000
00100000
00000000
01000000
,
00000000
10000000
00000000
20000000
00000000
00000000
00100000
00000000
00000000
30200000
00000000
00000000
,
01300000
00000000
00000000
01100000
00000000
00000000
00100000
00000000
00000000
10000000
00000000
01000000
,
00000000
00000000
00100000
00000000
00000000
00000000
00200000
00000000
00000000
00000000
00000000
00000000
00001000
00000000
00000000
00301000
00000000
00000000
00010000
00000000
00000000
00001000
00000000
00000000
,
00010000
00000000
00010010
00000000
00000000
00000000
00000010
00000100
,
00000000
00000001
00000000
00000000
00000001
00000000
00001000
00000000
00000001
00000000
00000000
00000000
00001001
00000000
00000000
00000000
,
00000000
00000000
00000000
00010010
00000000
00000000
00010000
00000000
00000000
00001000
00000000
01000000
,
00000000
00000000
00100000
00000000
00000000
00000000
00200000
00000000
00000000
00000000
00000000
00000000
10000000
00000000
00000000
00000000
00000000
00000000
10300000
00000000
00000000
00001000
00000000
00000000
,
00100000
00000000
00000000
00101000
00000000
00000000
00001000
00000000
00000000
00010000
00000000
00000100
,
00000000
00000010
00000000
00000020
00000000
00000000
00000001
00000000
00000000
00000032
00000000
00000000
,
00002003
00000000
00000000
00003001
00000010
00000100
00002000
00000000
00000000
00003020
00000000
00000000
,
00010030
00001000
00010000
00001000
00100000
01000000
10000000
00100000
,
01000000
00000000
01100000
00000000
00100000
00010000
10000000
00000000
,
01000000
00100000
00001000
00000000
00010000
00001000
00010000
00000100
,
00000020
00000000
00000031
00001000
00000000
00001001
00000000
00001001
,
00000000
00010100
00000000
00011000
00000000
02001000
00000000
00100000
,
03100000
00000000
10000000
00010000
00000000
10010000
00000000
10010000
,
00000000
11000000
00000000
01100000
00000000
01002000
00000000
00013000
,
00000000
00000000
00000010
00000100
00000000
00000110
00000000
00000110
,
00000000
00000101
00000000
00010001
00000000
00021000
00000000
00001000
,
00031000
00000000
01000000
00100000
00000000
01100000
00000000
01100000
,
00000000
11000000
00000000
01001000
00000000
00012000
00000000
00023000
,
00000000
00000000
00030100
00000010
00000000
00000001
00000100
00000000
,
00010000
00000000
00001000
00000000
00000000
00000000
00100000
00000000
01000000
00000000
00000000
00000000
10000000
00010000
10000000
00000000
,
00010000
10000000
01000000
00100000
00000000
00010000
01000000
00000000
,
00001000
00010000
00000000
00000100
00000010
00000000
00000002
00000000
,
00001000
00000000
00001003
00000010
00000000
00001000
00010000
00000000
,
01000000
00100000
00000000
10000000
01000000
00000000
20000000
00000000
,
30010000
00000000
01000000
00010000
00000000
00010000
10000000
00000000
,
00100000
01000000
00000000
01000000
00001000
00000000
00010000
00001000
,
00010000
00001000
00010010
00000000
00000000
00000000
00000010
00000100
,
00000000
00000220
00000000
00000000
00000000
00000000
00000000
00000000
,
00000330
00000000
00000011
00000000
00000000
00000000
00000001
00000010
,
00000000
00000022
00000000
00000000
00000000
00000000
00000000
00000000
,
00000033
00000000
00010001
00000000
00000000
00000000
00010000
00001000
,
00000000
00022000
00000000
00000000
00000000
00000000
00000000
00000000
,
00033000
00000000
01001000
00000000
00000000
00000000
00100000
01000000
,
00000000
01100000
00000000
00000000
01000000
10000000
01000000
00100000
,
01000000
10000000
00002000
01000000
00000000
01003000
00001000
00000000
,
00010000
00000100
00000010
00000001
00001000
00000010
00001000
00000100
,
00000010
00000100
00002000
00000001
00000000
00003001
00010000
00000000
,
00001000
01000000
00100000
10000000
01000000
00100000
01000000
10000000
,
00010000
01000000
00020000
10000000
00000000
10030000
00001000
00000000
,
00010000
00000000
00000100
00000000
00000010
00000000
00000001
00000000
00000100
00000000
00000000
00000100
00000000
00000000
00000001
00000000
,
00010000
00000000
00000000
00010000
00000000
00000000
00001000
00000000
01000000
00000000
10000000
00000000
01000000
00000000
00001000
00000000
,
00000000
00100000
01000000
10000000
00000000
00000000
00100000
01000000
,
00010000
10000000
01000000
10000000
00200000
01000000
00000000
01300000
,
00001000
00010000
00000010
00000100
00000001
00000010
00000100
00000010
,
00000001
00001000
00000020
00010000
00000000
00010030
00001000
00100000
,
01000000
00100000
00010000
00000000
00100000
01000000
10000000
00010000
,
10000000
01000000
00200000
00001000
00000000
00301000
00100000
00001000
,
00010000
00000000
00000010
00000000
00000100
00000000
00000001
00000000
00001000
00000000
00000000
00001000
00000000
00000000
00000100
00000000
,
00010000
00000000
00000000
00010000
00000000
00000000
00001000
00010000
00001000
00000000
00000000
00001000
00000000
00000000
00100000
00000000
,
01000000
00000000
00000000
01000000
00000000
00000000
10000000
00010000
20000000
00000000
00010000
00000000
00000000
00000000
30010000
00000000
,
00000000
00100000
01000000
00000000
01100000
00000000
00002000
01000000
,
00000000
01003000
00000000
00001000
00010000
00000000
00011000
00000000
,
00000200
00000010
00000000
00000310
00000000
00001000
00000001
00000000
,
00000011
00000000
00002000
00000010
00000000
00003010
00001000
00010000
,
00100000
00000000
02200000
00000000
,
00000000
00000000
00000000
00000000
,
00000000
00000000
00000000
00000000
,
00000000
00000000
00000000
00000000
,
00000000
00000000
03300000
00000000
;

//---------------dance-double - ----------------
#NOTES:
     dance-double:
     :
     Challenge:
     15:
     0.790,0.771,0.638,0.324,0.358: // measure 1
00011000
00000000
00000000
00000000
00001000
01000000
00000000
02200000
,  // measure 2
00000000
00000000
00000000
03300000
,  // measure 3
00011000
00000000
00000000
00000000
00010000
00000100
00000000
00000120
,  // measure 4
00000000
00000000
00000100
00000000
00000130
00000001
00000010
00000100
,  // measure 5
00001000
00000000
00000000
00000000
00010000
00001000
00000000
00022000
,  // measure 6
00000000
00000000
00000000
00033000
,  // measure 7
01001000
00000000
00000000
00000000
00100000
01000000
00100000
01000000
00100000
01000000
00100000
01000000
00100000
00000000
01000000
00000000
,  // measure 8
00000000
00000000
00000000
00000000
00000000
00000000
00000000
00000000
00000000
00000000
00000000
00000000
10020000
00000000
00000000
00000000
00000000
00000000
00000000
00000000
00000000
00000000
00000000
00000000
10030000
00000000
00000000
00100000
00000000
00000000
10000000
00000000
00000000
00000000
00000000
00000000
00100000
00000000
00000000
00000000
00000000
00000000
00000000
00000000
01100000
00000000
00000000
00000000
,  // measure 9
00000000
00000000
01001000
00000000
00000000
00000000
00002000
00000000
00000000
00010000
00000000
00000000
00013000
00000000
00000000
00000000
00000000
00000000
00000020
00000000
00000000
00010000
00000000
00000000
,  // measure 10
00010030
00000000
00000000
00000000
00000000
00000000
00000000
00000000
00000000
00000000
00000000
00000000
00000210
00000000
00000000
00000000
00000000
00000000
00000000
00000000
00000000
00000000
00000000
00000000
00000301
00000000
00000000
00000100
00000000
00000000
00000001
00000000
00000000
00000000
00000000
00000000
00001000
00000000
00000000
00000000
00000000
00000000
00000000
00000000
00001100
00000000
00000000
00000000
,  // measure 11
00000000
00000000
00000000
00000000
00010100
00000000
00000000
00000000
00000000
00000000
00000000
00000000
00020000
00000000
00000000
00000000
00000000
00000000
00000000
00000000
00000000
00000000
00000000
00000000
00031000
00000000
00000000
00000000
00000000
00000000
00100000
00000000
00000000
01000000
00000000
00000000
10000000
00000000
00000000
00000000
00000000
00000000
00000000
00000000
00000000
00000000
00000000
00000000
,  // measure 12
11000000
00000000
00000000
00000000
00000000
00000000
00000000
00000000
00000000
00000000
00000000
00000000
10020000
00000000
00000000
00000000
00000000
00000000
00000000
00000000
00000000
00000000
00000000
00000000
10030000
00000000
00000000
01000000
00000000
00000000
10000000
00000000
00000000
00000000
00000000
00000000
01000000
00000000
00000000
00000000
00000000
00000000
00000000
00000000
01100000
00000000
00000000
00000000
,  // measure 13
00000000
00000000
01001000
00000000
00000000
00000000
00002000
00000000
00000000
00000000
00000000
00000000
00013000
00000000
00000000
00010000
00000000
00000000
00000010
00000000
00000000
00000010
00000000
00000000
,  // measure 14
00000100
00000000
00000110
00000000
00000100
00000001
00000010
00000100
,  // measure 15
00000000
00010000
00000000
00000000
00002000
00000000
00010000
00000000
00013000
00000000
00000000
00000000
02002000
00000000
00000000
00000000
,  // measure 16
03003000
00000000
00000000
00000000
00000000
00000000
00000000
00000000
00000000
00000000
00000000
00000000
20010000
00000000
00000000
00000000
00000000
00000000
00000000
00000000
00000000
00000000
00000000
00000000
31000000
00000000
00000000
10000000
00000000
00000000
01000000
00000000
00000000
10000000
00000000
00000000
01000000
00000000
00000000
00000000
00000000
00000000
00000000
00000000
11000000
00000000
00000000
00000000
,  // measure 17
00000000
00000000
10001000
00000000
00000000
00000000
00002000
00000000
00000000
01000000
00000000
00000000
01003000
00000000
00000000
00000000
00000000
00000000
00020000
00000000
00000000
00001000
00000000
00000000
,  // measure 18
00031000
00000000
00000000
00000000
00000000
00000000
00000000
00000000
00000000
00000000
00000000
00000000
00010020
00000000
00000000
00000000
00000000
00000000
00000000
00000000
00000000
00000000
00000000
00000000
00000130
00000000
00000000
00000010
00000000
00000000
00000100
00000000
00000000
00000010
00000000
00000000
00000100
00000000
00000000
00000000
00000000
00000000
00000000
00000000
00000110
00000000
00000000
00000000
,  // measure 19
00000000
00000000
00000000
00000000
00000101
00000000
00000000
00000000
00000000
00000000
00000000
00000000
00000002
00000000
00000000
00000000
00000000
00000000
00000000
00000000
00000000
00000000
00000000
00000000
00001003
00000000
00000000
00000000
00000000
00000000
00000100
00000000
00000000
00001000
00000000
00000000
00000010
00000000
00000000
00000000
00000000
00000000
00000000
00000000
00000000
00000000
00000000
00000000
,  // measure 20
00000110
00000000
00000000
00000000
00000000
00000000
00000000
00000000
00000000
00000000
00000000
00000000
00000100
00000000
00000000
00000000
00000010
00000000
00000000
00000000
00000001
00000000
00000000
00000000
00001000
00000000
00000000
00000000
00000100
00000000
00000000
00000000
00000010
00000000
00000000
00000000
00000100
00000000
00000000
00010000
00000000
00000000
00000100
00000000
00000000
00010000
00000000
00000000
,  // measure 21
00000100
00000000
00010000
00001000
00010000
00001000
00010000
00000000
00001000
00000000
01000000
00000000
00100000
00000000
01000000
00000000
,  // measure 22
01000000
00000000
01100000
00000000
01000000
10000000
00100000
01000000
,  // measure 23
00000000
00001000
00000000
00000000
00010000
00000000
00000000
00000000
00011000
00000000
00000000
00000000
00010000
00000000
00000100
00000000
,  // measure 24
00000010
00000001
00000010
00000001
00000010
00000000
00000100
00000000
00000000
00000000
00010100
00000000
00000000
00000000
00010100
00000000
,  // measure 25
00000000
00011000
00000000
01001000
00000000
02000000
00001000
00001000
,  // measure 26
03001000
00000000
10000000
01000000
10000000
00000000
01000000
00000000
00000000
00000000
01100000
00000000
00000000
00000000
01100000
00000000
,  // measure 27
00000000
01001000
00000000
00011000
00000000
00020010
00000000
00030001
,  // measure 28
00000000
00000000
00000100
00000010
00000000
00000110
00000000
00000110
,  // measure 29
00000000
00010010
00000000
00011000
00000000
00002000
01000000
01000000
,  // measure 30
01003000
00000000
00100000
01000000
00100000
00000000
10000000
00000000
00000000
00000000
10010000
00000000
00000000
00000000
10010000
00000000
,  // measure 31
00000000
01001000
00000000
00011000
00000000
00011000
00000000
00020000
,  // measure 32
00000000
00000000
00030010
00000110
00000000
00000100
00000010
00000001
,  // measure 33
00000100
00000000
00000001
00000000
00000010
00000000
00000100
00000000
00010000
00000000
00000000
00000000
00001000
00010000
00001000
00010000
,  // measure 34
00001000
01000000
00100000
01100000
00000000
01000000
00010000
00100000
,  // measure 35
01000000
00000000
10000000
00000000
01000000
00000000
00100000
00000000
00001000
01000000
00002000
00000000
00020000
00000000
00000000
00000000
,  // measure 36
00033000
00000000
00000001
00000101
00000000
00000100
00000001
00000010
,  // measure 37
00000100
00001000
00000100
00000010
00000001
00001000
00000020
00000000
,  // measure 38
00010030
00000000
00001000
00011000
00000000
01000000
01001000
00000000
,  // measure 39
00100000
00000000
01100000
00000000
00000000
00000000
10000000
00000000
10010000
00000000
00000000
00000000
00010000
10000000
00010000
10000000
,  // measure 40
00100000
01000000
00100000
01000000
00100000
00000000
00000000
00000000
00000000
00000000
00000000
00000000
10000000
00000000
00001000
00000000
,  // measure 41
00000000
02002000
00000000
00000000
00000000
00000000
00000000
00000000
,  // measure 42
03003000
00000000
00011000
00000000
00000000
00000000
00010000
00000100
,  // measure 43
00000000
00000210
00000000
00000000
00000310
00000001
00000010
00000001
,  // measure 44
00000100
00000010
00010010
00000000
00000000
00000000
00001000
00010000
,  // measure 45
00000000
00022000
00000000
00000000
00000000
00000000
00000000
00000000
,  // measure 46
00033000
00000000
00000000
00000000
01001000
00000000
00000000
00000000
01000000
00100000
01000000
00100000
01000000
00100000
01000000
00100000
,  // measure 47
01000000
00100000
10000000
00000000
01000000
00100000
01000000
10000000
,  // measure 48
00010000
00100000
01000000
00010000
01000000
10000000
00001000
00000000
,  // measure 49
00010000
00000100
00000001
00000100
00010000
00000010
00000100
00000010
,  // measure 50
00001000
00000100
00000010
00001000
00000010
00000001
00010000
00000000
,  // measure 51
00001000
00100000
10000000
00100000
00001000
10000000
00100000
10000000
,  // measure 52
00010000
01000000
10000000
01000000
00100000
10000000
00001000
00000000
,  // measure 53
00010000
00000000
00000010
00000000
00000001
00000000
00000010
00000000
00010000
00000000
00000100
00000010
00000000
00000100
00000010
00000000
,  // measure 54
00000001
00000000
00010000
00000010
00000000
00010000
00000010
00000000
00001000
00000000
00010000
00000000
01000000
00100000
01000000
00000000
,  // measure 55
00000000
00010000
10000000
01000000
00000000
00000000
10000000
01000000
,  // measure 56
00100000
00001000
00010000
00000010
00000001
00000010
00000100
00000001
,  // measure 57
00010000
00010000
00001000
00001000
01000000
00100000
10000000
00010000
,  // measure 58
01000000
10000000
01000000
00100000
10000000
00001000
00010000
00000010
,  // measure 59
00000100
00000100
00000001
00000001
00010000
00000100
00010000
00001000
,  // measure 60
01000000
10000000
01000000
00100000
10000000
00001000
00010000
00000100
,  // measure 61
00000010
00000001
00000010
00000000
00000001
00000000
00001000
00000000
00000010
00000000
00010000
00001000
00000000
00010000
00001000
00000000
,  // measure 62
01000000
00000000
00100000
10000000
00000000
00100000
10000000
01000000
00100000
00000000
00001000
01000000
00000000
00001000
01000000
00000000
,  // measure 63
00010000
00000000
00001000
00000100
00000000
00001000
00000100
00000010
00000001
00000000
00001001
00000000
00000000
00000000
00000010
00000000
,  // measure 64
00000001
00000010
00000001
00000100
00000110
00000000
00010000
00011000
,  // measure 65
00000000
00001000
01000000
00001000
01000000
00100000
01100000
00000000
,  // measure 66
10000000
11000000
00000000
01000000
00100000
00001000
00100000
00001000
,  // measure 67
00011000
00000000
00000000
00000000
00010000
00000010
00010000
00000010
00010000
00000001
00010000
00000001
00000010
00000001
00000010
00000001
,  // measure 68
00000010
00000000
00000000
00000000
00000011
00000000
00000010
00000001
,  // measure 69
00001000
00000100
00000010
00000100
00001000
00000001
00000100
00000010
,  // measure 70
00020000
00000000
00031000
00100000
01000000
10000000
01000000
00100000
,  // measure 71
00001000
00000000
01000000
00000000
00010000
00000000
00001000
00000000
00000010
00000000
00000100
00000000
00000001
00000000
00000000
00000100
,  // measure 72
00000000
00000000
00000000
00000001
00000000
00000000
00000000
00000000
00000000
00000010
00000000
00000000
00000000
00000000
00000000
00000000
00000100
00000000
00000000
00000000
00000000
00000000
00000000
00000000
00000000
00000000
00000000
00000000
00000000
00000000
00000000
00000000
;
