#TITLE:Chaos;
#SUBTITLE:;
#ARTIST:GENKIサウンドチーム;
#TITLETRANSLIT:;
#SUBTITLETRANSLIT:;
#ARTISTTRANSLIT:GENKI SOUND TEAM;
#CREDIT:DigiMindAxel;
#BANNER:Chaos.png;
#BACKGROUND:Chaos-bg.png;
#LYRICSPATH:;
#CDTITLE:DigiMindAxel original simfile.png;
#MUSIC:Chaos.ogg;
#METERTYPE:DDR X;
#OFFSET:-7.909;
#SAMPLESTART:15.273;
#SAMPLELENGTH:12.000;
#SELECTABLE:YES;
#BPMS:0.000=130.000;
#STOPS:61.500=0.923
;
#BGCHANGES:;

//---------------dance-single - ----------------
#NOTES:
     dance-single:
     :
     Easy:
     3:
     0.139,0.186,0.064,0.038,0.000:
1000
0000
0000
0000
,
1000
0000
0000
0000
,
0100
0000
0000
0000
,
0100
0000
0000
0000
,
1001
0000
0001
0000
,
0010
0000
0001
0000
,
1000
0000
0100
0000
,
1000
0000
0000
0000
,
0010
0000
0100
0000
,
0010
0000
0100
0000
,
0001
0000
1000
0000
,
0001
0000
1000
0000
,
0100
0000
0010
0000
,
0100
0000
0010
0000
,
0001
0000
0100
0000
,
0010
0000
0110
0000
,
0100
0000
0001
0000
,
0010
0000
0100
0100
,
0010
0010
2002
0000
,
0000
0000
3003
0000
1000
0000
0000
1000
,
0000
0100
0000
0000
,
0000
0000
0000
0000
0010
0000
0000
0010
,
0000
0001
0000
0000
,
0000
0000
0000
0000
0100
0000
0000
0100
,
0000
0010
0000
0000
,
0000
0000
0000
0000
1000
0000
0000
1000
,
0000
0001
0000
0000
,
0000
0000
0110
0110
,
0000
1000
0000
0100
,
0000
0010
0000
0000
,
0000
0001
0000
0010
,
0000
0100
0000
0000
,
0000
1000
0001
1000
,
0000
0100
1000
0100
,
0000
0010
0001
0010
,
0000
0100
0010
0100
,
2000
3000
0000
0000
;

//---------------dance-single - ----------------
#NOTES:
     dance-single:
     :
     Medium:
     6:
     0.285,0.278,0.205,0.128,0.000:
0001
0000
0001
0000
,
0010
0000
0010
0000
,
0100
0000
0100
0000
,
1000
0000
1000
0001
,
1001
0000
1000
0000
0000
0100
0000
0110
,
0000
0010
0001
0101
,
0100
0000
0001
0000
0000
0001
0000
0011
,
0000
0100
1000
1001
,
0001
0000
0010
0000
0000
0001
0000
1001
,
0000
1000
0100
1100
,
1000
0000
1000
0000
0000
0010
0000
0110
,
0000
1000
0001
1001
,
0200
0000
0000
1000
0000
0000
1300
0000
,
0020
0000
0000
0100
0000
0000
0130
0000
,
0002
0000
0000
0010
0000
0000
0013
0000
,
0100
0010
0000
0000
1001
0000
1000
0100
,
0000
0100
0000
0000
1000
0000
0001
0100
,
0000
0100
0000
0000
0101
0000
0110
0000
,
1010
0110
2002
0000
,
0000
0000
3003
0000
1000
0100
0000
0010
,
0100
0000
1000
0000
0000
0010
0100
0000
,
0001
0010
0100
1000
0001
0100
0000
0010
,
0100
0000
0001
0000
0000
1000
0100
0000
,
1000
0100
0010
0001
1000
0100
0000
0010
,
0100
0000
1000
0000
0000
0001
0100
0000
,
0001
0100
0010
1000
0001
0010
0000
0100
,
0010
0000
0001
0000
0000
1000
0010
0000
,
1000
0100
0010
0001
1000
0000
1001
0000
,
0000
0000
0002
0000
0000
0013
0000
0000
,
0000
0200
0000
0000
0000
0000
0000
0000
,
0000
0000
2300
0000
0000
3001
0000
0000
,
0000
0200
0000
0000
0000
0000
0000
0000
,
0000
0000
1300
0000
0000
0001
0010
0000
,
0001
1000
0001
0000
0000
0000
1000
0000
,
0000
0000
0010
0100
0010
0000
1000
0000
,
0100
1000
0100
0000
0010
0000
0001
0000
,
2000
3000
0000
0000
;

//---------------dance-single - ----------------
#NOTES:
     dance-single:
     :
     Hard:
     9:
     0.468,0.441,0.128,0.346,0.128:
1001
0000
1000
1000
0010
0000
0100
0001
,
2000
0000
0000
0000
3100
0000
1000
0001
,
0010
0000
0001
0001
1000
0000
0100
0010
,
0002
0000
0103
0001
,
1001
0000
0000
1000
0100
0000
0000
0000
1000
0000
0001
0000
0100
0000
0001
0000
,
0000
0010
0100
0000
1000
0001
0010
0001
,
1000
0000
0000
0010
0100
0000
0000
0000
0001
0000
1000
0000
0010
0000
1000
0000
,
0000
0000
0100
0000
0010
0000
0000
0000
0001
0000
0000
0100
0000
0000
0010
0000
,
1000
0000
0000
0001
0010
0000
0000
0000
0001
0000
0100
0000
0010
0000
0100
0000
,
0000
0001
0010
0000
0001
1000
0100
0010
,
0001
0000
0000
1000
0010
0000
0000
0000
1000
0000
0001
0000
0010
0000
0001
0000
,
0000
0000
0100
0000
0010
0000
0000
0000
1000
0000
0000
0010
0000
0000
0001
0000
,
0010
1000
0001
0200
0000
0010
0310
0000
,
1000
0001
0010
0200
0000
1000
1300
0000
,
0001
0100
0010
2000
0000
0001
3001
0000
,
0010
2020
0000
3030
0010
0100
0001
0020
,
0000
0000
0230
0000
0000
0000
1300
0000
0001
0000
0000
0010
0000
0000
1000
0000
,
0000
0010
0001
1000
1020
0000
0230
0000
,
0302
0000
0000
0000
2003
0000
0000
0000
3100
0000
0000
1100
0000
0000
0100
0000
,
0000
0110
0000
0000
1001
0000
0000
0000
0001
0000
0010
0000
1000
0000
0010
0000
,
0001
0000
0010
0100
1000
0010
0001
0010
,
1000
0001
1000
0000
0001
0100
0001
0000
1000
0000
0010
0000
0001
0000
0010
0000
,
1000
0000
0100
0010
0001
0100
1000
0100
,
0001
1000
0001
0000
1000
0100
1000
0000
0001
0000
1000
0000
0100
0000
0001
0000
,
0100
0000
0000
0000
1000
0010
0100
0000
0001
0000
1000
0000
0010
0000
0001
0000
,
0010
0000
1000
0000
0001
1000
0001
1000
0001
0000
1000
0000
0010
0000
0001
0000
,
0010
0000
0000
0000
1000
0100
0010
0000
0001
0000
1000
0000
0010
0000
0001
0000
,
0010
0000
1000
0000
0001
0100
0001
0100
0001
0000
0000
1001
0000
0000
0000
0000
,
0010
0010
0200
0000
0001
0302
0000
2003
,
0000
3002
0000
0000
1000
0000
0000
0000
,
1003
0000
0200
0000
1000
2300
0000
3002
,
0000
2003
0000
0000
0001
0000
0000
0000
,
3001
0000
0110
0100
0002
0000
1003
0000
,
0001
0010
0200
0000
1000
0000
0310
0000
,
0001
0001
1000
0100
0020
0000
0130
0000
,
1000
0001
0200
0000
0010
0000
1300
0000
,
0220
0330
0000
0000
;

//---------------dance-single - ----------------
#NOTES:
     dance-single:
     :
     Challenge:
     13:
     0.642,0.673,0.192,0.205,0.582:
1000
0000
0001
0100
0001
0000
1000
0000
0100
0000
0000
0000
1000
0001
1000
0001
,
1000
0000
0100
0000
0010
0000
0000
0000
0110
0000
0000
0000
0001
1000
0001
1000
,
0001
0000
0010
0000
0100
0000
0000
0000
1100
0000
0000
0000
0010
0100
0010
0100
,
0010
0100
0001
0000
0101
0000
0100
0000
,
1001
0001
0010
0100
0020
0001
0000
0031
,
0000
0000
1000
0001
1000
0000
0100
0000
0010
0000
0001
0000
1000
0000
0000
0000
,
0001
0000
0100
0000
0010
0000
1000
0001
2000
0000
0100
0000
0000
0000
3100
0000
,
0000
0000
1000
0001
1000
0001
1000
0000
0100
0000
0000
1000
0000
0000
0010
0000
,
0100
0001
0000
0001
0000
0000
1000
0100
0000
0100
0000
0000
1000
0001
0000
0001
,
0000
0000
0010
0000
0100
1000
0100
1000
0100
0000
0010
0000
0001
1000
0001
0000
,
0100
0000
0010
0000
1000
0000
0100
0000
2000
0000
0000
0000
0000
0000
0000
3001
0000
0000
0010
0000
0000
0100
0000
0000
,
2000
0000
0001
0000
3001
0000
0000
0000
0100
0000
0000
0001
0000
0000
1000
0000
,
0001
0000
0000
0020
0000
0000
0000
0000
0000
0100
0000
0000
0000
0000
0000
0130
0000
0000
1000
0000
0001
0000
0010
0000
,
0001
0000
1000
0000
0010
0100
0020
0000
0000
0000
0100
0000
0130
0000
0000
0000
,
0001
0100
1000
0100
0001
0010
1000
0010
,
0001
0000
2002
0000
0000
0000
3003
0000
0001
0000
1000
0010
1000
0000
0001
0000
,
0010
0000
0100
0000
0010
0000
0001
0000
1000
0000
0000
0010
0000
0000
1000
0000
,
0001
0000
0010
0000
0100
0010
0100
0000
1010
0000
0000
0000
0110
0000
0000
0000
,
0101
0000
0000
0000
0110
0000
0000
0000
1001
0000
0001
0010
0000
0010
0100
0000
,
0100
1000
0000
1000
0001
0100
0001
0000
1000
0000
0100
0010
0001
0010
0100
0000
,
0010
0100
1000
0100
0010
0000
0001
1000
0010
0000
0100
0001
1000
0100
1000
0100
,
0010
0001
0010
0001
1000
0010
1000
0010
0100
0000
0001
0100
0010
0100
0001
0000
,
0100
0010
1000
0010
0100
0000
0001
1000
0100
0000
0010
0001
0010
0001
1000
0001
,
1000
0001
1000
0100
1000
0100
1000
0000
0001
0000
0100
0010
1000
0010
0100
0000
,
0010
0100
0001
0100
0010
0000
1000
0100
0010
0000
0001
0010
0100
1000
0001
0010
,
0100
1000
0001
0010
0100
1000
0100
1000
0100
0000
1000
0100
0010
0100
1000
0000
,
0100
0010
0001
0010
0100
0000
1000
0001
0100
0000
0001
0100
0010
1000
0001
0100
,
0010
1000
0010
1000
0100
0010
0001
0010
0100
0000
1000
0001
0000
0000
0000
0000
,
1000
0000
1000
0001
1000
0000
0100
0000
0010
0000
0002
0000
0000
0000
2003
0000
,
0000
3002
0100
0000
0100
0000
0100
0000
,
0103
0000
0001
0010
0100
2000
0000
3002
,
0000
2003
0100
0000
0100
0000
0100
0000
,
3100
0000
1000
0001
0010
0100
1100
0000
,
1000
0001
1000
0001
1000
0000
0010
0000
0100
0000
0001
0000
0101
0000
0000
0000
,
0010
0100
0010
0100
0010
0000
1000
0000
0100
0000
0010
0000
0011
0000
0000
0000
,
1000
0001
1000
0001
1000
0000
0010
0000
0100
0000
0001
0000
1001
0000
0000
0000
,
0220
0330
0000
0000
;

//---------------dance-double - ----------------
#NOTES:
     dance-double:
     :
     Easy:
     4:
     0.172,0.209,0.090,0.077,0.000:
10000000
00000000
00000000
00000000
,
10000000
00000000
00000000
00000000
,
00010000
00000000
00000000
00000000
,
00010000
00000000
00000000
00000000
,
10010000
00000000
10000000
01000000
,
10000000
00000000
00010000
10000000
,
00010000
00000000
00100000
00010000
,
00100000
00000000
00001000
00001000
,
00011000
00000000
00010000
00000100
,
00010000
00000000
00000010
00000100
,
00000010
00000000
00001000
00000001
,
00001000
00000000
00000001
00000010
,
00000002
00000000
00001003
00000000
,
00000020
00000000
00000130
00000000
,
00000001
00001000
00000001
00001000
,
00000001
00000000
00001001
00001000
,
00000100
00000000
00010000
00000010
,
00010000
00000000
00000001
00000001
,
00001000
00001000
00002002
00000000
,
00000000
00000000
00003003
00000000
00001000
00000000
00000000
00001000
,
00000000
00001000
00000000
00000000
,
00000000
00000000
00000000
00000000
01000000
00000000
00000000
01000000
,
00000000
01000000
00000000
00000000
,
00000000
00000000
00000000
00000000
00001000
00000000
00000000
00001000
,
00000000
00001000
00000000
00000000
,
00000000
00000000
00000000
00000000
00100000
00000000
00000000
00100000
,
00000000
00100000
00000000
00000000
,
00000000
00000000
00011000
00011000
,
00000000
00001000
00000000
00100000
,
00000000
00010000
00000000
00000000
,
00000000
00100000
00000000
00001000
,
00000000
00010000
00000000
00000000
,
00000000
00000001
00001000
00000001
,
00000000
00000010
00000001
00000010
,
00000000
00000100
00001000
00000100
,
00000000
00010000
00001000
00010000
,
00022000
00033000
00000000
00000000
;

//---------------dance-double - ----------------
#NOTES:
     dance-double:
     :
     Medium:
     7:
     0.294,0.325,0.256,0.115,0.000:
10010000
00000000
10000000
00000000
,
00100000
00000000
00100000
00000000
,
01000000
00000000
01000000
00000000
,
00010000
00000000
00010000
10000000
,
10010000
00000000
00010000
00000000
00000000
00100000
00000000
00101000
,
00000000
00001000
00010000
00011000
,
00001000
00000000
00000010
00000000
00000000
00000100
00000000
00000110
,
00000000
00000001
00001000
00001001
,
00000001
00000000
00001000
00000000
00000000
00000100
00000000
00010100
,
00000000
00001000
00100000
00010000
,
10010000
00000000
10000000
00000000
00000000
00001000
00000000
00011000
,
00000000
00010000
00000100
00010000
,
00002000
00000000
00000000
00010000
00000000
00000000
00013000
00000000
,
00000200
00000000
00000000
00001000
00000000
00000000
00001300
00000000
,
00000020
00000000
00000000
00000100
00000000
00000000
00000130
00000000
,
00000001
00001000
00000000
00000000
00001001
00000000
00000100
00001000
,
00000000
00000100
00000000
00000000
00010000
00000000
00001000
01000000
,
00000000
00100000
00000000
00000000
10100000
00000000
01100000
00000000
,
01010000
00000000
01100000
00000000
10010000
00000000
00000000
10010000
,
00000000
00000000
10010000
00000000
00010000
00100000
00000000
01000000
,
00100000
00000000
00001000
00000000
00000000
00010000
00001000
00000000
,
00010000
00000100
00000010
00000001
00001000
00000100
00000000
00000010
,
00000100
00000000
00010000
00000000
00000000
00001000
00010000
00000000
,
00001000
01000000
00100000
10000000
00010000
01000000
00000000
00100000
,
01000000
00000000
00001000
00000000
00000000
00010000
00001000
00000000
,
00010000
00000100
00000010
00000001
00001000
00000100
00000000
00000010
,
00000100
00000000
00010000
00000000
00000000
00001000
00010000
00000000
,
00001000
01000000
00100000
10000000
00001000
00000000
00001000
00000000
,
00000000
00000000
00020000
00000000
00000000
00031000
00000000
00000000
,
00000000
00200000
00000000
00000000
00000000
00000000
00000000
00000000
,
00000000
00000000
02300000
00000000
00000000
13000000
00000000
00000000
,
00000000
00200000
00000000
00000000
00000000
00000000
00000000
00000000
,
00000000
00000000
01300000
00000000
00000000
00001000
00010000
00000000
,
00000010
00000100
00000010
00000000
00000000
00000000
00000110
00000000
,
00000000
00000000
00000001
00000010
00000001
00000000
00001000
00000000
,
00000100
00010000
00000100
00000000
00010000
00000000
00011000
00000000
,
00022000
00033000
00000000
00000000
;

//---------------dance-double - ----------------
#NOTES:
     dance-double:
     :
     Hard:
     9:
     0.470,0.441,0.141,0.346,0.128:
00001001
00000000
00001000
00001000
00000100
00000000
00000010
00000001
,
00020000
00000000
00000000
00000000
00031000
00000000
00010000
00001000
,
10000000
00000000
00010000
00010000
01000000
00000000
00100000
01000000
,
00002000
00000000
00013000
00010000
,
00010100
00000000
00000000
00000100
00001000
00000000
00000000
00000000
00000001
00000000
00000010
00000000
00000100
00000000
00001000
00000000
,
00000000
00010000
00000010
00000000
00000100
00000001
00001000
00000001
,
00000100
00000000
00000000
00000001
00001000
00000000
00000000
00000000
00000001
00000000
00000010
00000000
00000100
00000000
00010000
00000000
,
00000000
00000000
00001000
00000000
00010000
00000000
00000000
00000000
00001000
00000000
00000000
01000000
00000000
00000000
00100000
00000000
,
10000000
00000000
00000000
00010000
00100000
00000000
00000000
00000000
00010000
00000000
10000000
00000000
01000000
00000000
00100000
00000000
,
00000000
00001000
00010000
00000000
00000100
00001000
00000010
00000100
,
00000001
00000000
00000000
00001000
00000100
00000000
00000000
00000000
00010000
00000000
00000001
00000000
00000010
00000000
00000100
00000000
,
00000000
00000000
00010000
00000000
00001000
00000000
00000000
00000000
00010000
00000000
00000000
00001000
00000000
00000000
00100000
00000000
,
01000000
10000000
00010000
00200000
00000000
00010000
00310000
00000000
,
10000000
00010000
00100000
00002000
00000000
00010000
00013000
00000000
,
00000010
00000100
00000001
00002000
00000000
00000001
00003001
00000000
,
00010000
00022000
00000000
00033000
00100000
00010000
01000000
00200000
,
00000000
00000000
02300000
00000000
00000000
00000000
03010000
00000000
10000000
00000000
00000000
01000000
00000000
00000000
00100000
00000000
,
00000000
00001000
00010000
00000010
00000120
00000000
00000230
00000000
,
00000302
00000000
00000000
00000000
00002003
00000000
00000000
00000000
00003001
00000000
00000000
00001001
00000000
00000000
00001100
00000000
,
00000000
00011000
00000000
00000000
10001000
00000000
00000000
00000000
10000000
00000000
00100000
00000000
00001000
00000000
00100000
00000000
,
10000000
00000000
01000000
00100000
00010000
01000000
10000000
01000000
,
00001000
00010000
00001000
00000000
00010000
00000100
00010000
00000000
00000001
00000000
00000100
00000000
00001000
00000000
00000100
00000000
,
00000001
00000000
00000010
00000100
00010000
00000100
00000001
00000100
,
00010000
00001000
00010000
00000000
00001000
00100000
00001000
00000000
10000000
00000000
00100000
00000000
00010000
00000000
00100000
00000000
,
10000000
00000000
00000000
00000000
00001000
00010000
00001000
00000000
00010000
00000000
00000100
00000000
00000001
00000000
00000100
00000000
,
00010000
00000000
00001000
00000000
01000000
00100000
01000000
00100000
01000000
00000000
00010000
00000000
00100000
00000000
01000000
00000000
,
10000000
00000000
00000000
00000000
00001000
00010000
00001000
00000000
00010000
00000000
00000010
00000000
00000001
00000000
00000010
00000000
,
00010000
00000000
00001000
00000000
00100000
01000000
00100000
01000000
00100000
00000000
00000000
01100000
00000000
00000000
00000000
00000000
,
10000000
10000000
02000000
00000000
00100000
03200000
00000000
00302000
,
00000000
00023000
00000000
00000000
00001000
00000000
00000000
00000000
,
00031000
00000000
00020000
00000000
00000100
00030200
00000000
00000320
,
00000000
00000032
00000000
00000000
00001000
00000000
00000000
00000000
,
00001003
00000000
00000110
00000010
00020000
00000000
00031000
00000000
,
00010000
01000000
00200000
00000000
01000000
00000000
01300000
00000000
,
00010000
00010000
10000000
01000000
00200000
00000000
00310000
00000000
,
00001000
00010000
00000200
00000000
00000010
00000000
00000310
00000000
,
00000220
00000330
00000000
00000000
;

//---------------dance-double - ----------------
#NOTES:
     dance-double:
     :
     Challenge:
     13:
     0.649,0.673,0.269,0.166,0.582:
00010000
00000000
10000000
00100000
10000000
00000000
01000000
00000000
00100000
00000000
00000000
00000000
00001000
00010000
00001000
00010000
,
00001000
00000000
00010000
00000000
00000100
00000000
00000000
00000000
00010100
00000000
00000000
00000000
00001000
00000001
00001000
00000001
,
00001000
00000000
00000010
00000000
00000100
00000000
00000000
00000000
00000110
00000000
00000000
00000000
00010000
00001000
00010000
00001000
,
00010000
00001000
00100000
00000000
01100000
00000000
01000000
00000000
,
10010000
00010000
00100000
01000000
00100000
00010000
00000000
00011000
,
00000000
00000000
00010000
00000100
00010000
00000000
00000100
00000000
00000010
00000000
00000001
00000000
00001000
00000000
00000000
00000000
,
00000001
00000000
00001000
00000000
00000100
00000000
00010000
00001000
00010000
00000000
00001000
00000000
00000000
00000000
01001000
00000000
,
00000000
00000000
01000000
00100000
01000000
00100000
01000000
00000000
00010000
00000000
00000000
10010000
00000000
00000000
10000000
00000000
,
00100000
01000000
00000000
01000000
00000000
00000000
00001000
00010000
00000000
00010000
00000000
00000000
00000100
00000010
00000000
00000010
,
00000000
00000000
00000001
00000000
00010000
00001000
00010000
00001000
00010000
00000000
00000010
00000000
00000100
00000010
00000100
00000000
,
00000001
00000000
00000010
00000000
00000100
00000000
00010000
00000000
00002000
00000000
00000000
00000000
00000000
00000000
00000000
01003000
00000000
00000000
00100000
00000000
00000000
01000000
00000000
00000000
,
00020000
00000000
10000000
00000000
10030000
00000000
00000000
00000000
00100000
00000000
00000000
01100000
00000000
00000000
01000000
00000000
,
00001000
00000000
00000000
00010000
00000000
00000000
00000010
00000000
00000000
00000100
00000000
00000000
00000000
00000000
00000000
00000110
00000000
00000000
00000100
00000000
00000001
00000000
00000100
00000000
,
00000010
00000000
00010000
00000000
00000100
00001000
00000200
00000000
00000000
00000000
00010000
00000000
00010300
00000000
00000000
00000000
,
00000001
00000100
00001000
00000100
00000001
00000010
00010000
00000010
,
00000001
00000000
00020002
00000000
00000000
00000000
00030003
00000000
00010000
00000000
00001000
00100000
00001000
00000000
10000000
00000000
,
10000000
00000000
01000000
00000000
00100000
00000000
00010000
00000000
01000000
00000000
00000000
01100000
00000000
00000000
00100000
00000000
,
10000000
00000000
00001000
00000000
00010000
00001000
00010000
00000000
00010010
00000000
00000000
00000000
00000110
00000000
00000000
00000000
,
00000101
00000000
00000000
00000000
00000110
00000000
00000000
00000000
00010001
00000000
00000001
00000100
00000000
00000100
00000010
00000000
,
00000010
00010000
00000000
00010000
00001000
01000000
00001000
00000000
10000000
00000000
01000000
00100000
00010000
00100000
01000000
00000000
,
00100000
01000000
10000000
01000000
00100000
00000000
00001000
00010000
00001000
00000000
00010000
00000001
00010000
00000100
00010000
00000100
,
00000010
00000001
00000010
00000001
00000100
00000010
00000100
00000010
00001000
00000000
00000001
00000100
00000010
00000100
00000001
00000000
,
00010000
00000010
00000100
00000010
00010000
00000000
00001000
00010000
00001000
00000000
01000000
00010000
01000000
00010000
10000000
00010000
,
10000000
00010000
10000000
01000000
10000000
01000000
10000000
00000000
00010000
00000000
10000000
00100000
01000000
00100000
10000000
00000000
,
00100000
01000000
00001000
01000000
00100000
00000000
10000000
01000000
00100000
00000000
00001000
00010000
00000010
00000100
00000010
00010000
,
00001000
00010000
00000010
00000100
00000010
00001000
00000001
00000010
00000001
00000000
00000010
00000100
00001000
00000100
00000010
00000000
,
00000001
00000010
00000100
00000010
00000001
00000000
00010000
00000010
00010000
00000000
00001000
00010000
00001000
00100000
01000000
00100000
,
00001000
00010000
00001000
00100000
01000000
10000000
00100000
01000000
00100000
00000000
10000000
00010000
00000000
00000000
00000000
00000000
,
01000000
00000000
01000000
00100000
01000000
00000000
00010000
00000000
00100000
00000000
00020000
00000000
00000000
00000000
02030000
00000000
,
00000000
03002000
00010000
00000000
00010000
00000000
00010000
00000000
,
00013000
00000000
00000100
00001000
00000010
00000200
00000000
00000302
,
00000000
00020003
00001000
00000000
00001000
00000000
00001000
00000000
,
00031000
00000000
10000000
00010000
00100000
01000000
11000000
00000000
,
10000000
00010000
10000000
00010000
10000000
00000000
00100000
00000000
01000000
00000000
00001000
00000000
00011000
00000000
00000000
00000000
,
00010000
00001000
00010000
00001000
00010000
00000000
00000100
00000000
00000010
00000000
00000001
00000000
00001001
00000000
00000000
00000000
,
00000100
00000010
00000100
00000010
00000100
00000000
00000001
00000000
00001000
00000000
00000100
00000000
00010100
00000000
00000000
00000000
,
00022000
00033000
00000000
00000000
;

//---------------dance-single - ----------------
#NOTES:
     dance-single:
     :
     Beginner:
     1:
     0.068,0.092,0.064,0.000,0.000: // measure 1
0001
0000
0000
0000
,  // measure 2
0001
0000
0000
0000
,  // measure 3
1000
0000
0000
0000
,  // measure 4
1000
0000
0000
0000
,  // measure 5
1001
0000
0000
0000
,  // measure 6
0010
0000
0000
0000
,  // measure 7
0100
0000
0000
0000
,  // measure 8
0010
0000
0000
0000
,  // measure 9
0001
0000
0000
0000
,  // measure 10
0001
0000
0000
0000
,  // measure 11
1000
0000
0000
0000
,  // measure 12
1000
0000
0000
0000
,  // measure 13
0100
0000
0000
0000
,  // measure 14
0010
0000
0000
0000
,  // measure 15
0100
0000
0000
0000
,  // measure 16
0110
0000
0010
0000
,  // measure 17
0000
0000
0100
0000
,  // measure 18
0000
0000
0010
0000
,  // measure 19
0000
0000
0010
0000
,  // measure 20
0000
0000
1001
0000
,  // measure 21
0000
0000
0000
0000
,  // measure 22
0000
0000
0001
0000
,  // measure 23
0000
0000
0000
0000
,  // measure 24
0000
0000
0010
0000
,  // measure 25
0000
0000
0000
0000
,  // measure 26
0000
0000
0100
0000
,  // measure 27
0000
0000
0000
0000
,  // measure 28
0000
0000
1001
0000
,  // measure 29
0000
1000
0000
0000
,  // measure 30
0000
0000
0000
0000
,  // measure 31
0000
0100
0000
0000
,  // measure 32
0000
0000
0000
0000
,  // measure 33
0000
0010
0000
0000
,  // measure 34
0000
0010
0000
0000
,  // measure 35
0000
0100
0000
0000
,  // measure 36
0000
0100
0000
0000
,  // measure 37
1001
0000
0000
0000
;
