#TITLE:Celsus;
#SUBTITLE:;
#ARTIST:felys feat.夏川陽子;
#TITLETRANSLIT:;
#SUBTITLETRANSLIT:;
#ARTISTTRANSLIT:felys feat.YOKO NATSUKAWA;
#CREDIT:DigiMindAxel;
#BANNER:Celsus.png;
#BACKGROUND:Celsus-bg.png;
#LYRICSPATH:Celsus.lrc;
#CDTITLE:pop'n music.png;
#MUSIC:Celsus.ogg;
#METERTYPE:DDR X;
#OFFSET:-7.202;
#SAMPLESTART:40.960;
#SAMPLELENGTH:12.000;
#SELECTABLE:YES;
#BPMS:0.000=165.000;
#STOPS:;
#BGCHANGES:;

//---------------dance-single - ----------------
#NOTES:
     dance-single:
     :
     Easy:
     4:
     0.174,0.246,0.047,0.095,0.000:
1001
0000
0000
0000
0000
0000
0000
0001
,
0000
0000
0000
0000
0000
0000
0000
1000
,
0000
0000
0000
0000
0000
0000
0000
0001
,
0000
0000
2000
0000
,
0000
0000
0000
0000
,
0000
0000
3200
0000
,
0000
0000
0000
0000
,
0300
0000
1001
0000
,
1000
0000
0001
0000
,
0010
0000
0001
0000
,
1000
0000
0100
0010
,
0100
0010
0100
0000
,
1000
0000
0010
0100
,
0010
0100
0001
0000
,
1000
0000
0001
0000
,
0010
0100
2000
0000
,
0000
0000
3001
0000
,
0000
0000
2000
0000
,
0000
0000
3001
0000
,
0000
0000
0002
0000
,
0000
0000
1003
0000
,
0000
0000
0002
0000
,
0000
0000
0000
1003
0000
0000
0000
0000
,
0000
0000
0001
0000
,
0010
0000
0001
0000
,
1000
0001
1000
0000
,
0100
0000
1000
0000
,
0100
0010
0100
0000
,
1000
0000
0010
0000
,
0100
0000
0001
1000
,
0001
0000
1000
0001
,
2000
0000
3001
0000
,
0010
0000
0001
0000
,
0100
0010
0100
0000
,
0001
0000
1000
0000
,
0100
1000
0100
0000
,
1000
0000
0010
0000
,
0100
0000
0001
1000
,
0001
1000
0001
0100
,
0010
1000
0001
0000
,
0010
0000
0001
0000
,
0010
0000
0100
0000
,
1000
0000
0100
0000
,
1000
0001
0000
0100
,
0000
0001
0000
0100
,
0000
0010
0000
1000
,
0000
0010
1000
0002
,
0000
0000
0000
0000
,
0000
0000
0000
2003
,
0000
0000
0000
0000
,
0000
0000
0000
3001
,
0000
0000
0000
0000
,
0000
0000
0000
2000
,
0000
0000
0000
0000
,
0000
0000
0000
3002
,
0000
0000
0000
0000
0000
1003
0000
0000
,
0000
0000
0000
0000
,
1001
0000
0000
0000
,
0000
0010
0000
0000
0000
0000
0000
0000
,
0110
0000
0000
0000
,
0100
0010
0100
0000
,
1001
0000
0000
0000
0000
0000
0000
0001
,
0000
0000
0000
0000
,
1001
0000
0000
1000
,
0000
0000
0000
0001
,
1000
0001
0000
0010
,
0001
0010
0000
0001
,
1000
0001
0000
1000
,
0010
0100
0000
0010
,
0100
0010
0000
1000
,
0001
1000
0000
0100
,
0010
0001
0010
0100
,
1000
0001
0100
0002
,
0000
0000
0000
0000
,
0000
0000
0000
0000
,
0000
0000
0000
0000
,
0000
0000
0000
0000
,
0000
0000
0000
0003
;

//---------------dance-single - ----------------
#NOTES:
     dance-single:
     :
     Medium:
     7:
     0.332,0.399,0.198,0.237,0.000:
1001
0000
0000
0000
0000
0000
0000
1000
,
0000
1100
0000
0000
0000
0000
0000
0010
,
0000
0110
0000
0000
0000
0000
0000
0001
,
0000
1001
0000
0000
0200
0000
0000
0000
,
0000
0302
0000
0000
,
2003
0000
3020
0000
,
0000
0000
0000
0000
,
0130
0000
1001
0010
,
0100
1000
0100
0000
1000
0001
1000
0000
,
0010
0000
0100
0000
0010
0000
1000
0001
,
0000
0010
0100
1000
,
0010
0100
0010
0000
1000
0000
0010
0000
,
0100
0000
0001
1000
0000
0000
0100
0000
,
0010
0001
2000
0000
,
3000
0100
1000
0200
0000
0000
0000
0000
,
1300
0010
0200
0010
,
0000
0310
0000
0000
0000
0000
1001
0000
,
0000
1001
0000
0000
0002
0000
1000
0000
,
0000
1003
0000
0000
0010
0000
0010
0000
,
0110
0000
1000
0100
,
0010
0001
1000
0000
,
1001
0000
0002
0000
,
0203
0000
0000
0310
0000
0000
0000
0000
,
0000
0000
1001
1000
,
0100
1000
0010
0000
0100
0000
0100
0000
,
0001
0010
0100
1000
0001
0000
0100
0000
,
0010
0100
0001
1000
,
0100
0000
0010
0001
1000
0000
0010
0000
,
0200
0000
0001
0000
0301
1000
0001
0000
,
1001
0000
1000
0010
0100
0000
0001
0000
,
0001
0000
1000
0100
1000
0000
0000
0000
,
0001
0100
0010
1000
0001
0000
0010
0000
,
0100
0010
0100
0000
1000
0001
1000
0000
,
0010
0100
0010
0100
0001
0000
0001
0000
,
1000
1000
0001
0010
,
0100
0000
1000
0001
0200
0000
0000
0000
,
0300
0001
1000
0100
,
0010
0000
0001
0000
1000
0000
0001
0100
,
0000
0000
0001
0000
1000
0100
0000
1000
,
0000
0010
0100
0001
0020
0000
0000
0000
,
0032
0000
0000
1000
0000
1003
0000
0000
,
0000
0000
0000
1010
0000
1010
0000
0000
,
2000
0000
0000
0001
0000
3001
0000
0000
,
1000
0001
0200
0000
0000
0000
0302
0000
,
0000
1000
0000
1003
0000
0000
0010
0000
,
0200
0010
0000
0310
0000
0000
1000
0000
,
0020
0100
0000
0130
0000
0000
0102
0000
,
0000
0000
0000
0000
,
0000
2003
0000
3200
,
0000
0000
0000
0000
,
1000
0000
0000
1300
0000
0000
0000
0000
,
0110
0000
0000
0110
0000
0000
0000
0000
,
0100
0000
0001
0100
0000
0000
0002
0000
,
0000
0000
0000
0000
0000
1003
0000
0000
,
0000
0000
0001
0100
0001
0000
2000
0000
,
0000
0000
3200
0000
0000
0020
0000
0000
,
0000
0000
0000
0000
0000
0330
0000
0000
,
1001
0000
0000
1001
0000
0000
0000
0000
,
0000
1100
0000
0000
0000
0000
0000
0000
,
0101
0000
0000
0101
0000
0000
0000
0000
,
0100
0010
0100
0002
0000
0000
0003
0000
,
1001
0000
0000
1001
0000
0000
0000
0011
,
0000
0000
0000
0000
,
1010
0000
0000
1000
0010
0000
0000
2000
,
0000
0000
0000
3001
0000
0000
1000
0100
,
1000
0000
0001
1000
0001
0000
0100
0000
,
0010
0000
1000
0100
0010
0001
1000
0000
,
1000
0000
0001
0000
0001
0000
1000
0100
,
1000
0010
0100
0002
,
0000
1003
0001
1000
,
0100
0010
0001
1000
,
0001
0100
0000
0000
0001
0000
1000
0100
,
0000
1000
0000
0001
0010
0100
2000
0000
,
0000
0000
0000
0000
,
0000
0000
0000
0000
,
0000
0000
0000
0000
,
0000
0000
0000
0000
,
0000
0000
0000
3000
;

//---------------dance-single - ----------------
#NOTES:
     dance-single:
     :
     Hard:
     9:
     0.464,0.492,0.364,0.372,0.000:
1001
0000
0001
0000
0001
1000
0100
0010
,
0000
0110
0000
0000
0010
0000
1000
0100
,
0000
1100
0000
0000
1000
0000
0010
0100
,
0000
0100
0001
0010
0200
0000
0000
0000
,
0000
0000
0000
0000
,
2300
0000
3002
1000
,
0000
1000
0000
0000
1000
0000
0000
0000
,
1003
0000
0000
0000
0001
1000
0100
1000
,
0000
0010
0100
0010
0000
1000
0001
0000
,
0010
0100
1000
0001
0100
0001
0000
0010
,
0100
0010
0001
0010
0000
0001
0200
0000
,
0320
0000
1030
0000
0001
1000
0100
1000
,
0000
0100
0010
0100
0000
1000
0002
0000
,
0023
0000
0230
0000
1300
0001
0100
0001
,
0000
1000
0100
2000
0000
0001
3001
0000
,
2000
0000
3020
0000
0230
0000
0301
1000
,
0100
1000
0000
0000
0000
0000
1001
0000
,
0000
1001
0000
0000
0000
0000
1100
0000
,
0000
1100
0000
0000
0000
0000
1000
0100
,
0010
0001
0010
0100
1000
0001
0000
0000
,
1000
0010
0100
0001
0000
0000
0200
0000
,
0320
2030
3020
0000
,
0230
0000
0000
0310
0000
0000
0000
0000
,
0000
0000
0000
0000
0001
0010
0100
0000
,
1000
0100
0001
0000
0100
1000
0001
0010
,
0001
1000
0100
0001
0100
0000
1100
0000
,
0001
0000
1001
0000
1000
0010
0100
0001
,
0010
0000
1000
0010
0002
0000
0013
0000
,
0200
0000
0310
0000
0001
0100
0010
1000
,
0100
0000
0001
0100
2000
0000
3010
0000
,
0200
0000
0310
1000
0100
0010
0001
0000
,
1000
0100
0001
0100
1000
0001
0010
0000
,
0001
0010
1000
0000
0010
0001
0100
0000
,
0001
1000
0100
0010
0001
0000
0101
0000
,
1000
0000
1001
0000
0001
0100
1000
0100
,
0001
0000
0010
0100
2000
0000
0000
0000
,
3001
0000
1000
0010
0100
0001
0010
0100
,
1000
0001
0010
0000
0001
0001
0100
0010
,
0000
0000
1000
1000
0100
0010
0000
0101
,
0000
0001
0100
0010
1000
0000
0000
0000
,
1100
0000
0000
1001
0000
1001
0000
0010
,
0100
0001
1000
1001
0000
1001
0000
0000
,
0011
0000
0000
0110
0000
0010
1000
0010
,
1000
0001
0011
0000
0000
0000
1001
0000
,
0000
1010
0000
1010
0000
0010
0100
0001
,
0010
0110
0000
0110
0000
0010
0100
1000
,
0001
0101
0000
0100
0001
0010
0200
0000
,
0000
0000
0000
2300
,
0000
3020
0000
0230
,
0000
0000
0000
0000
,
0001
0000
0000
0301
0000
0000
0000
0000
,
1001
0000
0000
1001
0000
0000
0000
0000
,
1100
0000
0100
1000
0000
0001
0100
0001
,
0000
0000
0000
1000
0100
1000
0000
0100
,
1000
0001
0010
0000
0100
0000
2000
0000
,
0001
0000
0000
3001
0000
2002
0000
0000
,
0000
0000
0000
3003
,
0011
0000
0000
0022
0000
0000
0000
0033
,
0000
2002
0000
0000
0000
0000
3003
0000
,
1100
0000
0000
2200
0000
0000
3300
0000
,
1000
0010
0100
0202
0000
0000
0303
0000
,
0110
0000
0000
0220
0000
0000
0330
2020
,
0000
0000
0000
3030
,
1001
0000
0000
1001
0000
0000
0000
0001
,
0010
0100
1000
1001
0000
0000
1000
0010
,
0100
0000
0001
0100
1000
0000
0100
0001
,
1000
0100
0010
0001
1000
0010
0100
0000
,
0101
0000
1000
0000
1001
0000
0001
0100
,
0010
1000
0100
0000
0001
0100
2000
0000
,
0000
0000
3001
0000
1000
0001
0020
0000
,
0230
0000
2300
0000
3010
0000
0100
0100
,
0001
1000
0000
0000
0010
0010
1000
0100
,
0000
0110
0000
0010
0100
0001
2002
0000
,
0000
0000
0000
0000
,
0000
0000
0000
0000
,
0000
0000
0000
0000
,
0000
0000
0000
0000
,
0000
0000
0000
3003
;

//---------------dance-single - ----------------
#NOTES:
     dance-single:
     :
     Challenge:
     11:
     0.567,0.553,0.379,0.206,0.166:
1001
0000
1000
0000
0001
0010
0001
1000
,
0000
0000
1010
0000
0000
0000
0010
0100
0010
0000
0100
0000
0001
0000
0010
0000
,
0000
0011
0000
0001
1000
0100
0001
0100
,
0000
1000
0001
0100
0120
0000
0000
0000
,
0000
0000
0000
0030
1000
0010
1000
0010
0100
0001
0100
0010
,
2000
0000
3001
0100
,
0001
1000
0000
0100
0010
0100
0010
0000
,
0110
0000
0000
0000
0001
1000
0001
1000
,
0010
0100
0010
1000
0000
1000
0001
0010
,
0100
0010
0001
1000
0010
1000
0010
0100
,
0010
0100
0001
1000
0000
1000
0001
0010
,
1000
0010
0001
1000
0001
0010
0001
0010
,
0001
0100
0010
1000
0000
1000
0001
0010
,
1000
0010
0001
0000
1000
0001
1000
0010
,
0000
0010
0100
0102
0000
1000
1003
0000
,
0001
0000
0100
0000
0110
0000
0010
1000
,
1000
0010
0100
0000
0000
0000
0101
0000
,
0100
0110
0000
0000
0000
0000
0010
1000
,
1000
0100
0010
0000
0001
1000
0100
0001
,
0100
1000
0001
0010
0100
0000
1000
0001
,
0001
1000
0100
0010
0000
0001
1000
0000
,
1100
0000
0100
0000
0110
0000
0010
0100
,
0001
1000
0000
1001
0000
0000
0000
0000
,
0000
0000
0000
0000
1000
0100
0010
0100
,
1000
0001
1000
0000
0001
0000
0000
0000
0010
0000
0001
0000
1000
0000
0100
0000
,
1000
0001
1000
0000
0010
0000
0000
0000
0100
0000
0000
0100
0001
0000
0000
0000
,
0010
0000
0000
0010
0100
0000
0000
0000
1000
0000
0000
1000
0001
0000
0010
0000
,
0001
0010
0001
0100
0010
0000
1000
0010
,
1000
0001
1000
0000
0010
0000
0100
0000
0001
0000
0000
0000
0100
0000
0010
0000
,
1000
0100
1000
0000
0100
0000
0010
0000
0001
0000
0000
0001
1000
0000
0000
0000
,
0100
0000
0000
0100
1000
0000
0001
0000
0010
0000
0100
0000
0010
0000
0000
0000
,
0001
0010
1000
0010
0001
1000
0010
1000
,
0001
0010
0001
0000
1000
0000
0000
0000
0100
0000
0010
0000
0001
0000
1000
0000
,
0010
0100
0010
0000
0100
0000
0000
0000
0001
0000
0000
0001
0100
0000
0000
0000
,
0001
0000
0000
0001
1000
0000
0000
0000
0100
0000
0000
0100
1000
0000
0001
0000
,
1000
0000
0100
0010
0001
1000
0010
1000
,
0001
0010
0001
0000
1000
0000
0000
0000
0100
0000
0010
0000
0001
0000
0010
0000
,
0100
1000
0100
0000
0010
0000
0000
0000
0001
0000
0001
0000
1000
0000
1010
0000
,
0000
0000
0100
0100
0001
1001
0000
0110
,
0000
0000
0010
0000
1000
0000
0001
0000
1001
0000
0000
0000
0100
0000
0000
0100
,
0001
0000
1000
0000
0100
0000
1100
0000
0000
0000
1100
0000
0000
0000
1000
0001
,
1000
0001
0100
0101
0000
0101
0000
0001
,
1000
0000
0100
0000
0010
0000
0110
0000
0000
0000
0010
0100
0010
0000
0100
0000
,
0001
0000
1000
0000
1100
0000
0000
0000
0100
0000
0000
1000
0001
0000
0010
0000
,
0100
0000
1100
0000
0000
0000
1100
0000
0000
0000
0100
1000
0100
0000
1000
0000
,
0001
0101
0000
0101
0000
0100
0010
1000
,
0001
0011
0000
0100
1000
0001
0021
0000
,
0000
0000
0000
0001
0000
0000
0000
0000
0000
0000
0000
0000
0030
0000
0001
0000
0010
0000
0001
0000
0010
0000
0100
0000
,
1000
0100
0010
0002
0000
0000
0000
0000
0000
0203
0000
0000
,
0000
0001
0000
0301
,
1000
0000
0100
1000
0000
0000
0001
0000
,
1001
0000
0000
1001
0000
0000
0100
0000
,
0101
0000
0001
1000
0100
0010
0001
1000
,
0000
0000
0010
0100
0010
0100
0010
1000
,
0010
1010
0100
0001
,
1000
0100
1000
0001
0000
2002
0000
0000
,
0000
0000
0000
3003
,
0110
0000
0000
0220
0000
0000
0000
0330
,
0000
2002
0000
0000
0000
0000
3003
0000
,
0101
0000
0000
0202
0000
0000
0303
0000
,
0001
1000
0010
2020
0000
0000
3030
0000
,
1001
0000
0000
2002
0000
0000
3003
0202
,
0000
0000
0000
0303
,
1001
0000
1000
1000
0001
1000
0100
1000
,
0001
0000
1000
1001
0000
0000
0001
0100
,
0001
0000
1000
0000
0100
1000
0100
0000
0010
0000
0000
0000
0001
0000
0100
0000
,
1000
0000
0100
0000
0001
1000
0001
0000
0010
0000
0100
0000
1000
0000
0000
1000
,
0100
0000
0000
0000
1000
0000
0000
1000
0001
0000
0000
0000
0100
0000
0000
0100
,
0001
1000
0100
0000
1000
0010
0100
0010
,
1000
0000
0100
0000
0010
0001
0010
0000
0001
0000
0000
0000
0100
0000
0000
0100
,
0001
0000
0000
0000
0010
0000
0000
0010
0100
0000
0000
0000
1000
0000
1000
0000
,
0001
0101
0000
0000
0100
0100
0001
1001
,
0000
1100
0000
0100
0010
0001
2001
0000
,
0000
3002
0000
0023
,
0000
0032
0000
0000
,
0023
0000
0000
0230
,
0000
0000
0000
0000
,
0000
0000
0000
0300
;

//---------------dance-double - ----------------
#NOTES:
     dance-double:
     :
     Easy:
     4:
     0.183,0.246,0.087,0.103,0.000:
10010000
00000000
00000000
00000000
00000000
00000000
00000000
10010000
,
00000000
00000000
00000000
00000000
00000000
00000000
00000000
01100000
,
00000000
00000000
00000000
00000000
00000000
00000000
00000000
01100000
,
00000000
00000000
00200000
00000000
,
00000000
00000000
00000000
00000000
,
00000000
00000000
00302000
00000000
,
00000000
00000000
00000000
00000000
,
00003000
00000000
00011000
00000000
,
00010000
00000000
00001000
00000000
,
00010000
00000000
00000100
00000000
,
00010000
00000000
00000010
00000100
,
00000010
00000100
00000010
00000000
,
00001000
00000000
00000001
00001000
,
00000001
00001000
00000100
00000000
,
00010000
00000000
00001000
00000000
,
00100000
01000000
20000000
00000000
,
00000000
00000000
30010000
00000000
,
00000000
00000000
02000000
00000000
,
00000000
00000000
03100000
00000000
,
00000000
00000000
20000000
00000000
,
00000000
00000000
31000000
00000000
,
00000000
00000000
00200000
00000000
,
00000000
00000000
00000000
00301000
00000000
00000000
00000000
00000000
,
00000000
00000000
00010000
00000000
,
00010000
00000000
00000001
00000000
,
00001000
00000010
00001000
00000000
,
00000010
00000000
00010000
00000000
,
00001000
01000000
00001000
00000000
,
01000000
00000000
00100000
01000000
,
00100000
00000000
10000000
01000000
,
10000000
00000000
00001000
01000000
,
00002000
00000000
00013000
00000000
,
00000100
00000000
00000010
00000000
,
00000001
00000100
00000001
00000000
,
00000010
00000000
00000100
00000000
,
00010000
00000100
00010000
00000000
,
00001000
00000000
01000000
00000000
,
00100000
00000000
10000000
00100000
,
10000000
00100000
10000000
00010000
,
10000000
00010000
00100000
00000000
,
00001000
00000000
00010000
00000000
,
00001000
00000000
00010000
00000000
,
00000010
00000000
00000100
00000000
,
00000001
00001000
00000000
00000100
,
00000000
00010000
00000000
00001000
,
00000000
01000000
00000000
00100000
,
00000000
10000000
01000000
00200000
,
00000000
00000000
00000000
00000000
,
00000000
00000000
00000000
02300000
,
00000000
00000000
00000000
00000000
,
00000000
00000000
00000000
13000000
,
00000000
00000000
00000000
00000000
,
00000000
00000000
00000000
00002000
,
00000000
00000000
00000000
00000000
,
00000000
00000000
00000000
00023000
,
00000000
00000000
00000000
00000000
00000000
00031000
00000000
00000000
,
00000000
00000000
00000000
00000000
,
00011000
00000000
00000000
00000000
,
00000000
00001001
00000000
00000000
00000000
00000000
00000000
00000000
,
00001001
00000000
00000000
00000000
,
00000010
00000100
00000010
00000000
,
00000110
00000000
00000000
00000000
00000000
00000000
00000000
00000110
,
00000000
00000000
00000000
00000000
,
00010001
00000000
00000000
00020000
,
00000000
00000000
00000000
00031000
00000000
00000000
10000000
00000000
,
00010000
10000000
00000000
01000000
,
10000000
01000000
00000000
10000000
,
00010000
10000000
00000000
00001000
,
00010000
00001000
00000000
00100000
,
00001000
00100000
00000000
00001000
,
00010000
00001000
00000000
00010000
,
00000100
00000010
00000001
00000010
,
00000100
00010000
00001000
00020000
,
00000000
00000000
00000000
00000000
,
00000000
00000000
00000000
00000000
,
00000000
00000000
00000000
00000000
,
00000000
00000000
00000000
00000000
,
00000000
00000000
00000000
00030000
;

//---------------dance-double - ----------------
#NOTES:
     dance-double:
     :
     Medium:
     7:
     0.341,0.430,0.229,0.237,0.000:
10010000
00000000
00000000
00000000
00000000
00000000
00000000
10000000
,
00000000
11000000
00000000
00000000
00000000
00000000
00000000
00001000
,
00000000
00101000
00000000
00000000
00000000
00000000
00000000
00010000
,
00000000
00011000
00000000
00000000
02002000
00000000
00000000
00000000
,
00000000
03000000
00000000
00000000
,
00003020
00000000
00000230
00000000
,
00000000
00000000
00000000
00000000
,
00000310
00000000
00001001
00000001
,
00001000
00000100
00001000
00000000
00000010
00010000
00000010
00000000
,
00010000
00000000
00001000
00000000
01000000
00000000
00100000
01000000
,
00000000
00010000
00100000
01000000
,
10000000
00100000
10000000
00000000
01000000
00000000
00100000
00001000
,
00100000
00000000
00001000
00010000
00000000
00000000
00000100
00000000
,
00000010
00000001
00002000
00000000
,
00003000
00000010
00000100
00000020
00000000
00000000
00000000
00000000
,
00000130
00000001
00020000
00001000
,
00000000
00031000
00000000
00000000
00000000
00000000
01100000
00000000
,
00000000
01100000
00000000
00000000
20000000
00000000
00100000
00000000
,
00000000
30100000
00000000
00000000
10000000
00000000
00001000
00000000
,
00011000
00000000
00010000
00000100
,
00000010
00000001
00001000
00000000
,
00001001
00000000
00000020
00000000
,
00002030
00000000
00000000
00003100
00000000
00000000
00000000
00000000
,
00000000
00000000
00011000
00010000
,
00001000
01000000
00100000
00000000
10000000
00100000
10000000
00000000
,
00010000
00100000
01000000
10000000
00010000
00000000
00100000
00000000
,
00001000
00010000
00000010
00000100
,
00000001
00000000
00000010
00000001
00001000
00000000
00000010
00000100
,
00000020
00000000
00000100
00000000
00000130
00000001
00001000
00000000
,
00001001
00000000
00000001
00010000
00001000
00000000
00010000
00001000
,
00010000
00000000
00001000
00100000
01000000
00000000
00000000
00000000
,
10000000
01000000
00100000
00010000
10000000
00000000
00001000
00000000
,
00010000
00000100
00010000
00000000
00000100
00000010
00000100
00000000
,
00001000
00000010
00000100
00000001
00000100
00000000
00000100
00000000
,
00000010
00000010
00010000
00001000
,
00100000
00000000
01000000
10000000
00020000
00000000
00000000
00000000
,
00030000
10000000
01000000
00100000
,
00001000
00000000
00010000
00000000
00000100
00000000
00001000
00000001
,
00000000
00000000
00001000
00000000
00000010
00000100
00000000
00000010
,
00000000
00010000
00001000
00010000
00002000
00000000
00000000
00000000
,
00000000
00000000
00000000
00100000
00000000
00103000
00000000
00000000
,
00000000
00000000
00000000
01100000
00000000
01100000
00000000
00000000
,
20000000
00000000
00000000
00010000
00000000
30010000
00000000
00000000
,
10000000
00010000
02000000
00000000
00000000
00000000
03020000
00000000
,
00000000
10000000
00000000
10030000
00000000
00000000
00001000
00000000
,
00020000
00001000
00000000
00031000
00000000
00000000
00010000
00000000
,
00200200
01000010
00000000
01300310
00000000
00000000
01001002
00000000
,
00000000
00000000
00000000
00000000
,
00000000
00000203
00000000
00000320
,
00000000
00000000
00000000
00000000
,
00000100
00000000
00000000
00000130
00000000
00000000
00000000
00000000
,
00001001
00000000
00000000
00001001
00000000
00000000
00000000
00000000
,
00010000
00000000
00001000
00010000
00000000
00000000
00002000
00000000
,
00000000
00000000
00000000
00000000
00000000
01003000
00000000
00000000
,
00000000
00000000
00100000
01000000
00100000
00000000
20000000
00000000
,
00000000
00000000
30002000
00000000
00000000
00020000
00000000
00000000
,
00000000
00000000
00000000
00000000
00000000
00033000
00000000
00000000
,
00011000
00000000
00000000
00011000
00000000
00000000
00000000
00000000
,
00000000
00000110
00000000
00000000
00000000
00000000
00000000
00000000
,
00001001
00000000
00000000
00001001
00000000
00000000
00000000
00000000
,
00010000
00001000
00010000
00002000
00000000
00000000
00003000
00000000
,
01100000
00000000
00000000
01100000
00000000
00000000
00000000
10010000
,
00000000
00000000
00000000
00000000
,
00011000
00000000
00000000
00010000
00001000
00000000
00000000
00020000
,
00000000
00000000
00000000
00030001
00000000
00000000
00000010
00000001
,
00000010
00000000
00000001
00000010
00000100
00000000
00010000
00000000
,
00001000
00000000
00100000
01000000
10000000
00010000
00100000
00000000
,
00100000
00000000
00001000
00000000
00001000
00000000
00010000
00000100
,
00000010
00000000
00000001
00000100
00000001
00000000
00000200
00000000
,
00000000
00000301
00000010
00000100
,
00010000
00001000
01000000
00100000
,
10000000
01000000
00000000
00000000
10000000
00000000
00010000
01000000
,
00000000
01000000
00000000
00001000
00010000
00000100
00000020
00000000
,
00000000
00000000
00000000
00000000
,
00000000
00000000
00000000
00000000
,
00000000
00000000
00000000
00000000
,
00000000
00000000
00000000
00000000
,
00000000
00000000
00000000
00000030
;

//---------------dance-double - ----------------
#NOTES:
     dance-double:
     :
     Hard:
     9:
     0.460,0.461,0.356,0.372,0.000:
10010000
00000000
00010000
00000000
00010000
10000000
01000000
00100000
,
00000000
01100000
00000000
00000000
00001000
00000000
00001000
00010000
,
00000000
00011000
00000000
00000000
00000010
00000000
00000100
00000001
,
00000000
00000001
00000010
00000100
00002000
00000000
00000000
00000000
,
00000000
00000000
00000000
00000000
,
00003200
00000000
00020300
00001000
,
00000000
00001000
00000000
00000000
00001000
00000000
00000000
00000000
,
00031000
00000000
00000000
00000000
10000000
00010000
00100000
00010000
,
00000000
10000000
01000000
10000000
00000000
00100000
01000000
00000000
,
00001000
00010000
00000010
00000100
00000001
00000100
00000000
00000010
,
00001000
00000010
00000100
00000001
00000000
00000010
00000200
00000000
,
00020300
00000000
00031000
00000000
01000000
00010000
10000000
00010000
,
00000000
01000000
00100000
01000000
00000000
00010000
20000000
00000000
,
32000000
00000000
03200000
00000000
00301000
00010000
00000100
00010000
,
00000000
00000010
00000100
00000020
00000000
00000100
00000130
00000000
,
00000002
00000000
00000023
00000000
00000230
00000000
00000310
00000001
,
00001000
00000001
00000000
00000000
00000000
00000000
00011000
00000000
,
00000000
00011000
00000000
00000000
00000000
00000000
01100000
00000000
,
00000000
01100000
00000000
00000000
00000000
00000000
10000000
01000000
,
00100000
00010000
00100000
01000000
10000000
01000000
00000000
00000000
,
10000000
00100000
01000000
00001000
00000000
00000000
00020000
00000000
,
00030200
00000320
00000032
00000000
,
00000203
00000000
00000000
00000310
00000000
00000000
00000000
00000000
,
00000000
00000000
00000000
00000000
00001000
00000010
00000100
00000000
,
00000001
00000100
00001000
00000000
00000100
00000001
00010000
00001000
,
00010000
00000010
00000100
00000010
00010000
00000000
00011000
00000000
,
00001000
00000000
01001000
00000000
01000000
00100000
10000000
01000000
,
00100000
00000000
00001000
01000000
00200000
00000000
01300000
00000000
,
00002000
00000000
00013000
00000000
00000010
00000100
00000001
00000100
,
00000010
00000000
00010000
00001000
00020000
00000000
00030100
00000000
,
00020000
00000000
00031000
00100000
01000000
10000000
00010000
00000000
,
10000000
00100000
00010000
00100000
10000000
01000000
00100000
00000000
,
00010000
01000000
10000000
00000000
01000000
00010000
10000000
00000000
,
00001000
00010000
00000100
00000010
00000001
00000000
00001001
00000000
,
00001000
00000000
00001100
00000000
00000100
00010000
00001000
01000000
,
00100000
00000000
10000000
00010000
00200000
00000000
00000000
00000000
,
00310000
00000000
10000000
00100000
01000000
00010000
00100000
01000000
,
10000000
00001000
00010000
00000000
00001000
00001000
00010000
00000100
,
00000000
00000000
00001000
00001000
00000001
00000010
00000000
00000011
,
00000000
00000001
00001000
00000100
00000010
00000000
00000000
00000000
,
00000110
00000000
00000000
00000001
00000000
00000101
00000000
00000100
,
00000001
00010000
00001000
00011000
00000000
00011000
00000000
00000000
,
01100000
00000000
00000000
11000000
00000000
10000000
00010000
00100000
,
00010000
00100000
00101000
00000000
00000000
00000000
00011000
00000000
,
00000000
00010000
00000000
00010010
00000000
00000010
00000100
00000001
,
00001000
00001001
00000000
00001001
00000000
00000001
00000010
00000100
,
00010000
00011000
00000000
00001000
01000000
00100000
02000000
00000000
,
00000000
00000000
00000000
03200000
,
00000000
20300000
00000000
30020000
,
00000000
00000000
00000000
00000000
,
10000000
00000000
00000000
10030000
00000000
00000000
00000000
00000000
,
01100000
00000000
00000000
01100000
00000000
00000000
00000000
00000000
,
00011000
00000000
00001000
00010000
00000000
00000100
00000010
00000100
,
00000000
00000000
00000000
00001000
00000001
00001000
00000000
00000001
,
00000010
00000100
00001000
00000000
00010000
00000000
00002000
00000000
,
00010000
00000000
00000000
00013000
00000000
00022000
00000000
00000000
,
00000000
00000000
00000000
00033000
,
01100000
00000000
00000000
02200000
00000000
00000000
00000000
03300000
,
00000000
20020000
00000000
00000000
00000000
00000000
30030000
00000000
,
10010000
00000000
00000000
02002000
00000000
00000000
03003000
00000000
,
01000000
00001000
00010000
00022000
00000000
00000000
00033000
00000000
,
00011000
00000000
00000000
00020020
00000000
00000000
00030030
00000220
,
00000000
00000000
00000000
00000330
,
00001001
00000000
00000000
00001001
00000000
00000000
00000000
00000000
,
00000000
00000000
00001001
00001100
00000000
00000000
00001000
00000001
,
00000010
00000000
00000001
00000010
00001000
00000000
00000010
00000001
,
00010000
00000100
00000010
00000001
00010000
00001000
00010000
00000000
,
00011000
00000000
00001000
00000000
01001000
00000000
01000000
00010000
,
10000000
01000000
00100000
00000000
00001000
00100000
00002000
00000000
,
00000000
00000000
00013000
00000000
00000010
00000100
00000002
00000000
,
00000203
00000000
00000320
00000000
00001030
00000000
00000001
00000001
,
00000010
00000100
00000000
00000000
00010000
00010000
00001000
00100000
,
00000000
00110000
00000000
00010000
10000000
00100000
02200000
00000000
,
00000000
00000000
00000000
00000000
,
00000000
00000000
00000000
00000000
,
00000000
00000000
00000000
00000000
,
00000000
00000000
00000000
00000000
,
00000000
00000000
00000000
03300000
;

//---------------dance-double - ----------------
#NOTES:
     dance-double:
     :
     Challenge:
     11:
     0.568,0.553,0.372,0.221,0.166:
00011000
00000000
00001000
00000000
00010000
00001000
01000000
00100000
,
00000000
00000000
01100000
00000000
00000000
00000000
10000000
00010000
10000000
00000000
01000000
00000000
00100000
00000000
00001000
00000000
,
00000000
00011000
00000000
00010000
00000100
00000001
00000100
00010000
,
00000000
00000100
00000010
00000001
00002001
00000000
00000000
00000000
,
00000000
00000000
00000000
00003000
00000001
00000010
00000001
00000010
00000100
00010000
00000100
00010000
,
00002000
00000000
00000000
00000000
00013000
00000000
00001000
10000000
,
01000000
10000000
00000000
10000000
00010000
00100000
00010000
00000000
,
10010000
00000000
00000000
00000000
00010000
10000000
00010000
10000000
,
00001000
00100000
00001000
00010000
00000000
00010000
00000100
00000010
,
00000001
00000010
00000100
00010000
00000010
00010000
00000001
00010000
,
00000001
00010000
00001000
01000000
00000000
01000000
00010000
00100000
,
10000000
00100000
00010000
01000000
00001000
00010000
00001000
00010000
,
00000010
00000100
00000010
00001000
00000000
00001000
00000001
00000010
,
00001000
00000010
00000001
00000000
00010000
00001000
01000000
00100000
,
00000000
00100000
10000000
10020000
00000000
00100000
00130000
00000000
,
00001000
00000000
00010000
00000000
00000110
00000000
00000100
00000010
,
00000001
00000010
00000100
00000000
00000000
00000000
00010010
00000000
,
00010000
00011000
00000000
00000000
00000000
00000000
00001000
01000000
,
00100000
10000000
00100000
00000000
10000000
00010000
00100000
10000000
,
00100000
00010000
01000000
00001000
00010000
00000000
00000100
00000010
,
00000001
00001000
00000100
00000010
00000000
00000001
00010000
00000000
,
00011000
00000000
00001000
00000000
01001000
00000000
01000000
00100000
,
10000000
01000000
00000000
11000000
00000000
00000000
00000000
00000000
,
00000000
00000000
00000000
00000000
10000000
01000000
10000000
01000000
,
10000000
00010000
10000000
00000000
00010000
00000000
00000000
00000000
00100000
00000000
00001000
00000000
00100000
00000000
00001000
00000000
,
00010000
00000010
00010000
00000000
00000010
00000000
00000000
00000000
00001000
00000000
00000000
00001000
00000001
00000000
00000000
00000000
,
00000010
00000000
00000000
00000010
00000100
00000000
00000000
00000000
00010000
00000000
00000000
00010000
00001000
00000000
00100000
00000000
,
01000000
10000000
01000000
10000000
00100000
00000000
01000000
00010000
,
01000000
00100000
01000000
00000000
00100000
00000000
10000000
00000000
01000000
00000000
00000000
00000000
10000000
00000000
00010000
00000000
,
10000000
00010000
10000000
00000000
00001000
00000000
00100000
00000000
00001000
00000000
00000000
00001000
00010000
00000000
00000000
00000000
,
00000010
00000000
00000000
00000010
00000100
00000000
00000001
00000000
00000010
00000000
00000100
00000000
00001000
00000000
00000000
00000000
,
00000001
00000010
00001000
00000010
00000001
00010000
00000100
00010000
,
00001000
00010000
00001000
00000000
01000000
00000000
00000000
00000000
00010000
00000000
00100000
00000000
01000000
00000000
10000000
00000000
,
00010000
00100000
00010000
00000000
00100000
00000000
00000000
00000000
00001000
00000000
00000000
00001000
00010000
00000000
00000000
00000000
,
00000010
00000000
00000000
00000010
00000100
00000000
00000000
00000000
00000001
00000000
00000000
00000001
00001000
00000000
00000100
00000000
,
00000010
00000000
00000001
00010000
00000100
00010000
00000100
00001000
,
01000000
00100000
01000000
00000000
00010000
00000000
00000000
00000000
00100000
00000000
01000000
00000000
10000000
00000000
00100000
00000000
,
01000000
00001000
01000000
00000000
00001000
00000000
00000000
00000000
00010000
00000000
00010000
00000000
00000010
00000000
00000110
00000000
,
00000000
00000000
00000001
00000001
00010000
00010100
00000000
00011000
,
00000000
00000000
00001000
00000000
01000000
00000000
00100000
00000000
10100000
00000000
00000000
00000000
10000000
00000000
00000000
10000000
,
00010000
00000000
00100000
00000000
00001000
00000000
00101000
00000000
00000000
00000000
00101000
00000000
00000000
00000000
00001000
00010000
,
00001000
00010000
00000010
00000110
00000000
00000110
00000000
00000100
,
00000001
00000000
00000010
00000000
00000100
00000000
00000110
00000000
00000000
00000000
00010000
00001000
00010000
00000000
00001000
00000000
,
01000000
00000000
00010000
00000000
01010000
00000000
00000000
00000000
10000000
00000000
00000000
10000000
00010000
00000000
00100000
00000000
,
00001000
00000000
00101000
00000000
00000000
00000000
00101000
00000000
00000000
00000000
00001000
00010000
00001000
00000000
00010000
00000000
,
00000100
00000110
00000000
00000110
00000000
00000010
00000100
00000001
,
00010000
00010100
00000000
00010000
00001000
01000000
01200000
00000000
,
00000000
00000000
00000000
01000000
00000000
00000000
00000000
00000000
00000000
00000000
00000000
00000000
00300000
00000000
10000000
00000000
01000000
00000000
10000000
00000000
01000000
00000000
00100000
00000000
,
00001000
00100000
00001000
00020000
00000000
00000000
00000000
00000000
00000000
00030020
00000000
00000000
,
00000000
00000230
00000000
00000302
,
00001000
00000000
00001000
00001003
00000000
00000000
00000000
00000000
,
00000011
00000000
00000000
00000011
00000000
00000000
00000000
00000000
,
00011000
00000000
00001000
00100000
01000000
10000000
01000000
10000000
,
00000000
00000000
00100000
01000000
00010000
01000000
00010000
00100000
,
00001000
00011000
00000100
00000010
,
00000001
00000100
00000001
00010000
00000000
00022000
00000000
00000000
,
00000000
00000000
00000000
00033000
,
01100000
00000000
00000000
02200000
00000000
00000000
00000000
03300000
,
00000000
20200000
00000000
00000000
00000000
00000000
30300000
00000000
,
10100000
00000000
00000000
00022000
00000000
00000000
00033000
00000000
,
00010000
00000010
00000100
00000220
00000000
00000000
00000330
00000000
,
00000110
00000000
00000000
00000022
00000000
00000000
00000033
00002002
,
00000000
00000000
00000000
00003003
,
00001001
00000000
00000001
00000001
00000010
00000100
00010000
00000100
,
00010000
00001000
01000000
00100000
00000000
00000000
10000000
01000000
,
10000000
00000000
01000000
00000000
10000000
00010000
10000000
00000000
00010000
00000000
00000000
00000000
00100000
00000000
00001000
00000000
,
00010000
00000000
00000010
00000000
00000100
00000001
00000100
00000000
00000001
00000000
00001000
00000000
00000001
00000000
00000000
00000001
,
00000100
00000000
00000000
00000000
00000010
00000000
00000000
00000010
00010000
00000000
00000000
00000000
00001000
00000000
00000000
00001000
,
10000000
01000000
00100000
00000000
00010000
10000000
00100000
10000000
,
00001000
00000000
00010000
00000000
00001000
01000000
00001000
00000000
01000000
00000000
00000000
00000000
00100000
00000000
00000000
00100000
,
01000000
00000000
00000000
00000000
00001000
00000000
00000000
00001000
00010000
00000000
00000000
00000000
00000010
00000000
00000010
00000000
,
00010000
00011000
00000000
00000000
00001000
00001000
01000000
01100000
,
00000000
10010000
00000000
10000000
00010000
00100000
00102000
00000000
,
00000000
00023000
00000000
00030200
,
00000000
00000320
00000000
00000000
,
00000032
00000000
00000000
00020003
,
00000000
00000000
00000000
00000000
,
00000000
00000000
00000000
00030000
;

//---------------dance-single - ----------------
#NOTES:
     dance-single:
     :
     Beginner:
     1:
     0.077,0.115,0.087,0.000,0.000: // measure 1
1001
0000
0000
0000
,  // measure 2
0001
0000
0000
0000
,  // measure 3
1000
0000
0000
0000
,  // measure 4
0100
0000
0000
0000
,  // measure 5
0000
0000
0000
0000
,  // measure 6
0000
0000
1000
0000
,  // measure 7
0000
0000
0000
0000
,  // measure 8
0000
0000
0001
0000
,  // measure 9
0000
0000
0010
0000
,  // measure 10
0000
0000
0001
0000
,  // measure 11
0000
0000
0010
0000
,  // measure 12
0000
0000
0100
0000
,  // measure 13
0000
1000
0000
0000
,  // measure 14
0000
0000
0001
0000
,  // measure 15
0000
0000
1000
0000
,  // measure 16
0000
0000
1001
0000
,  // measure 17
0000
0000
0000
0000
,  // measure 18
0000
0000
0001
0000
,  // measure 19
0000
0000
0000
0000
,  // measure 20
0000
0000
1000
0000
,  // measure 21
0000
0000
0000
0000
,  // measure 22
0000
0000
0001
0000
,  // measure 23
0000
0000
0000
0000
,  // measure 24
0000
0000
1001
0000
,  // measure 25
0000
0000
1000
0000
,  // measure 26
0000
0000
0100
0000
,  // measure 27
0000
0000
1000
0000
,  // measure 28
0000
0000
0100
0000
,  // measure 29
0000
0000
0010
0000
,  // measure 30
0000
0000
0100
0000
,  // measure 31
0000
0000
0010
0000
,  // measure 32
0000
0000
1001
0000
,  // measure 33
0000
0000
0001
0000
,  // measure 34
0000
0000
0100
0000
,  // measure 35
0000
0000
0001
0000
,  // measure 36
0000
0000
0100
0000
,  // measure 37
0000
0000
0010
0000
,  // measure 38
0000
0000
1000
0000
,  // measure 39
0000
0000
0000
0000
,  // measure 40
0000
0000
1001
0000
,  // measure 41
0000
0000
0000
0000
,  // measure 42
0000
0000
0001
0000
,  // measure 43
0000
0000
0000
0000
,  // measure 44
0000
0010
0000
0000
,  // measure 45
0000
0000
0000
0000
,  // measure 46
0100
0000
0000
0000
,  // measure 47
0000
0000
0000
1000
,  // measure 48
0000
0000
0000
0000
,  // measure 49
0000
0000
0000
1001
,  // measure 50
0000
0000
0000
0000
,  // measure 51
0000
0000
0000
0000
,  // measure 52
0001
0000
0000
0000
,  // measure 53
0000
0000
0000
1000
,  // measure 54
0000
0000
0000
0000
,  // measure 55
0000
0000
0000
0001
,  // measure 56
0000
0000
1000
0000
,  // measure 57
0000
0000
0000
0000
,  // measure 58
1001
0000
0000
0000
,  // measure 59
0001
0000
0000
0000
,  // measure 60
1001
0000
0000
0000
,  // measure 61
1000
0000
0000
0000
,  // measure 62
1001
0000
0000
0000
,  // measure 63
0000
0000
0000
0000
,  // measure 64
1001
0000
0000
0000
,  // measure 65
0000
0000
0000
0001
,  // measure 66
0000
0000
0000
0010
,  // measure 67
0000
0000
0000
0001
,  // measure 68
0000
0000
0000
0010
,  // measure 69
0000
0000
0000
0100
,  // measure 70
0000
0000
0000
1000
,  // measure 71
0000
0000
0000
0100
,  // measure 72
0000
0000
0100
0000
,  // measure 73
0000
0000
0000
1001
;
