#TITLE:コードネイムはLady-X;
#SUBTITLE:(ニューレディーX&ベストヒット80's MEGA-MIX);
#ARTIST:藤田圭宣 Remix by 8bit Project;
#TITLETRANSLIT:CODENAME WA Lady-X;
#SUBTITLETRANSLIT:(NEW LADY X & BEST HIT 80's MEGA-MIX);
#ARTISTTRANSLIT:YOSHINORI FUJITA Remix by 8bit Project;
#CREDIT:DigiMindAxel;
#BANNER:CODENAME WA Lady-X (NEW LADY X & BEST HIT 80's MEGA-MIX).png;
#BACKGROUND:CODENAME WA Lady-X (NEW LADY X & BEST HIT 80's MEGA-MIX)-bg.png;
#LYRICSPATH:CODENAME WA Lady-X (NEW LADY X & BEST HIT 80's MEGA-MIX).lrc;
#CDTITLE:DigiMindAxel original simfile.png;
#MUSIC:CODENAME WA Lady-X (NEW LADY X & BEST HIT 80's MEGA-MIX).ogg;
#METERTYPE:DDR X;
#OFFSET:-8.298;
#SAMPLESTART:53.504;
#SAMPLELENGTH:12.000;
#SELECTABLE:YES;
#BPMS:0.000=115.020,11.000=153.360,161.000=115.020;
#STOPS:10.000=0.522
,107.000=1.174
,160.000=1.174
;
#BGCHANGES:-16.000=CODENAME WA Lady-X (NEW LADY X & BEST HIT 80's MEGA-MIX).avi=1.000=1=1=0,
99999=-nosongbg-=1.000=0=0=0 // don't automatically add -songbackground-
;

//---------------dance-single - ----------------
#NOTES:
     dance-single:
     :
     Hard:
     13:
     0.549,0.695,0.244,0.189,0.333:
0001
0000
0000
0001
0000
0000
0001
0000
1000
0000
0000
0100
0000
0000
0100
0000
,
0000
0010
0100
0000
1000
0010
0000
0000
1001
0000
1001
0000
0000
0000
0100
0000
,
0000
0101
0000
0101
0000
0000
0000
0000
0000
0000
0000
0000
0001
0000
0010
0000
,
0100
1000
0001
0010
0000
0000
0000
0000
,
0000
0000
0000
0000
0000
0000
0001
1000
,
0010
0100
0001
1000
0000
0000
0000
0000
,
0000
0000
0000
0000
0000
0000
0001
0010
,
0100
0010
0001
1000
0000
0000
0000
0000
,
0000
0000
0000
0000
0000
0000
0100
0010
,
0001
0010
0100
1000
0000
0000
0000
0000
,
0001
0000
0000
0000
0000
0000
0001
0000
0001
0000
1000
0001
1000
0000
0010
0000
,
0100
0001
0100
1000
0100
0000
0001
0100
,
0010
1000
0010
0001
0010
0000
1000
0100
,
0001
0100
0010
0001
1000
0100
0001
0100
,
1000
0010
0220
0000
0330
0000
0001
0010
,
0100
1000
0001
0010
1000
0000
0010
0001
,
0010
0100
1000
0010
0100
0000
0001
0100
,
1000
0100
0001
1000
0100
0000
0010
0100
,
1000
0010
0001
0010
1000
0000
0002
0000
,
1003
0100
0002
0000
0103
1000
0020
0000
,
1030
0100
0002
0000
0103
1000
0001
0010
,
0100
0000
2100
0000
3001
1000
0100
0010
,
0001
0010
0200
0000
1300
0000
0020
0000
,
1030
0001
0200
0000
0301
0010
2000
0000
,
3010
0001
0200
0000
0301
0100
2000
0000
,
3100
0000
0001
0000
0010
0000
0100
0000
1000
0000
0001
0000
0100
0000
0010
1000
,
0010
1000
0000
0001
0100
0001
0000
1000
0002
0000
0000
0000
0003
0000
0000
0000
,
1000
0010
0100
0001
0100
1000
0100
0010
,
0000
2000
0000
3010
0100
0001
0101
0000
,
0001
0000
0010
0000
0100
0000
1000
0000
0001
0100
0010
0100
0001
0000
0000
0000
,
1000
0000
0100
0000
0001
0000
1000
0000
0010
0000
0001
0000
1000
0001
1000
0000
,
0001
0100
0010
1000
0100
0001
0100
0010
,
0000
0002
0000
0103
0010
1000
1100
0000
,
1000
0000
0100
0000
0010
0000
0001
0000
1000
0010
0100
0010
1000
0000
0000
0000
,
0001
0000
0100
0000
1000
0000
0001
0000
0010
0000
1000
0000
0001
1000
0001
0000
,
0100
0001
0100
0001
0100
0001
0100
0001
0100
0000
0000
1001
0000
0000
0001
0000
,
1000
0100
1000
0100
1000
0100
1000
0100
1000
0000
0000
1001
0000
0000
1000
0000
,
0001
0010
0001
0010
0001
0010
0001
0010
0001
0000
0000
1001
0000
0000
1000
0000
,
0010
1000
0010
1000
0010
1000
0010
1000
0010
0000
0000
1001
0000
0000
0001
0000
,
0100
0010
0100
0010
0100
0010
0100
0010
0100
0010
0100
0010
0100
0000
0110
0000
,
0000
0000
0000
0000
1010
0000
0000
1000
0000
0000
1000
0000
0001
0000
0000
0010
,
0000
0000
0010
0000
0000
0100
0010
0000
0001
0100
0000
0000
0010
0000
0000
0010
,
0000
0000
1000
0000
0100
0000
0000
1100
0000
0000
0000
0000
0000
0000
1001
0000
,
0000
0101
0000
0000
1001
0000
0000
1000
0000
0000
1000
0000
0010
0000
0000
0100
,
0000
0000
0100
0000
0000
0001
1000
0000
0100
0010
0000
0000
0101
0000
0101
0000
,
0000
0000
0000
0000
0000
0000
0000
0000
0010
0000
0000
0000
0000
0000
0000
0000
0000
0000
0000
0000
1001
0000
0000
0000
0000
0000
0000
0000
1001
0000
0000
0000
0000
0000
0000
0000
0000
0000
0000
0000
0000
0000
0000
0000
0000
2000
0000
0000
0000
0000
0000
0000
0000
0000
0000
0000
0000
0000
0000
0000
0000
0000
0000
0000
,
0000
0000
0000
0000
0000
0000
0000
0000
0000
0000
0000
0000
0000
0000
0000
0000
0000
0000
0000
0001
0000
0000
0000
0000
0000
3001
0000
0000
0000
0000
0000
0000
0000
0000
0000
0000
0000
0000
0000
0000
0000
0000
0000
0000
0000
0000
0000
0000
0000
0000
0000
0000
0000
0000
0000
0000
0000
0000
0000
0000
0000
0000
0000
0000
;

//---------------dance-single - ----------------
#NOTES:
     dance-single:
     :
     Medium:
     8:
     0.411,0.386,0.278,0.300,0.105:
1000
0000
0000
1000
0000
0000
1000
0000
0001
0000
0000
0100
0000
0000
0100
0000
,
0000
0110
0000
0000
0110
0000
0000
0000
2002
0000
3003
0000
0000
0000
0000
0000
,
0000
2002
0000
3003
0000
0000
0000
0000
0000
0000
0000
0000
0100
0000
0010
0000
,
0100
0001
0010
0100
0000
0000
0000
0000
,
0000
0000
0000
0000
0000
0000
1000
0001
,
1000
0010
0100
0001
0000
0000
0000
0000
,
0000
0000
0000
0000
0000
0000
1000
0100
,
1000
0001
0010
0100
0000
0000
0000
0000
,
0000
0000
0000
0000
0000
0000
1000
0010
,
1000
0001
0010
0100
0000
0000
0000
0000
,
1000
0000
0000
1000
1000
0000
0001
0100
,
0001
0000
1000
0000
0100
0000
1000
0010
,
1000
0000
0001
0000
0010
0000
0001
1000
,
0001
0100
0010
0200
,
0310
0000
0110
0000
0000
0000
1000
0100
,
1000
0000
0001
0000
0100
0000
0001
0100
,
0001
0000
1000
0000
0100
0000
1000
0001
,
1000
0000
0010
0000
0100
0000
0010
0100
,
0010
0000
0100
0010
0100
0000
0002
0000
,
0103
0002
0103
0200
,
0310
0200
0310
2000
,
3001
0110
0000
0002
,
1003
0110
0000
2000
,
3010
2000
3010
0020
,
0130
0020
0130
0002
,
1003
0020
0130
2002
,
0000
0000
0000
3003
,
0001
0010
0100
0000
1100
0000
0000
0020
,
0000
1030
0001
0010
0100
0000
0110
0000
,
1000
0100
0010
0000
0101
0000
0110
0000
,
0001
0100
0010
1000
0100
0010
0001
0000
,
1000
0100
0010
0000
0011
0000
0000
0200
,
0000
0301
1000
0100
0010
0000
0110
0000
,
0001
0010
0100
0000
1100
0000
0110
0000
,
1000
0010
0100
0001
0010
0100
1000
0000
,
0010
0000
1000
0000
0100
0000
0001
0000
0100
0000
0000
1000
0000
0000
0001
0000
,
1000
0000
0100
0000
0001
0000
0100
0000
1000
0000
0000
0010
0000
0000
0100
0000
,
0001
0000
0010
0000
1000
0000
0010
0000
0001
0000
0000
0100
0000
0000
0010
0000
,
1000
0000
0100
0000
0001
0000
0100
0000
1000
0000
0000
0010
0000
0000
0100
0000
,
0001
0010
1000
0010
0001
1000
0100
0010
,
0000
0000
0000
0000
0001
0000
0000
0001
0000
0000
1001
0000
0000
0000
0000
0100
,
0000
0000
0100
0000
0000
0110
0000
0000
1001
0000
0000
0000
1000
0000
0000
0010
,
0000
0000
0110
0000
0000
0000
0000
1001
0000
0000
0000
0000
0000
0000
0002
0000
,
0000
1003
0000
0000
1000
0000
0000
1000
0000
0000
1000
0000
0001
0000
0000
0100
,
0000
0000
0100
0000
0000
0110
0000
0000
1001
0000
0000
0000
2200
0000
3300
0000
,
0000
0000
0000
0000
0000
0000
0000
0000
0000
0000
0000
0000
0000
0000
0000
0000
0000
0000
0000
0000
0022
0000
0000
0000
0000
0000
0000
0000
0033
0000
0000
0000
0000
0000
0000
0000
0000
0000
0000
0000
0000
0000
0000
0000
0000
0200
0000
0000
0000
0000
0000
0000
0000
0000
0000
0000
0000
0000
0000
0000
0000
0000
0000
0000
,
0000
0000
0000
0000
0000
0000
0000
0000
0000
0000
0000
0000
0000
0000
0000
0000
0000
0000
0000
0000
0000
0000
0000
0000
0000
0300
0000
0000
0000
0000
0000
0000
0000
0000
0000
0000
0000
0000
0000
0000
0000
0000
0000
0000
0000
0000
0000
0000
0000
0000
0000
0000
0000
0000
0000
0000
0000
0000
0000
0000
0000
0000
0000
0000
;

//---------------dance-single - ----------------
#NOTES:
     dance-single:
     :
     Easy:
     5:
     0.252,0.252,0.133,0.444,0.039: // measure 1
0002
0000
0000
0000
0000
0000
1003
0000
0000
0000
0000
0020
0000
0000
0000
0000
,  // measure 2
0000
0130
0000
0000
0000
0000
0000
0000
1001
0000
0000
0000
0000
0000
0000
0000
,  // measure 3
0000
1001
0000
0000
0000
0000
0000
0000
0000
0000
0000
0000
0100
0000
0000
0000
,  // measure 4
1000
0010
0001
0000
,  // measure 5
0000
0000
0000
0010
,  // measure 6
1000
0100
0001
0000
,  // measure 7
0000
0000
0000
0100
,  // measure 8
0010
0001
1000
0000
,  // measure 9
0000
0000
0000
0100
,  // measure 10
0010
0001
0100
0000
,  // measure 11
0100
0000
0100
0020
,  // measure 12
0000
1030
0001
0200
,  // measure 13
0000
0301
1000
0020
,  // measure 14
0000
1030
0001
0200
,  // measure 15
0000
0310
0110
0002
,  // measure 16
0000
1003
0100
2000
,  // measure 17
0000
3001
0010
0002
,  // measure 18
0000
0103
0010
0200
,  // measure 19
0000
0310
0100
0002
,  // measure 20
0003
2000
3000
0002
,  // measure 21
0003
2000
3000
0002
,  // measure 22
0003
0200
0300
0020
,  // measure 23
0030
2000
3000
0002
,  // measure 24
0003
0200
0300
0020
,  // measure 25
0030
2000
3000
0020
,  // measure 26
0030
0200
0300
0220
,  // measure 27
0000
0000
0000
0330
,  // measure 28
0100
0010
0100
0000
,  // measure 29
0001
0010
0100
0000
,  // measure 30
1000
0001
1000
0000
,  // measure 31
0001
0010
0100
1000
,  // measure 32
0010
0100
0010
0000
,  // measure 33
1000
0100
0010
0000
,  // measure 34
0001
1000
0001
0000
,  // measure 35
0100
0001
0010
0100
,  // measure 36
2002
0000
3003
0000
,  // measure 37
0220
0000
0330
0000
,  // measure 38
2002
0000
3003
0000
,  // measure 39
0220
0000
0330
0000
,  // measure 40
2002
0000
0000
0000
,  // measure 41
3003
0000
0000
0000
2000
0000
0000
0000
0000
0000
3100
0000
0000
0000
0000
0020
,  // measure 42
0000
0000
0031
0100
,  // measure 43
0000
1000
0000
0000
0000
0000
0000
1001
,  // measure 44
0000
0000
0000
0000
0002
0000
0000
0000
0000
0000
0103
0000
0000
0000
0000
0020
,  // measure 45
0000
0000
0000
0000
0000
1030
0000
0000
0000
0000
0000
0000
0110
0000
0000
0000
,  // measure 46
0000
0000
0000
0000
0000
0110
0000
0000
0000
0000
0000
0000
0000
0000
0000
0000
;

//---------------dance-single - ----------------
#NOTES:
     dance-single:
     :
     Beginner:
     2:
     0.078,0.149,0.122,0.000,0.000:
1000
0000
0000
0000
,
0000
0000
1001
0000
,
0000
0000
0000
0001
,
0000
0000
0000
0000
,
0000
0000
0000
1000
,
0000
0000
0000
0000
,
0000
0000
0000
0001
,
0000
0000
0000
0000
,
0000
0000
0000
1000
,
0000
0000
0000
0000
,
0000
0000
0000
0010
,
0000
0000
0000
0010
,
0000
0000
0000
0010
,
0000
0000
0000
0110
,
0000
0000
0000
0100
,
0000
0000
0000
0100
,
0000
0000
0000
0100
,
0000
0000
0000
0100
,
0000
0000
0000
1001
,
0000
0000
0000
0000
,
0000
0000
0000
0001
,
0000
0000
0000
1000
,
0000
0000
0000
1001
,
0000
0000
0000
0000
,
0000
0000
0000
0001
,
0000
0000
0000
1000
,
0000
0000
0000
0000
,
0001
0000
0000
0000
,
0000
0000
0000
0000
,
1000
0000
0001
0000
,
1000
0000
0000
0000
,
0010
0000
0000
0000
,
0100
0000
0000
0000
,
0010
0000
0010
0000
,
0110
0000
0000
0000
,
1001
0000
0000
0000
,
1001
0000
0000
0000
,
1001
0000
0000
0000
,
1001
0000
0000
0000
,
1001
0000
0000
0000
,
0000
1000
0000
0000
,
0000
0000
0000
0001
,
0000
0000
0000
0000
,
0000
1000
0000
0000
,
0000
0000
0000
1001
;

//---------------dance-double - ----------------
#NOTES:
     dance-double:
     :
     Easy:
     5:
     0.243,0.252,0.144,0.377,0.044:
10000000
00000000
00000000
00000000
00000000
00000000
01000000
00000000
00000000
00000000
00000000
10000000
00000000
00000000
00000000
00000000
,
00000000
10000000
00000000
00000000
00000000
00000000
00000000
00000000
10010000
00000000
00000000
00000000
00000000
00000000
00000000
00000000
,
00000000
10010000
00000000
00000000
00000000
00000000
00000000
00000000
00000000
00000000
00000000
00000000
10000000
00000000
00000000
00000000
,
01000000
00100000
00010000
00000000
,
00000000
00000000
00000000
01000000
,
00001000
00010000
00001000
00000000
,
00000000
00000000
00000000
00010000
,
00000010
00000100
00000010
00000000
,
00000000
00000000
00000000
00001000
,
00000001
00000010
00000100
00000000
,
00011000
00000000
00000000
00002000
,
00000000
00013000
00001000
02000000
,
00000000
03100000
01000000
00200000
,
00000000
10300000
00010000
20000000
,
00000000
30001000
00011000
00020000
,
00000000
00030010
00000100
00000020
,
00000000
00001030
00000100
00002000
,
00000000
00003001
00001000
00000002
,
00000000
00001003
00000100
00020000
,
00030000
00002000
00003000
02000000
,
03000000
00200000
00300000
20000000
,
30000000
00200000
00300000
02000000
,
03000000
00002000
00003000
00020000
,
00030000
00000200
00000300
00000020
,
00000030
00000002
00000003
00000020
,
00000030
00000200
00000300
00000220
,
00000000
00000000
00000000
00000330
,
00000100
00000010
00000100
00000000
,
00000001
00000010
00000100
00000000
,
00010000
00000010
00010000
00000000
,
00000001
00000010
00000100
00010000
,
00001000
01000000
00100000
00000000
,
10000000
00010000
10000000
00000000
,
00001000
00100000
00001000
00000000
,
10000000
01000000
00100000
00001000
,
00022000
00000000
00033000
00000000
,
00000220
00000000
00000330
00000000
,
00022000
00000000
00033000
00000000
,
02200000
00000000
03300000
00000000
,
20020000
00000000
00000000
00000000
,
30030000
00000000
00000000
00000000
10000000
00000000
00000000
00000000
00000000
00000000
00100000
00000000
00000000
00000000
00000000
01000000
,
00000000
00000000
00000000
00000000
00000000
01000000
00000000
00000000
00000000
00000000
00000000
00000000
00001000
00000000
00000000
00000000
,
00000000
00100000
00000000
00000000
00000000
00000000
00000000
00011000
,
00000000
00000000
00000000
00000000
00001000
00000000
00000000
00000000
00000000
00000000
00010000
00000000
00000000
00000000
00000000
00000010
,
00000000
00000000
00000000
00000000
00000000
00000010
00000000
00000000
00000000
00000000
00000000
00000000
00000110
00000000
00000000
00000000
,
00000000
00000000
00000000
00000000
00000000
00000110
00000000
00000000
00000000
00000000
00000000
00000000
00000000
00000000
00000000
00000000
;

//---------------dance-double - ----------------
#NOTES:
     dance-double:
     :
     Medium:
     8:
     0.404,0.386,0.255,0.233,0.105:
10000000
00000000
00000000
10000000
00000000
00000000
10000000
00000000
00000000
00000000
00000000
00001000
00000000
00000000
00001000
00000000
,
00000000
01001000
00000000
00000000
01001000
00000000
00000000
00000000
01100000
00000000
00000000
00000000
00000000
00000000
00000000
00000000
,
00000000
01100000
00000000
00000000
00000000
00000000
00000000
00000000
00000000
00000000
00000000
00000000
01000000
00000000
10000000
00000000
,
01000000
10000000
00100000
01000000
00000000
00000000
00000000
00000000
,
00000000
00000000
00000000
00000000
00000000
00000000
00001000
00010000
,
00001000
00010000
00000010
00000100
00000000
00000000
00000000
00000000
,
00000000
00000000
00000000
00000000
00000000
00000000
00000001
00001000
,
00000001
00001000
00000100
00010000
00000000
00000000
00000000
00000000
,
00000000
00000000
00000000
00000000
00000000
00000000
00001000
10000000
,
00001000
10000000
01000000
00100000
00000000
00000000
00000000
00000000
,
00001000
00000000
00000000
00001000
00001000
00000000
10000000
01000000
,
10000000
00000000
00100000
00000000
01000000
00000000
00001000
00010000
,
00000010
00000000
00000100
00000000
00000001
00000000
00001000
00000100
,
00001000
00000100
00010000
00002000
,
00013000
00000000
00011000
00000000
00000000
00000000
01000000
00100000
,
01000000
00000000
00010000
00000000
10000000
00000000
00100000
10000000
,
00001000
00000000
00010000
00000000
00001000
00000000
00010000
00000100
,
00010000
00000000
00000010
00000000
00000100
00000000
00000001
00000100
,
00000001
00000000
00001000
00000001
00001000
00000000
00000002
00000000
,
00000203
00000302
00002003
00003200
,
00020300
00000000
00032000
00000000
00023000
00000000
00031000
10000000
,
00100000
00000000
10100000
00000000
00000000
10000000
00100000
01000000
,
00100000
01100000
00000000
20000000
,
32000000
23000000
30020000
02030000
,
03002000
00000000
00023000
00000000
00030010
00000100
00000010
00000000
,
00001000
00000001
00001000
00000100
00010000
00000000
00022000
00000000
,
00000000
00000000
00000000
00033000
,
00001000
00100000
01000000
00000000
01100000
00000000
00000000
20000000
,
00000000
30010000
10000000
01000000
00100000
00000000
01100000
00000000
,
00001000
00010000
00001000
00000000
00011000
00000000
00010100
00000000
,
00010000
00000010
00000100
00000001
00000100
00000010
00010000
00000000
,
00000001
00000100
00000010
00000000
00000110
00000000
00000000
00002000
,
00000000
00003001
00001000
00000100
00000010
00000000
00000110
00000000
,
00010000
00001000
00010000
00000000
00011000
00000000
01001000
00000000
,
00001000
00100000
01000000
10000000
01000000
00100000
00001000
00000000
,
00010000
00000000
00000100
00000000
00000010
00000000
00000001
00000000
00001000
00000000
00000000
00001000
00000000
00000000
00001000
00000000
,
00000100
00000000
00010000
00000000
00001000
00000000
00100000
00000000
01000000
00000000
00000000
01000000
00000000
00000000
01000000
00000000
,
10000000
00000000
00100000
00000000
01000000
00000000
00001000
00000000
00010000
00000000
00000000
00010000
00000000
00000000
00010000
00000000
,
00000100
00000000
00000010
00000000
00000001
00000000
00000010
00000000
00000100
00000000
00000000
00000100
00000000
00000000
00000100
00000000
,
00010000
00001000
01000000
00100000
10000000
01000000
00100000
00010000
,
00000000
00000000
00000000
00000000
10000000
00000000
00000000
10000000
00000000
00000000
10000000
00000000
00000000
00000000
00000000
00001000
,
00000000
00000000
00001000
00000000
00000000
01001000
00000000
00000000
01001000
00000000
00000000
00000000
00010000
00000000
00000000
00010000
,
00000000
00000000
00010000
00000000
00000000
00000000
00000000
00000110
00000000
00000000
00000000
00000000
00000000
00000000
00001000
00000000
,
00000000
00001000
00000000
00000000
00000010
00000000
00000000
00000010
00000000
00000000
00000010
00000000
00000000
00000000
00000000
00010000
,
00000000
00000000
00010000
00000000
00000000
00010100
00000000
00000000
00010100
00000000
00000000
00000000
01100000
00000000
00000000
00000000
,
00000000
00000000
00000000
00000000
00000000
00000000
00000000
00000000
00000000
00000000
00000000
00000000
00000000
00000000
00000000
00000000
00000000
00000000
00000000
00000000
01100000
00000000
00000000
00000000
00000000
00000000
00000000
00000000
00000000
00000000
00000000
00000000
00000000
00000000
00000000
00000000
00000000
00000000
00000000
00000000
00000000
00000000
00000000
00000000
00000000
00200000
00000000
00000000
00000000
00000000
00000000
00000000
00000000
00000000
00000000
00000000
00000000
00000000
00000000
00000000
00000000
00000000
00000000
00000000
,
00000000
00000000
00000000
00000000
00000000
00000000
00000000
00000000
00000000
00000000
00000000
00000000
00000000
00000000
00000000
00000000
00000000
00000000
00000000
00000000
00000000
00000000
00000000
00000000
00000000
00300000
00000000
00000000
00000000
00000000
00000000
00000000
00000000
00000000
00000000
00000000
00000000
00000000
00000000
00000000
00000000
00000000
00000000
00000000
00000000
00000000
00000000
00000000
00000000
00000000
00000000
00000000
00000000
00000000
00000000
00000000
00000000
00000000
00000000
00000000
00000000
00000000
00000000
00000000
;

//---------------dance-double - ----------------
#NOTES:
     dance-double:
     :
     Hard:
     13:
     0.550,0.721,0.300,0.189,0.333:
10000000
00000000
00000000
10000000
00000000
00000000
10000000
00000000
00010000
00000000
00000000
01000000
00000000
00000000
01000000
00000000
,
00000000
00001000
00010000
00000000
00001000
00010000
00000000
00000000
00010100
00000000
00010100
00000000
00000000
00000000
00000100
00000000
,
00000000
00000110
00000000
00000110
00000000
00000000
00000000
00000000
00000000
00000000
00000000
00000000
00000001
00000000
00000010
00000000
,
00000100
00001000
00000100
00000010
00000000
00000000
00000000
00000000
,
00000000
00000000
00000000
00000000
00000000
00000000
00000001
00001000
,
00000100
00010000
00001000
01000000
00000000
00000000
00000000
00000000
,
00000000
00000000
00000000
00000000
00000000
00000000
00010000
10000000
,
01000000
00100000
00010000
01000000
00000000
00000000
00000000
00000000
,
00000000
00000000
00000000
00000000
00000000
00000000
00010000
01000000
,
00001000
00010000
00000010
00000100
00000000
00000000
00000000
00000000
,
00000001
00000000
00000000
00000000
00000000
00000000
00000001
00000000
00000001
00000000
00001000
00000001
00001000
00000000
00000010
00000000
,
00000100
00000001
00001000
00000010
00000100
00000000
00000001
00010000
,
00001000
00100000
01000000
10000000
01000000
00000000
10000000
01000000
,
00100000
00010000
10000000
01000000
00100000
00001000
00010000
00000010
,
00000100
00000010
00000220
00000000
00000330
00000000
00000010
00000100
,
00000001
00000010
00000100
00010000
00001000
00000000
01000000
00100000
,
10000000
00010000
00100000
01000000
00100000
00000000
00001000
00010000
,
00000100
00000010
00000001
00000010
00000100
00000000
00010000
00001000
,
00100000
01000000
10000000
00100000
01000000
00000000
00002000
00000000
,
10003000
01000000
00200000
00000000
01300000
00100000
00002000
00000000
,
00013000
00000010
00000200
00000000
00000301
00000100
00000010
00010000
,
00001000
00000000
00021000
00000000
00031000
00100000
01000000
10000000
,
01000000
00100000
00020000
00000000
01030000
00000000
00002000
00000000
,
00013000
00000010
00000200
00000000
00000310
00000100
00000002
00000000
,
00000013
00000100
00020000
00000000
00031000
00100000
02000000
00000000
,
03100000
00000000
00010000
00000000
01000000
00000000
00001000
00000000
00010000
00000000
00000010
00000000
00000100
00000000
00000001
00001000
,
00000001
00001000
00000000
00000100
00010000
00000100
00000000
00010000
00002000
00000000
00000000
00000000
00003000
00000000
00000000
00000000
,
00010000
00000001
00000010
00000100
00001100
00000000
00000000
00002000
,
00000000
01003000
00010000
00100000
01000000
10000000
10100000
00000000
,
10000000
00000000
00010000
00000000
00100000
00000000
00000000
00000000
00001000
01000000
00100000
01000000
00001000
00000000
00000000
00000000
,
00010000
00000000
00000100
00000000
00000001
00000000
00000100
00000000
00010000
00000000
00000001
00000000
00000100
00000010
00000100
00000000
,
00000001
00001000
00000100
00010000
00011000
00000000
00000000
00002000
,
00000000
10003000
00010000
00100000
01000000
10000000
10100000
00000000
,
00100000
00000000
01000000
00000000
00001000
00000000
00000000
00000000
00010000
00000100
00000010
00000100
00010000
00000000
00000000
00000000
,
00001000
00000000
01000000
00000000
10000000
00000000
01000000
00000000
00001000
00000000
00100000
00000000
01000000
00100000
01000000
00000000
,
10000000
00100000
10000000
00100000
10000000
00100000
10000000
00100000
10000000
00000000
00000000
10001000
00000000
00000000
01001000
00000000
,
00001000
00010000
00001000
00010000
00001000
00010000
00001000
00010000
00001000
00000000
00000000
00011000
00000000
00000000
00010100
00000000
,
00000100
00000010
00000100
00000010
00000100
00000010
00000100
00000010
00000100
00000000
00000000
00000110
00000000
00000000
00010010
00000000
,
00010000
00001000
00010000
00001000
00010000
00001000
00010000
00001000
00010000
00000000
00000000
00011000
00000000
00000000
01010000
00000000
,
01000000
00100000
01000000
00100000
01000000
00100000
01000000
00100000
01000000
00100000
01000000
00100000
01000000
00000000
01100000
00000000
,
00000000
00000000
00000000
00000000
10010000
00000000
00000000
00010000
00000000
00000000
00010000
00000000
00100000
00000000
00000000
00001000
,
00000000
00000000
00001000
00000000
00000000
00010000
00000100
00000000
00000100
00010000
00000000
00000000
00001000
00000000
00000000
00001000
,
00000000
00000000
00000100
00000000
00000010
00000000
00000000
00000110
00000000
00000000
00000000
00000000
00000000
00000000
00000011
00000000
,
00000000
00001100
00000000
00000000
00001000
00000000
00000000
00001000
00000000
00000000
00001000
00000000
01000000
00000000
00000000
00100000
,
00000000
00000000
00100000
00000000
00000000
10000000
01000000
00000000
10000000
01000000
00000000
00000000
00011000
00000000
00011000
00000000
,
00000000
00000000
00000000
00000000
00000000
00000000
00000000
00000000
00010000
00000000
00000000
00000000
00000000
00000000
00000000
00000000
00000000
00000000
00000000
00000000
00010010
00000000
00000000
00000000
00000000
00000000
00000000
00000000
00010010
00000000
00000000
00000000
00000000
00000000
00000000
00000000
00000000
00000000
00000000
00000000
00000000
00000000
00000000
00000000
00000000
00000200
00000000
00000000
00000000
00000000
00000000
00000000
00000000
00000000
00000000
00000000
00000000
00000000
00000000
00000000
00000000
00000000
00000000
00000000
,
00000000
00000000
00000000
00000000
00000000
00000000
00000000
00000000
00000000
00000000
00000000
00000000
00000000
00000000
00000000
00000000
00000000
00000000
00000000
00000010
00000000
00000000
00000000
00000000
00000000
00000310
00000000
00000000
00000000
00000000
00000000
00000000
00000000
00000000
00000000
00000000
00000000
00000000
00000000
00000000
00000000
00000000
00000000
00000000
00000000
00000000
00000000
00000000
00000000
00000000
00000000
00000000
00000000
00000000
00000000
00000000
00000000
00000000
00000000
00000000
00000000
00000000
00000000
00000000
;
