#TITLE:ByeByeパラガール;
#SUBTITLE:(9LoveJ REMIX);
#ARTIST:サンプラザ中野くん feat. DJよっしー;
#TITLETRANSLIT:ByeBye PARA GIRL;
#SUBTITLETRANSLIT:;
#ARTISTTRANSLIT:SUNPLAZA NAKANO-KUN feat. DJ YOSSY;
#CREDIT:DigiMindAxel;
#BANNER:ByeBye PARA GIRL (9LoveJ REMIX).png;
#BACKGROUND:ByeBye PARA GIRL (9LoveJ REMIX)-bg.png;
#LYRICSPATH:ByeBye PARA GIRL (9LoveJ REMIX).lrc;
#CDTITLE:NATSUMONOGATARI 2008.png;
#MUSIC:ByeBye PARA GIRL (9LoveJ REMIX).ogg;
#METERTYPE:DDR X;
#OFFSET:-8.072;
#SAMPLESTART:80.040;
#SAMPLELENGTH:12.000;
#SELECTABLE:YES;
#BPMS:0.000=150.000;
#STOPS:;
#BGCHANGES:;

//---------------dance-single - ----------------
#NOTES:
     dance-single:
     :
     Easy:
     6:
     0.269,0.287,0.071,0.063,0.000:
0001
1000
0001
1000
,
0100
1000
0100
0000
,
1000
0001
1000
0001
,
0100
0001
0100
0000
,
0020
0000
0000
0000
,
0130
0000
0110
0000
,
0010
0100
0001
0100
,
0010
0100
0001
1000
,
0100
0010
0001
0000
,
1000
0001
1000
0000
,
0010
0100
0001
0100
,
0010
0100
0001
1000
,
0100
0000
0000
0000
,
1000
1000
1000
0000
,
0001
0001
1000
0001
,
1000
1000
1000
0001
,
0100
0100
0010
0000
,
0100
0100
0100
0000
,
0010
0010
0100
0010
,
1000
1000
1000
0001
,
1000
0001
1000
0000
,
0100
1000
0100
1000
,
0010
0100
0010
0100
,
0001
0010
0001
0010
,
0001
0000
0000
0000
,
0100
0001
0100
0001
,
0100
0010
0100
0010
,
1000
0010
1000
0010
,
1000
0000
0000
0000
,
0100
0010
0100
0010
,
0001
1000
0001
1000
,
0100
0010
0100
0010
,
0100
0010
0100
0010
,
0001
1000
0001
1000
,
0010
0100
0010
0100
,
0001
1000
0001
1000
,
0110
0000
0000
0000
,
0010
0100
0010
0100
,
0001
0100
0001
0000
,
0100
0010
0100
0010
,
1000
0010
1000
0010
,
2000
0000
0000
0000
,
0000
0000
3001
1000
,
0002
0000
2003
0000
,
3001
0000
0000
0000
,
1001
0000
1001
0000
,
0001
1000
0010
0000
,
0010
1000
0001
0000
,
1001
0000
0000
0000
,
1001
0000
0000
0000
,
1000
0001
0100
0000
,
0100
0001
1000
0000
,
1001
0000
0000
0000
,
0100
0010
0100
0010
,
1000
0010
1000
0000
,
0010
0100
0010
0100
,
0001
1000
0001
1000
,
0010
0100
0010
0100
,
0001
0010
0001
0000
,
0100
0010
0100
0010
,
1000
0001
1000
0001
,
2000
0000
3100
0000
,
1000
0010
0100
0000
,
0001
1000
0001
1000
,
0001
0100
0010
0100
,
0002
0000
1003
0000
,
0001
0010
0100
0000
,
0010
0001
0010
0001
,
1000
1000
1000
0000
,
1001
0000
0001
0000
,
0010
0100
0010
0000
,
0220
0000
0000
0000
,
0000
0000
0000
0000
,
0330
0000
0000
0000
;

//---------------dance-single - ----------------
#NOTES:
     dance-single:
     :
     Medium:
     8:
     0.400,0.402,0.165,0.173,0.000:
1000
0100
1000
0000
0001
1000
0001
0000
,
1000
0100
1000
0000
0002
0000
1003
0000
,
0010
0100
0010
0000
1000
0001
1000
0000
,
0100
1000
0100
1000
0100
0000
0100
0000
,
2002
0000
0000
3003
,
0002
0000
0000
0000
,
1003
0000
0100
0000
1000
0100
1000
0000
,
0010
0000
0100
0000
0001
0100
0001
0000
,
1001
0000
0110
0000
,
0010
0010
0010
0110
,
0100
0010
0100
0000
0001
0000
1000
0000
,
0100
1000
0100
0000
1000
0001
1000
0000
,
0002
0000
0000
0000
,
1003
0001
1000
0000
0100
1000
0010
0000
,
1000
0001
1000
0000
0200
0000
1300
0000
,
0010
0100
0010
0000
1000
0001
0010
0000
,
0001
1000
0001
0000
0010
0001
0010
0001
,
1000
0001
1000
0000
0010
1000
0100
0000
,
1000
0100
1000
0000
0002
0000
1003
0000
,
0010
0100
0010
0000
1000
0001
0010
0000
,
0001
1000
0001
1000
0001
0000
0001
0000
,
1000
0100
1000
0001
,
1000
0100
1000
0001
,
1000
0100
1000
0001
,
2000
0000
0000
0000
,
3010
0100
0001
0100
,
0010
0100
0001
0100
,
0010
0100
0001
0100
,
0020
0000
0000
0000
,
1030
0100
0010
0100
,
1000
0100
0010
0100
,
2000
3001
0200
0310
,
2000
3001
1000
0001
,
0010
0100
0010
0001
,
0010
0100
0010
0001
,
0100
0010
1000
0010
,
0110
0000
0000
0110
0000
0000
0000
0000
,
0010
0100
0010
0000
1000
0000
0100
0000
,
0010
0000
0100
0000
1000
0001
1000
0001
,
1000
0010
0100
0010
,
1000
0000
0001
0000
0100
0010
0100
0010
,
0100
0001
1000
0100
,
0010
0001
0010
0100
,
2000
0000
0001
0000
,
3001
0000
0101
0000
,
1002
0000
0000
1000
1003
0000
0001
1000
,
0100
0000
0010
0000
0100
0000
1000
0001
,
0100
0001
1000
0001
,
2002
3003
0220
0330
,
1001
0001
0001
0001
,
1000
0001
0010
0000
0100
0000
0010
0001
,
1000
0000
0100
1000
0100
1000
0010
0000
,
0220
0000
0000
0330
,
0010
0100
0010
0000
1000
0100
1000
0000
,
0010
0100
0010
0000
1001
0000
1001
0000
,
0010
0100
0010
0000
1000
0001
1000
0000
,
0001
0010
0001
0000
0100
0010
0100
0010
,
1000
0001
1000
0000
0100
1000
0100
0000
,
0010
0100
0010
0000
1001
0000
1001
0000
,
0010
0001
0010
0000
0001
1000
0001
0000
,
1000
0100
1000
0100
0010
0000
0110
0000
,
0100
0001
0010
0100
,
1000
0010
0001
0010
,
1000
0100
0010
0001
,
0100
1000
0100
0001
,
1000
0010
0100
0001
,
0010
1000
0010
0001
,
1000
0010
0100
0001
,
1000
0001
1000
0001
0100
0000
0101
0000
,
1001
0000
0000
1001
0000
0001
0000
1000
,
1000
0100
0100
0010
0010
0000
0000
0000
,
0202
0000
0000
0000
,
0000
0000
0000
0000
,
0303
0000
0000
0000
;

//---------------dance-single - ----------------
#NOTES:
     dance-single:
     :
     Hard:
     12:
     0.558,0.546,0.142,0.165,0.177: // measure 1
0001
0010
0100
0010
0001
0001
1000
1000
,  // measure 2
0010
0000
0100
0000
0010
0000
1000
0001
2000
0000
0000
0000
3001
0000
0000
0000
,  // measure 3
1000
0010
0100
0010
1000
1000
0001
0001
,  // measure 4
1000
0100
0010
0001
0100
0000
0100
0000
,  // measure 5
0010
0000
0100
0000
0010
0000
0100
0000
0010
0100
0010
0100
0010
0000
0100
0000
,  // measure 6
0020
0000
0000
0000
0000
0000
1000
0000
1030
0000
0000
0000
0001
1000
0001
1000
,  // measure 7
0001
0010
0100
0010
0001
0000
0100
0010
,  // measure 8
1000
0100
0010
0100
1000
0000
0001
0000
,  // measure 9
1000
0010
0000
0100
0010
0000
0000
0000
,  // measure 10
1001
0001
0001
1001
,  // measure 11
1000
0100
0010
0100
1000
0000
0001
0100
,  // measure 12
0001
0010
0100
0010
0001
0000
2000
0000
,  // measure 13
0020
0000
0000
3030
,  // measure 14
1000
0000
0001
0100
0000
0000
0001
0000
1000
0000
1000
0000
0100
0000
0100
0000
,  // measure 15
1000
0000
0010
0100
0000
0000
0001
1000
0002
0000
0000
0000
1003
0000
0000
0000
,  // measure 16
0001
0000
1000
0100
0000
0000
1000
0000
0001
0000
0001
0000
0010
0000
0010
0000
,  // measure 17
0001
0000
0100
0010
0000
0000
1000
0001
1000
0000
0100
0000
0001
0000
0100
0000
,  // measure 18
1000
0000
0010
0100
0000
0000
0001
0000
1000
0000
1000
0000
0100
0000
0100
0000
,  // measure 19
1000
0000
0010
0100
0000
0000
0001
1000
0002
0000
0000
0000
1003
0000
0000
0000
,  // measure 20
0001
0000
1000
0100
0000
0000
1000
0000
0001
0000
0001
0000
0010
0000
0010
0000
,  // measure 21
0001
0100
1000
0100
0001
0000
1001
0000
,  // measure 22
0001
0000
1000
0000
0001
0100
1000
0100
,  // measure 23
0001
0000
1000
0000
0001
0100
1000
0100
,  // measure 24
0001
0000
1000
0000
0001
1000
0100
0010
,  // measure 25
0011
0000
0000
0000
0000
0000
0000
0000
0000
0000
0001
1000
0001
0000
1000
0000
,  // measure 26
1000
0000
0001
0000
1000
0100
0001
0100
,  // measure 27
1000
0000
0001
0000
1000
0100
0001
0100
,  // measure 28
1000
0000
0001
0000
1000
0001
0100
0010
,  // measure 29
1010
0000
0000
0000
0000
0000
0000
0000
0000
0000
1000
0001
1000
0000
0001
0000
,  // measure 30
0001
0000
1000
0000
0001
0010
1000
0010
,  // measure 31
0001
0000
1000
0000
0001
0010
1000
0010
,  // measure 32
0001
0000
0000
0100
0000
0000
0010
0000
1000
0000
0000
0100
0000
0000
0010
0000
,  // measure 33
0001
0000
0000
0100
0000
0000
0010
0000
0000
0000
1000
0000
0100
0000
0010
0000
,  // measure 34
0001
0000
1000
0000
0001
0100
1000
0100
,  // measure 35
0001
0000
1000
0000
0001
0100
1000
0100
,  // measure 36
0001
0000
0000
1000
0000
0000
0100
0000
0010
0000
0000
0001
0000
0000
0100
0000
,  // measure 37
0110
0000
0000
0010
0000
0000
0010
0000
0000
0000
1000
0000
1000
0000
0001
0000
,  // measure 38
1000
0100
0010
0001
0100
0000
0010
1000
,  // measure 39
0100
1000
0010
0100
0001
1000
1000
1000
,  // measure 40
0001
0100
0010
1000
0100
0000
0010
0100
,  // measure 41
1000
0100
0010
0001
1000
0000
0100
1000
,  // measure 42
0002
0000
0000
0100
0000
0000
0100
0000
,  // measure 43
0203
0000
0000
0000
0000
0000
0000
0000
0301
0000
0000
0010
0000
0000
0100
0000
,  // measure 44
2000
0000
0000
0001
3002
0000
0000
0000
,  // measure 45
0103
0000
0000
0100
0000
0000
0100
0000
1001
0000
0000
0000
0000
0000
0000
0000
,  // measure 46
0102
0000
0000
0000
0000
0000
1000
0000
1003
0000
0000
0000
0001
0000
1000
0010
,  // measure 47
0100
0000
0010
0000
0100
0000
0010
0000
1000
0000
0000
0000
0001
0000
1000
0100
,  // measure 48
0010
0100
1000
0010
0010
0100
0100
0000
,  // measure 49
0001
0001
1000
0100
0010
0010
0100
0000
,  // measure 50
0010
1001
0010
1001
,  // measure 51
0010
0000
0100
0000
0001
0000
0100
0000
0010
0000
0000
0000
1000
0000
0001
0010
,  // measure 52
0100
0010
0001
1000
0010
0100
0020
0000
,  // measure 53
2000
0000
0000
3030
,  // measure 54
1000
0100
0010
0100
1000
1000
1000
0001
,  // measure 55
1000
0000
0010
0100
0000
0000
0001
1000
0002
0000
0000
0000
1003
0000
0000
0000
,  // measure 56
0001
0100
0010
0100
0001
0001
0001
1000
,  // measure 57
0010
0000
0100
0001
0000
0000
1000
0001
1000
0000
0001
1000
0001
0000
0010
0000
,  // measure 58
0100
1000
0010
0100
0010
0010
0010
1000
,  // measure 59
0001
0000
1000
0100
0000
0000
1000
0001
2000
0000
0000
0000
3001
0000
0000
0000
,  // measure 60
0100
0001
0010
0001
1000
1000
1000
0001
,  // measure 61
0100
0010
0100
0000
0010
0100
0010
0000
2000
0000
0000
0000
3100
0000
0000
0000
,  // measure 62
1002
0000
0000
0000
0000
0000
0100
0000
0100
0000
0000
0000
0000
0000
1003
0001
,  // measure 63
1000
0100
0010
0001
0100
0000
0101
0000
,  // measure 64
0001
1000
0100
1000
0010
0010
0010
1000
,  // measure 65
0001
0000
0010
0001
0000
0000
1000
0001
1000
0000
0100
0000
0010
0000
0001
0000
,  // measure 66
2001
0000
0000
0000
0000
0000
0010
0000
0010
0000
0000
0000
0000
0000
3001
1000
,  // measure 67
0001
0010
0100
1000
0010
0000
1010
0000
,  // measure 68
1000
0000
0001
0010
0000
0000
0001
1000
0001
0000
0010
0000
0100
0000
0010
0000
,  // measure 69
0001
0100
0001
0000
1000
0010
1000
0000
0002
0000
0000
0000
1003
0000
0000
0000
,  // measure 70
1100
0000
0000
0011
0000
0011
0000
0001
,  // measure 71
0001
1000
1000
0010
0010
0000
0000
0000
,  // measure 72
0220
0000
0000
0000
,  // measure 73
0000
0000
0000
0000
,  // measure 74
0330
0000
0000
0000
;

//---------------dance-single - ----------------
#NOTES:
     dance-single:
     :
     Challenge:
     15:
     0.750,0.747,0.197,0.165,0.610: // measure 1
1000
0000
0001
0100
0000
0100
0010
0000
1000
0001
1000
0000
0100
0000
0010
0000
,  // measure 2
0001
0000
1000
0010
0000
0010
1000
0001
0020
0000
0000
0000
0031
0000
0000
0000
,  // measure 3
0100
0000
0001
1000
0000
1000
0010
0100
0010
0000
1000
0000
0100
0000
0010
0000
,  // measure 4
0001
0100
0001
0100
0010
1000
0010
1000
0001
0000
0000
0000
1001
0000
0000
0000
,  // measure 5
1000
0000
0001
1000
0001
0000
1000
0000
0100
1000
0100
1000
0010
0000
0010
0000
,  // measure 6
0200
0000
0000
0000
0000
0000
0010
0000
0310
0000
0000
0000
1000
0001
1000
0001
,  // measure 7
1000
0000
0001
0000
0010
0000
0001
0000
1000
0000
0010
0000
0100
0000
0001
1000
,  // measure 8
0001
1000
1100
0100
1000
0010
0100
0001
,  // measure 9
1000
0001
1000
0001
1000
0000
0010
0100
0001
0100
0001
0100
0001
0100
0010
0000
,  // measure 10
1000
0000
0001
1000
0001
0000
1000
0001
1000
0000
0000
0000
1001
0000
1000
0010
,  // measure 11
1000
0000
0100
0000
0010
0000
0001
0000
1000
0000
0010
0000
1000
0000
0001
1000
,  // measure 12
0001
0000
0100
0000
0110
0000
0010
0000
1000
0001
1000
0001
1000
0100
1000
0100
,  // measure 13
2000
0000
0001
3001
,  // measure 14
1000
0000
0001
0010
0000
0010
0001
0000
1000
0000
0100
0000
0001
0000
0100
0000
,  // measure 15
1000
0000
0001
0100
0000
0100
0001
1000
0002
0000
0000
0000
1003
0000
0000
0000
,  // measure 16
0001
0000
1000
0010
0000
0010
1000
0100
0010
0000
0001
0000
0100
0000
0010
0000
,  // measure 17
0100
0000
0001
1000
0000
1000
0010
0100
0010
0000
1000
0100
1000
0100
0010
0001
,  // measure 18
0010
0000
0001
1000
0000
1000
0001
0000
1000
0000
0010
0000
0001
0000
0010
0000
,  // measure 19
1000
0000
0100
0010
0000
0010
0100
1000
0200
0000
0000
0000
1300
0000
0000
0000
,  // measure 20
0001
0000
0100
0010
0000
0010
0100
0001
1000
0000
0100
0000
0001
0000
0100
0000
,  // measure 21
1000
0010
0100
0010
0100
0010
0100
0010
1000
0000
0000
0000
1001
0000
0000
0000
,  // measure 22
0001
1000
0100
1000
0001
0010
1000
0010
,  // measure 23
0001
1000
0100
1000
0001
0010
1000
0010
,  // measure 24
0001
1000
0100
1000
0001
0010
1000
0010
,  // measure 25
2002
0000
0000
0000
0000
0000
0000
0000
3003
0000
1000
0001
1000
0000
0010
0100
,  // measure 26
0001
1000
0001
0010
0001
0100
1000
0100
,  // measure 27
0001
1000
0001
0010
0001
0100
1000
0100
,  // measure 28
0001
1000
0001
0010
0001
0100
1000
0100
,  // measure 29
2002
0000
0000
0000
0000
0000
0000
0000
3003
0000
0001
1000
0001
0000
0010
0100
,  // measure 30
1000
0001
0100
0010
1000
0100
0001
0100
,  // measure 31
1000
0001
0100
0010
1000
0100
0001
0100
,  // measure 32
1000
0000
0000
1000
0010
0000
0100
0000
0001
0000
0000
0001
0100
0000
0010
0000
,  // measure 33
1000
0000
0000
1000
0001
0000
0010
0000
0000
0000
0001
0010
0001
0000
1000
0000
,  // measure 34
0001
0010
0100
1000
0001
0100
1000
0100
,  // measure 35
0001
0010
0100
1000
0001
0100
1000
0100
,  // measure 36
0001
0000
0000
0001
1000
0000
0010
0000
0100
0000
0000
0001
1000
0000
0010
0000
,  // measure 37
0110
0000
0000
1001
0000
0000
0110
0000
0000
0000
0100
0000
0100
0000
0001
1000
,  // measure 38
0001
0000
1000
0000
0100
0000
1000
0010
0000
0000
0100
0000
0001
0000
1000
0000
,  // measure 39
0100
0000
0010
0001
0000
0000
0100
0000
0001
0000
1000
0000
1000
0000
1000
0000
,  // measure 40
0001
0010
0100
0010
0001
1000
0010
0001
,  // measure 41
0010
1000
0001
0100
0010
0100
0001
1000
,  // measure 42
0100
0010
0001
0200
0000
0000
0310
1000
,  // measure 43
0200
0000
0000
0000
0000
0000
0000
0000
1300
0000
0000
0010
0000
0000
0100
0000
,  // measure 44
0002
0000
0000
1000
2000
0000
0000
3003
,  // measure 45
1001
0000
0000
1001
0000
0000
1001
0000
0101
0000
0000
0000
0000
0000
0000
0000
,  // measure 46
1001
0000
1000
0000
0001
0000
0010
0000
0100
0000
0000
0000
1000
0000
0001
0010
,  // measure 47
0100
0000
0010
0000
0001
0000
1000
0000
0010
0000
1000
0000
0001
0000
0010
0100
,  // measure 48
1000
0001
1001
1000
0010
0100
0100
0000
,  // measure 49
0001
1000
0001
0000
1000
0000
0010
0100
0010
0100
0010
0000
1000
0001
1000
0000
,  // measure 50
0100
0000
0000
0000
1100
0000
1000
0000
0100
0000
0000
0000
1100
0000
1000
0100
,  // measure 51
0010
0000
0100
0000
1000
0000
0001
0000
0100
0000
0001
0000
1000
0000
0100
0010
,  // measure 52
0001
0000
1000
0000
1001
0000
0001
0000
0100
0010
0100
0010
1000
0100
1000
0100
,  // measure 53
2000
0000
0001
3001
,  // measure 54
1000
0000
0001
1000
0000
1000
0010
0000
0100
0001
0100
0000
0001
1000
0001
0000
,  // measure 55
0010
0000
0100
0010
0000
0010
0100
1000
0200
0000
0000
0000
1300
0000
0000
0000
,  // measure 56
0001
0000
1000
0010
0000
0010
1000
0001
1000
0000
0100
0000
0010
0001
0010
0000
,  // measure 57
0001
0000
0100
0010
0000
0010
1000
0100
1000
0000
0010
0100
0010
0100
0001
0010
,  // measure 58
0001
0000
0010
0001
0000
0001
1000
0000
0100
1000
0100
0000
0010
0100
0010
0000
,  // measure 59
0001
0000
1000
0001
0000
0001
0100
0010
0200
0000
0000
0000
0310
0000
0000
0000
,  // measure 60
1000
0000
0010
1000
0000
1000
0001
0010
0100
0000
1000
0000
0001
1000
0001
0000
,  // measure 61
0100
0001
0010
0001
0010
0001
0010
0001
0100
0000
0000
0000
0110
0000
0000
0000
,  // measure 62
0001
0000
1000
0100
0000
0100
0010
0000
0001
0100
0001
0000
1000
0010
1000
0010
,  // measure 63
0100
0000
0001
1000
0000
1000
0100
0010
0200
0000
0000
0000
1300
0000
0000
0000
,  // measure 64
0001
0000
0100
0001
0000
0001
1000
0100
0010
0000
0100
0000
1000
0001
0100
0000
,  // measure 65
0001
0000
1000
0100
0000
0100
0010
0001
0010
0000
0001
1000
0100
1000
0100
1000
,  // measure 66
0001
0000
0010
0001
0000
0001
1000
0000
0010
0100
0010
0000
1000
0001
1000
0000
,  // measure 67
0010
0000
0100
0001
0000
0001
1000
0100
2000
0000
0000
0000
3001
0000
0000
0000
,  // measure 68
1000
0000
0010
0100
0000
0100
0001
0010
0100
0000
1000
0100
0010
0000
0100
0000
,  // measure 69
1000
0001
0100
0001
0100
0001
0100
0001
2000
0000
0000
0000
3001
0000
0000
0000
,  // measure 70
1001
0000
1000
0010
1000
0000
1010
0000
0100
0010
0100
0000
0010
0001
0010
0000
,  // measure 71
0001
1000
1100
0100
0110
0000
0000
0000
,  // measure 72
0022
0000
0000
0000
,  // measure 73
0000
0000
0000
0000
,  // measure 74
0033
0000
0000
0000
;

//---------------dance-double - ----------------
#NOTES:
     dance-double:
     :
     Medium:
     8:
     0.406,0.402,0.189,0.181,0.000:
00000001
00000010
00000001
00000000
00010000
00000100
00010000
00000000
,
00000001
00000010
00000001
00000000
00020000
00000000
00031000
00000000
,
00000100
00000010
00000100
00000000
00000001
00001000
00000001
00000000
,
00000010
00000100
00010000
00001000
00010000
00000000
00010000
00000000
,
00022000
00000000
00000000
00033000
,
00001000
00000000
00000000
00010000
00001000
00000000
00000000
00000000
,
01000000
00000000
00100000
00000000
10000000
01000000
10000000
00000000
,
00001000
00000000
00100000
00000000
00001000
00100000
00001000
00000000
,
00010000
00000000
00011000
00000000
,
00001000
00001000
00001000
00011000
,
00010000
00001000
00010000
00000000
00000100
00000000
00010000
00000000
,
00000001
00001000
00000001
00000000
00000100
00000010
00001000
00000000
,
00000020
00000000
00000000
00000000
,
00010030
00001000
00010000
00000000
00001000
01000000
00100000
00000000
,
10000000
00010000
10000000
00000000
00002000
00000000
00013000
00000000
,
00000100
00001000
00000100
00000000
00001000
00000001
00000010
00000000
,
00000001
00001000
00000001
00000000
00000010
00000001
00000010
00000001
,
00010000
00000010
00010000
00000000
00000010
00010000
00001000
00000000
,
01000000
00100000
01000000
00000000
00020000
00000000
10030000
00000000
,
00100000
01000000
00100000
00000000
10000000
01000000
00100000
00000000
,
00001000
00010000
00001000
00010000
00000100
00000000
00000100
00000000
,
00010000
00001000
00010000
00000010
,
00010000
00001000
00010000
00000010
,
00010000
00001000
00010000
00000010
,
00022000
00000000
00000000
00033000
,
00010000
00001000
00100000
00001000
,
00010000
00001000
00100000
00001000
,
00010000
00001000
00100000
00001000
,
00022000
00000000
00000000
00033000
,
00000010
00000100
00001000
00000100
,
00000010
00000100
00001000
00000100
,
00000020
00000031
00020000
00031000
,
02000000
03100000
10000000
00010000
,
00100000
01000000
00100000
00010000
,
00100000
01000000
00100000
00010000
,
01000000
00100000
01000000
00001000
,
00011000
00000000
00000000
00011000
00000000
00000000
00000000
00000000
,
00001000
00010000
00001000
00000000
01000000
00000000
00010000
00000000
,
01000000
00000000
00010000
00000000
01000000
00001000
01000000
00001000
,
01000000
00010000
00100000
00001000
,
00010000
00000000
00000100
00000000
00010000
00000100
00010000
00000100
,
00010000
00000001
00010000
00000100
,
00000010
00000100
00010000
00001000
,
00020000
00000000
00001000
00000000
,
00031000
00000000
00011000
00000000
,
01002000
00000000
00000000
01000000
01003000
00000000
00001000
00010000
,
00000100
00000000
00001000
00000000
00000001
00000000
00001000
00000010
,
00010000
00001000
00010000
00001000
,
00022000
00033000
02200000
03300000
,
10000000
10010000
00000000
10010000
,
00010000
10000000
01000000
00000000
00100000
00000000
01000000
10000000
,
00010000
00000000
00100000
00001000
00100000
00001000
00010000
00000000
,
00022000
00000000
00000000
00033000
,
00000100
00001000
00000100
00000000
00010000
00001000
00010000
00000000
,
00000100
00001000
00000100
00000000
00010010
00000000
00010010
00000000
,
00000100
00001000
00000100
00000000
00010000
00000010
00010000
00000000
,
00000100
00001000
00000100
00000000
00010000
00000001
00000010
00000100
,
00000010
00000001
00010000
00000000
00001000
00100000
00001000
00000000
,
01000000
00100000
01000000
00000000
01100000
00000000
01100000
00000000
,
00001000
00010000
00001000
00000000
00010000
00000100
00010000
00000000
,
00000001
00001000
00000010
00001000
00000001
00000000
00001001
00000000
,
00000110
00010000
00000100
00000010
,
00000100
00010000
00000100
00000010
,
00000100
00010000
00001000
01000000
,
00100000
01000000
00001000
01000000
,
00100000
01000000
00001000
00010000
,
00001000
10000000
00001000
00010000
,
00001000
10000000
00001000
00010000
,
00000010
00010000
00000010
00010000
00001000
00000000
00011000
00000000
,
00011000
00000000
00000000
00000110
00000000
00000100
00000000
00000001
,
00000001
00010000
00010000
00001000
00001000
00000000
00000000
00000000
,
00022000
00000000
00000000
00000000
,
00000000
00000000
00000000
00000000
,
00033000
00000000
00000000
00000000
;

//---------------dance-double - ----------------
#NOTES:
     dance-double:
     :
     Hard:
     12:
     0.562,0.546,0.142,0.165,0.197:
00010000
10000000
00100000
10000000
00001000
00001000
00010000
00010000
,
00000001
00000000
00000010
00000000
00000001
00000000
00010000
00001000
00020000
00000000
00000000
00000000
00031000
00000000
00000000
00000000
,
00100000
00001000
00010000
00000100
00010000
00010000
00001000
00001000
,
10000000
01000000
00100000
00010000
01000000
00000000
01100000
00000000
,
00001000
00000000
00010000
00000000
00001000
00000000
00010000
00000000
00001000
00010000
00001000
00010000
00001000
00000000
00010000
00000000
,
00002000
00000000
00000000
00000000
00000000
00000000
00010000
00000000
00013000
00000000
00000000
00000000
00000010
00000100
00000010
00000100
,
00000010
00010000
00001000
00010000
00000010
00000000
00000100
00000010
,
00010000
00000100
00000010
00000100
00010000
00000000
00001000
00000000
,
00010000
00001000
00000000
01000000
00200000
00000000
00000000
00000000
,
01300000
01000000
01000000
01100000
,
01000000
00100000
00001000
00100000
01000000
00000000
00001000
00010000
,
00000010
00000100
00010000
00000100
00000010
00000000
00020000
00000000
,
00002000
00000000
00000000
00033000
,
00010000
00000000
00000010
00000100
00000000
00000000
00000010
00000000
00001000
00000000
00000100
00000000
00000001
00000000
00000100
00000000
,
00001000
00000000
00000001
00010000
00000000
00000000
00001000
00010000
00002000
00000000
00000000
00000000
00013000
00000000
00000000
00000000
,
00001000
00000000
00100000
01000000
00000000
00000000
00100000
00000000
00010000
00000000
01000000
00000000
10000000
00000000
01000000
00000000
,
00010000
00000000
10000000
00001000
00000000
00000000
00010000
00001000
00010000
00000000
00000010
00000000
00000100
00000000
00000010
00000000
,
00010000
00000000
00000010
00000100
00000000
00000000
00000001
00000000
00010000
00000000
00000010
00000000
00000001
00000000
00000010
00000000
,
00010000
00000000
00000001
00010000
00000000
00000000
00001000
00010000
00002000
00000000
00000000
00000000
00013000
00000000
00000000
00000000
,
00001000
00000000
01000000
00100000
00000000
00000000
10000000
00000000
00001000
00000000
00100000
00000000
10000000
00000000
00100000
00000000
,
00001000
00010000
00000010
00000100
00000010
00000000
00001001
00000000
,
00000001
00000000
00000100
00000000
00010000
01000000
10000000
01000000
,
00010000
00000000
10000000
00000000
00001000
01000000
00100000
01000000
,
00001000
00000000
00010000
00000000
00000001
00001000
00000100
00000010
,
00000110
00000000
00000000
00000000
00000000
00000000
00000000
00000000
00000000
00000000
00010000
00001000
00010000
00000000
00001000
00000000
,
10000000
00000000
01000000
00000000
00001000
00000100
00000001
00000100
,
00001000
00000000
00000001
00000000
00010000
00000010
00000100
00000010
,
00010000
00000000
00001000
00000000
10000000
00010000
00100000
01000000
,
01100000
00000000
00000000
00000000
00000000
00000000
00000000
00000000
00000000
00000000
00001000
00010000
00001000
00000000
00010000
00000000
,
00000001
00000000
00000010
00000000
00010000
00100000
10000000
00100000
,
00010000
00000000
10000000
00000000
00001000
00100000
01000000
00100000
,
00001000
00000000
00000000
00010000
00000000
00000000
00000010
00000000
00000100
00000000
00000000
00000001
00000000
00000000
00010000
00000000
,
00001000
00000000
00000000
00100000
00000000
00000000
00010000
00000000
00000000
00000000
10000000
00010000
10000000
00000000
00010000
00000000
,
10000000
00000000
00100000
00000000
00001000
00000010
00000001
00000010
,
00001000
00000000
00000001
00000000
00010000
00000100
00000010
00000100
,
00010000
00000000
00000000
00001000
00000000
00000000
01000000
00000000
00100000
00000000
00000000
10000000
00000000
00000000
01000000
00000000
,
11000000
00000000
00000000
10000000
00000000
00000000
01000000
00000000
00000000
00000000
10000000
00010000
10000000
00000000
00010000
00000000
,
10000000
00001000
00100000
00001000
10000000
00000000
01000000
00100000
,
00001000
00100000
01000000
10000000
00001000
00010000
00010000
00010000
,
00000001
00010000
00000100
00010000
00000001
00000000
00000010
00000100
,
00010000
00000100
00000010
00000001
00010000
00000000
00001000
00010000
,
00000020
00000000
00000000
00000100
00000000
00000000
00000100
00000000
,
00000130
00000000
00000000
00000000
00000000
00000000
00000000
00000000
00000001
00000000
00000000
00010000
00000000
00000000
00001000
00000000
,
02000000
00000000
00000000
00001000
03002000
00000000
00000000
00000000
,
00013000
00000000
00000000
00010000
00000000
00000000
00010000
00000000
00001000
00000000
00000000
00000000
00000000
00000000
00000000
00000000
,
00021000
00000000
00000000
00000000
00000000
00000000
00000100
00000000
00030100
00000000
00000000
00000000
00010000
00000000
00000010
00010000
,
00001000
00000000
00010000
00000000
00000001
00000000
00000010
00000000
00010000
00000000
00000000
00000000
00001000
00000000
00100000
00001000
,
00010000
00001000
10000000
00100000
00100000
01000000
01000000
00000000
,
00001000
00010000
00001000
00010000
00001000
00000000
00000000
00000000
00010000
00001000
00010000
00000000
00001000
00000000
00000000
00000000
,
01000000
10010000
01000000
10010000
,
10000000
00000000
00001000
00000000
00010000
00000000
00001000
00000000
10000000
00000000
00000000
00000000
00001000
00000000
01000000
00001000
,
00010000
00001000
10000000
01000000
00001000
00010000
00002000
00000000
,
00020000
00000000
00000000
00033000
,
00010000
00000100
00000010
00000100
00010000
00010000
00000001
00000001
,
00001000
00000000
00000010
00000100
00000000
00000000
00000010
00000100
00000020
00000000
00000000
00000000
00010030
00000000
00000000
00000000
,
00001000
00100000
01000000
00100000
00001000
00001000
10000000
10000000
,
00100000
00000000
01000000
00100000
00000000
00000000
01000000
00100000
01000000
00000000
00001000
00010000
00001000
00000000
00010000
00000000
,
00000001
00000100
00001000
00000100
00000001
00000001
00010000
00010000
,
00001000
00000000
01000000
00100000
00000000
00000000
01000000
00100000
02000000
00000000
00000000
00000000
03001000
00000000
00000000
00000000
,
10000000
00100000
00010000
00100000
10000000
10000000
00001000
00001000
,
00010000
00001000
00010000
00000000
00000010
00000100
00000010
00000000
00000200
00000000
00000000
00000000
00000301
00000000
00000000
00000000
,
00021000
00000000
00000000
00000000
00000000
00000000
00001000
00000000
00031000
00000000
00000000
00000000
00000000
00000000
00010000
00001000
,
00010000
00000001
00000100
00000010
00010000
00000000
00011000
00000000
,
00001000
10000000
01001000
10000000
00010000
00010000
00100000
00100000
,
00001000
00000000
00010000
00001000
00000000
00000000
00010000
00001000
00010000
00000000
00000001
00000000
00000010
00000000
00000100
00000000
,
00012000
00000000
00000000
00000000
00000000
00000000
00010000
00000000
00013000
00000000
00000000
00000000
00000000
00000000
00001000
00010000
,
00001000
10000000
00100000
01000000
00001000
00000000
00011000
00000000
,
00010000
00000000
00000010
00000100
00000000
00000000
00000010
00000100
00000010
00000000
00001000
00000000
00000100
00000000
00001000
00000000
,
00000001
00001000
00000001
00000000
00010000
00000100
00010000
00000000
00002000
00000000
00000000
00000000
00013000
00000000
00000000
00000000
,
00011000
00000000
00000000
01100000
00000000
01100000
00000000
10000000
,
10000000
00001000
00001000
00010000
00010000
00000000
00000000
00000000
,
00022000
00000000
00000000
00000000
,
00000000
00000000
00000000
00000000
,
00033000
00000000
00000000
00000000
;

//---------------dance-double - ----------------
#NOTES:
     dance-double:
     :
     Easy:
     7:
     0.273,0.287,0.142,0.094,0.000:
00001000
00000001
00001000
00000001
,
00000010
00000001
00002000
00000000
,
00003001
00001000
00000001
00000100
,
00000010
00010000
00001000
00000000
,
00020000
00000000
00000000
00000000
,
00031000
00000000
00011000
00000000
,
00011000
00000000
00010000
00001000
,
00011000
00000000
00001000
01000000
,
00001000
01000000
00001000
00000000
,
00020000
00001000
00031000
00000000
,
00011000
00001000
00010000
00000000
,
00001000
00010000
00000100
00010000
,
00000100
00000000
00000000
00000000
,
00001000
00001000
00001000
00000000
,
00000001
00000001
00001000
00000000
,
00000100
00000100
00000100
00000000
,
00000001
00000001
00010000
00000000
,
00001000
00001000
00001000
00000000
,
01000000
01000000
00100000
00000000
,
10000000
10000000
10000000
00000000
,
00100000
01000000
00100000
00100000
,
10000000
00010000
01000000
00010000
,
10000000
00010000
01000000
00010000
,
10000000
00010000
01000000
00010000
,
10010000
00000000
00000000
00000000
,
00010000
00000100
00010000
00001000
,
00010000
00000100
00010000
00001000
,
00010000
00000100
00010000
00001000
,
00011000
00000000
00000000
00000000
,
00000010
00000100
00000010
00001000
,
00000010
00000100
00000010
00001000
,
00000001
00000000
00000010
00000000
,
00000001
00000000
00001000
00000001
,
00001000
00000100
00001000
00000010
,
00000100
00000010
00001000
00000100
,
00010000
00010000
00001000
00001000
,
00022000
00000000
00000000
00033000
,
00001000
00010000
00001000
00100000
,
00001000
00100000
00001000
00000000
,
10000000
01000000
10000000
01000000
,
10000000
00001000
10000000
00001000
,
00200000
00000000
00000000
00000000
,
00000000
00000000
00301000
00010000
,
00002000
00000000
00023000
00000000
,
00030010
00000000
00000000
00000000
,
00000110
00000000
00000110
00000000
,
00000110
00000100
00000010
00000000
,
00000110
00000100
00000010
00000000
,
00001001
00000000
00000000
00000000
,
00011000
00000000
00000000
00000000
,
00011000
00001000
00010000
00000000
,
00011000
00001000
00010000
00000000
,
01100000
00000000
00000000
00000000
,
00010000
00100000
00010000
00100000
,
00001000
00100000
00001000
00000000
,
00100000
00010000
00100000
00010000
,
01000000
00100000
01000000
00010000
,
10000000
01000000
10000000
01000000
,
00100000
00001000
00010000
00000000
,
00001000
00010000
00001000
00010000
,
00000010
00001000
00000010
00010000
,
00002000
00000000
00013000
00000000
,
00000010
00001000
00000100
00000000
,
00010000
00000010
00010000
00000010
,
00001000
00000010
00000100
00000010
,
00002000
00000000
00003001
00000000
,
00010000
00001000
00010000
00000000
,
00001000
00100000
00001000
00100000
,
00010000
10000000
01000000
00000000
,
10010000
00000000
00010000
00000000
,
00001000
00010000
00001000
00000000
,
00000220
00000000
00000000
00000000
,
00000000
00000000
00000000
00000000
,
00000330
00000000
00000000
00000000
;

//---------------dance-double - ----------------
#NOTES:
     dance-double:
     :
     Challenge:
     15:
     0.754,0.747,0.220,0.165,0.618:
10000000
00000000
00001000
00010000
00000000
00010000
00001000
00000000
01000000
00010000
01000000
00000000
00001000
00000000
00100000
00000000
,
00010000
00000000
00100000
00001000
00000000
00001000
00100000
00001000
00020000
00000000
00000000
00000000
00030100
00000000
00000000
00000000
,
00001000
00000000
00000100
00010000
00000000
00010000
00000010
00000100
00000010
00000000
00001000
00000000
00000001
00000000
00000010
00000000
,
00000100
00010000
00000100
00010000
00001000
00010000
00001000
00010000
00001000
00000000
00000000
00000000
00011000
00000000
00000000
00000000
,
00001000
00000000
01000000
00100000
01000000
00000000
00001000
00000000
00100000
01000000
00100000
01000000
10000000
00000000
10000000
00000000
,
20000000
00000000
00000000
00000000
00000000
00000000
00010000
00000000
30010000
00000000
00000000
00000000
01000000
00100000
01000000
00100000
,
01000000
00000000
00001000
00000000
00010000
00000000
00001000
00000000
01000000
00000000
00001000
00000000
00100000
00000000
00001000
01000000
,
00001000
10000000
10010000
00010000
00100000
00001000
00010000
00000001
,
00000100
00000010
00000100
00000010
00000100
00000000
00000001
00010000
00001000
00010000
00001000
00010000
00001000
00010000
00000001
00000000
,
00001000
00000000
00000100
00010000
00000100
00000000
00100000
00001000
00100000
00000000
00000000
00000000
01100000
00000000
01000000
00100000
,
01000000
00000000
00001000
00000000
00010000
00000000
00001000
00000000
01000000
00000000
00001000
00000000
00010000
00000000
00000100
00010000
,
00000100
00000000
00001000
00000000
00001001
00000000
00000001
00000000
00000010
00000100
00000010
00000100
00010000
00001000
00010000
00001000
,
00020000
00000000
00001000
00031000
,
00010000
00000000
00000010
00000100
00000000
00000100
00000010
00000000
00010000
00000000
00000100
00000000
00000010
00000000
00000100
00000000
,
00010000
00000000
00000010
00001000
00000000
00001000
00000010
00010000
00000020
00000000
00000000
00000000
00010030
00000000
00000000
00000000
,
00000010
00000000
00000100
00000001
00000000
00000001
00010000
00001000
00010000
00000000
00001000
00000000
00010000
00000000
00000100
00000000
,
00001000
00000000
00000001
00010000
00000000
00010000
00000100
00000010
00000100
00000000
00010000
00000001
00000100
00000010
00010000
00001000
,
01000000
00000000
00010000
10000000
00000000
10000000
00010000
00000000
10000000
00000000
01000000
00000000
00001000
00000000
01000000
00000000
,
10000000
00000000
00100000
01000000
00000000
01000000
00001000
00010000
00002000
00000000
00000000
00000000
00013000
00000000
00000000
00000000
,
00001000
00000000
00100000
00001000
00000000
00001000
10000000
00010000
10000000
00000000
00100000
00000000
00001000
00000000
00100000
00000000
,
10000000
00001000
00010000
00001000
00010000
00001000
00010000
00001000
10000000
00000000
00000000
00000000
10001000
00000000
00000000
00000000
,
01000000
00001000
00010000
00001000
01000000
00100000
00001000
00100000
,
01000000
00001000
00010000
00001000
01000000
00100000
00001000
00100000
,
01000000
00001000
00010000
00001000
01000000
00100000
00001000
00100000
,
02200000
00000000
00000000
00000000
00000000
00000000
00000000
00000000
03300000
00000000
00001000
00010000
00001000
00000000
00010000
00000100
,
00001000
00000100
00001000
00000100
00010000
01000000
00010000
00000100
,
00001000
00000010
00000100
00000010
00001000
00000100
00010000
01000000
,
00010000
00000100
00001000
00000010
00000100
00000010
00010000
00001000
,
00022000
00000000
00000000
00000000
00000000
00000000
00000000
00000000
00033000
00000000
00010000
00001000
00010000
00000000
00001000
01000000
,
00100000
10000000
01000000
10000000
00010000
00100000
00001000
00000100
,
00001000
00100000
00010000
01000000
00010000
00100000
00001000
00000100
,
00001000
00000000
00000000
00100000
00010000
00000000
00100000
00000000
00001000
00000000
00000000
00001000
01000000
00000000
00100000
00000000
,
10000000
00000000
00000000
10000000
00001000
00000000
00010000
00000000
00000000
00000000
00001000
00010000
00001000
00000000
00010000
00000000
,
00000001
00000010
00000100
00010000
00000010
00000100
00000010
00010000
,
00000001
00000010
00000100
00010000
00000010
00000100
00000010
00010000
,
00000001
00000000
00000000
00000001
00001000
00000000
00000100
00000000
00010000
00000000
00000000
00010000
00001000
00000000
01000000
00000000
,
01100000
00000000
00000000
10010000
00000000
00000000
01100000
00000000
00000000
00000000
10000000
00000000
10000000
00000000
00001000
00010000
,
00001000
00000000
01000000
00000000
00100000
00000000
01000000
00010000
00000000
00000000
10000000
00000000
00001000
00000000
10000000
00000000
,
01000000
00000000
00100000
00001000
00000000
00000000
00010000
00000000
00000010
00000000
00000100
00000000
00000100
00000000
00000100
00000000
,
00000010
00010000
00000100
00000001
00000100
00010000
00001000
01000000
,
00100000
00000000
01000000
00000000
00001000
00000000
00010000
00001000
00000000
00000000
10000000
00000000
01000000
00000000
00100000
00000000
,
00001000
00010000
00001000
02000000
00000000
00000000
03100000
10000000
,
00002000
00000000
00000000
00000000
00000000
00000000
00000000
00000000
00013000
00000000
00000000
00000010
00000000
00000000
00000100
00000000
,
00000002
00000000
00000000
00010000
00020000
00000000
00000000
00030003
,
00011000
00000000
00000000
00101000
00000000
00000000
00010010
00000000
00011000
00000000
00000000
00000000
00000000
00000000
00000000
00000000
,
00011000
00000000
00010000
00000000
00000010
00000000
00000100
00000000
00001000
00000000
00000000
00000000
00010000
00000000
00000001
00000010
,
00000100
00000000
00010000
00000000
00001000
00000000
01000000
00000000
00100000
00000000
01000000
00000000
00010000
00000000
10000000
01000000
,
00100000
00001000
00011000
00010000
00000100
00001000
00001000
00000000
,
00000001
00001000
00000001
00000000
00001000
00000000
00000010
00010000
00000010
00010000
00000010
00000000
00010000
00001000
00010000
00000000
,
00001000
00000000
00000000
00000000
01001000
00000000
00001000
00000000
01000000
00000000
00000000
00000000
10010000
00000000
10000000
00100000
,
01000000
00000000
00001000
00000000
00010000
00000000
00000100
00000000
00000010
00000000
00000100
00000000
00001000
00000000
00000001
00000100
,
00000010
00000000
00010000
00000000
00011000
00000000
00001000
00000000
00100000
00010000
00100000
00010000
01000000
00100000
01000000
00100000
,
20000000
00000000
00001000
30001000
,
01000000
00000000
00100000
01000000
00000000
01000000
00001000
00000000
00010000
00001000
00010000
00000000
00000010
00001000
00000010
00000000
,
00000100
00000000
00000001
00010000
00000000
00010000
00001000
00100000
00002000
00000000
00000000
00000000
00103000
00000000
00000000
00000000
,
00010000
00000000
10000000
00010000
00000000
00010000
10000000
01000000
10000000
00000000
00001000
00000000
00010000
00001000
00010000
00000000
,
00000010
00000000
00000100
00000001
00000000
00000001
00010000
00001000
00010000
00000000
00001000
00100000
00001000
00100000
00010000
10000000
,
00100000
00000000
01000000
00100000
00000000
00100000
10000000
00000000
00001000
00010000
00001000
00000000
00010000
00000010
00010000
00000000
,
00000001
00000000
00000100
00000010
00000000
00000010
00010000
00000100
00020000
00000000
00000000
00000000
00030100
00000000
00000000
00000000
,
00010000
00000000
00001000
00100000
00000000
00100000
00001000
00010000
00001000
00000000
01000000
00000000
00100000
01000000
00100000
00000000
,
10000000
01000000
10000000
01000000
00100000
00001000
00100000
00001000
00010000
00000000
00000000
00000000
00011000
00000000
00000000
00000000
,
00001000
00000000
00100000
00010000
00000000
00010000
00100000
00000000
00000100
00001000
00000100
00000000
00010000
00000100
00010000
00000100
,
00001000
00000000
00000001
00001000
00000000
00001000
00000100
00000010
00000200
00000000
00000000
00000000
00000310
00000000
00000000
00000000
,
00010000
00000000
00000100
00010000
00000000
00010000
00000010
00000100
00000010
00000000
00010000
00000000
00001000
00100000
00001000
00000000
,
00100000
00000000
00010000
10000000
00000000
10000000
01000000
00100000
01000000
00000000
10000000
00100000
10000000
00100000
01000000
00001000
,
00010000
00000000
00001000
01000000
00000000
01000000
00001000
00000000
00010000
00001000
00010000
00000000
00000010
00001000
00000010
00000000
,
00000100
00000000
00000010
00010000
00000000
00010000
00000001
00000010
00000002
00000000
00000000
00000000
00000013
00000000
00000000
00000000
,
00000001
00000000
00000100
00000010
00000000
00000010
00010000
00001000
00010000
00000000
00000010
00001000
00000010
00000000
00001000
00000001
,
00001000
00000100
00010000
00000100
00010000
00001000
00100000
00010000
00200000
00000000
00000000
00000000
00310000
00000000
00000000
00000000
,
10010000
00000000
10000000
00010000
10000000
00000000
10001000
00000000
00001000
00010000
00001000
00000000
00010000
00000100
00010000
00000000
,
00010100
00010100
00000110
00000110
00000011
00000000
00000000
00000000
,
00022000
00000000
00000000
00000000
,
00000000
00000000
00000000
00000000
,
00033000
00000000
00000000
00000000
;

//---------------dance-single - ----------------
#NOTES:
     dance-single:
     :
     Beginner:
     2:
     0.093,0.140,0.087,0.000,0.000:
0001
0000
0000
0000
,
0010
0000
0000
0000
,
0001
0000
0000
0000
,
0010
0000
0000
0000
,
0110
0000
0000
0000
,
0100
0000
0000
0000
,
0110
0000
0000
0000
,
0010
0000
0000
0000
,
0100
0000
0000
0000
,
0001
0000
0000
0000
,
1000
0000
0000
0000
,
0100
0000
0000
0000
,
1000
0000
0000
0000
,
0010
0000
0000
0000
,
0100
0000
0000
0000
,
0010
0000
0000
0000
,
0100
0000
0000
0000
,
0001
0000
0000
0000
,
1000
0000
0000
0000
,
0001
0000
0000
0000
,
1000
0000
0000
0000
,
0100
0000
0000
0000
,
0100
0000
0000
0000
,
0100
0000
0000
0000
,
1001
0000
0000
0000
,
0010
0000
0000
0000
,
0010
0000
0000
0000
,
0010
0000
0000
0000
,
1001
0000
0000
0000
,
1000
0000
0000
0000
,
1000
0000
0000
0000
,
1000
0000
0000
0000
,
0001
0000
0000
0000
,
0010
0000
0000
0000
,
0010
0000
0000
0000
,
0100
0000
0010
0000
,
0100
0000
0000
0000
,
1000
0000
0000
0000
,
0001
0000
0000
0000
,
1000
0000
0000
0000
,
0001
0000
0000
0000
,
0100
0000
0000
0000
,
0000
0000
0000
0000
,
0010
0000
0000
0000
,
0110
0000
0000
0000
,
1000
0000
0000
0000
,
0001
0000
0000
0000
,
1000
0000
0000
0000
,
0100
0000
0000
0000
,
1000
0000
0000
0000
,
0010
0000
0000
0000
,
0100
0000
0000
0000
,
0010
0000
0000
0000
,
0110
0000
0000
0000
,
0100
0000
0000
0000
,
0001
0000
0000
0000
,
0100
0000
0000
0000
,
0001
0000
0000
0000
,
1000
0000
0000
0000
,
0001
0000
0000
0000
,
1000
0000
0000
0000
,
1001
0000
0000
0000
,
0010
0000
0000
0000
,
0100
0000
0000
0000
,
0010
0000
0000
0000
,
0110
0000
0000
0000
,
0100
0000
0000
0000
,
0001
0000
0000
0000
,
0100
0000
0000
0000
,
1001
0000
0000
0000
,
0110
0000
0000
0000
,
0110
0000
0000
0000
;
