#TITLE:Bleeding Luv;
#SUBTITLE:~Immorality act~;
#ARTIST:Xephia (Tatsh + Yuta);
#TITLETRANSLIT:;
#SUBTITLETRANSLIT:~Immorality act~;
#ARTISTTRANSLIT:;
#CREDIT:DigiMindAxel;
#BANNER:Bleeding Luv ~Immorality act~.png;
#BACKGROUND:Bleeding Luv ~Immorality act~-bg.png;
#LYRICSPATH:Bleeding Luv ~Immorality act~.lrc;
#CDTITLE:beatmania IIDX.png;
#MUSIC:Bleeding Luv ~Immorality act~.ogg;
#METERTYPE:DDR X;
#OFFSET:-2.059;
#SAMPLESTART:57.517;
#SAMPLELENGTH:12.000;
#SELECTABLE:YES;
#BPMS:0.000=214.000;
#STOPS:;
#BGCHANGES:-10.000=Bleeding Luv ~Immorality act~.avi=1.000=1=1=0,
99999=-nosongbg-=1.000=0=0=0 // don't automatically add -songbackground-
;

//---------------dance-single - ----------------
#NOTES:
     dance-single:
     :
     Easy:
     7:
     0.371,0.420,0.140,0.031,0.000:
0000
0000
0000
0000
,
0000
0000
0000
0000
,
0000
0000
0000
0000
,
0000
0000
0000
0000
,
0000
0000
0000
0000
,
0000
0000
0000
0000
,
0000
0000
0000
0000
,
0001
1000
0000
0001
,
0000
0100
0000
0010
,
0000
1000
0000
0001
,
0000
1000
0001
1000
,
0100
0010
0000
0001
,
0000
1000
0000
0010
,
0000
0100
0000
0001
,
1000
0001
1000
0001
,
0000
0000
1001
0000
,
1000
0000
1000
0000
,
1000
0000
0001
0000
,
0001
0000
0001
0000
,
0001
0000
0010
0000
,
0100
0000
1000
0000
,
0010
0000
0110
0000
,
0100
0000
0001
0000
,
0010
0000
1001
0000
,
1000
0000
1000
0000
,
1000
0000
0001
0000
,
0001
0000
0001
0000
,
0001
0000
0010
0000
,
0100
0000
1000
0000
,
0100
0000
0010
0000
,
0001
0000
0100
0000
,
0010
0100
0010
1000
,
0100
0000
0010
0001
,
0100
0000
0010
0100
,
0010
0000
1000
0100
,
0010
0000
0001
0010
,
0100
0000
1000
0001
,
0100
0000
0010
1000
,
0001
0000
0010
0001
,
0010
0001
1000
0100
,
0010
0000
0001
1000
,
0010
0000
0100
0001
,
1000
0000
0100
0010
,
0001
0000
1001
1000
,
1000
1000
0001
0001
,
0001
0001
0110
0100
,
0100
0100
0010
0010
,
0010
0010
1001
0000
,
0000
1001
0000
0000
,
0000
0000
0001
1000
,
0100
1000
0100
0010
,
0001
0010
0001
0100
,
0010
0100
0010
1000
,
0100
0000
1000
0001
,
1000
0001
0100
0010
,
0100
0010
1000
0100
,
0010
0001
1000
0000
,
1001
0000
0001
0100
,
0001
1000
0001
1000
,
0100
1000
0100
0010
,
0001
1000
0010
0000
,
0110
0000
0100
0010
,
0100
0010
1000
0100
,
1000
0100
1000
0001
,
1000
0001
1001
0000
,
0000
0000
0001
1000
,
0010
1000
0001
0000
,
0010
0000
0100
1000
,
0100
1000
0010
0000
,
0100
0000
2002
0000
,
0000
0000
0000
3003
,
1001
0000
0220
0000
,
0000
0000
0000
0330
,
0110
0000
1000
1000
,
1000
1000
0001
0001
,
0001
0001
0010
0010
,
0010
0010
0001
1000
,
0001
1000
0010
0010
,
0010
0010
1000
1000
,
1000
1000
0001
0001
,
0001
0001
0010
0010
,
0010
0010
0001
1000
,
0001
1000
0100
1000
,
0100
1000
0010
0100
,
0010
0100
0001
0010
,
0001
0010
0001
1000
,
0001
1000
0001
1000
,
0001
1000
0010
0100
,
0001
1000
0100
1000
,
0100
0000
0010
0001
,
0010
0001
0100
0010
,
0100
0010
1000
0100
,
1000
0100
1000
0001
,
1000
0001
0100
0001
,
0100
0001
0010
0100
,
0010
0100
1000
0100
,
1000
0100
1000
0001
,
1000
0001
1000
0100
,
1000
0100
0010
0001
,
0010
0001
0010
0100
,
0010
0100
1000
0010
,
1000
0010
1000
0001
,
1000
0001
0100
0010
,
0100
0001
1001
0000
,
0000
0000
1001
0000
,
0000
0000
0001
0010
,
0001
0010
0100
1000
,
0100
0000
1000
0000
1001
0000
0000
0001
,
0000
1001
0000
0000
;

//---------------dance-single - ----------------
#NOTES:
     dance-single:
     :
     Hard:
     14:
     0.696,0.714,0.318,0.147,0.000:
0000
0000
0000
0000
,
0000
0000
0000
0000
,
0000
0000
0000
0000
,
0000
0000
0000
0000
,
0000
0000
0000
0000
,
0000
0000
0000
0000
,
0000
0000
0000
0000
,
2001
3200
0320
0130
,
1000
0000
0010
0001
0000
0010
1000
0000
,
1002
0023
0230
0310
,
0001
0000
1000
0010
0000
0010
0100
0010
,
0210
0302
2003
3001
,
0010
0000
1000
0010
0000
0001
1000
0000
,
2001
3200
0320
0130
,
1000
0100
1000
0001
0010
0100
1000
0010
,
0000
0000
1001
0001
,
0001
0000
0001
0010
0200
0000
1000
0000
,
0010
0000
1300
0000
0010
0100
0010
0000
,
1000
0100
1000
0000
0002
0000
0100
0000
,
0010
0000
0103
0000
1001
0000
0001
0010
,
0001
0000
1000
0001
1000
0000
0100
0001
,
0100
0000
1000
0010
1000
0100
0010
0001
,
0100
0000
0010
0100
0010
0000
1000
0100
,
0010
0001
0010
0001
1000
0000
0100
0000
,
0010
0001
0200
0010
,
0001
0000
0310
1000
0100
0000
0010
0000
,
0001
0100
0020
0100
,
1000
0000
0130
0000
1001
0000
0001
1000
,
0001
0000
0010
1000
0010
0000
0001
0010
,
0001
1000
0100
0010
0100
0000
1000
0010
,
1000
0000
0001
1000
0001
1000
0000
1000
,
0010
0000
0110
0000
0100
0001
0100
0001
,
1000
0100
1000
0100
0010
0001
0010
0001
,
1000
0010
1000
0100
0010
0001
0100
0000
,
0100
0001
1000
0000
1000
0100
0010
0001
,
0010
0100
1000
0000
0001
0100
0001
1000
,
0001
1000
0100
1000
0100
1000
0010
0100
,
0010
0100
0001
0010
0100
1000
0010
0100
,
0001
0010
0000
0001
0010
0000
0100
1000
,
0000
0100
1000
0000
0001
1000
0001
0010
,
0001
0010
0100
1000
0100
1000
0001
0100
,
0001
0100
0010
0100
0010
0100
0001
0000
,
0001
0100
0010
0000
1000
0100
0010
1000
,
0010
0100
1000
0000
1001
0000
1001
0000
,
1100
1100
0011
0011
,
1001
1001
0100
0011
,
0110
1100
0110
0011
,
2001
0000
0000
0000
3001
0100
0000
0100
,
0010
0000
0010
1000
0000
2000
0000
0000
,
0000
0000
0000
0000
3001
0100
0001
0000
,
1000
0100
1000
0000
0001
1000
0100
0010
,
0001
0010
0100
1000
0001
0100
0001
0000
,
1000
0100
1000
0000
0010
0100
0001
1000
,
0100
1000
0001
1000
0100
0010
0100
0000
,
1000
0010
1000
0000
0001
0010
0100
0010
,
0001
1000
0010
1000
0001
0000
1000
0001
,
0000
1000
0001
1000
0000
0001
0100
0000
,
0100
0000
0100
0000
0001
1000
0001
0000
,
1000
0100
1000
0000
0100
0010
0001
0010
,
0100
1000
0010
0100
0010
0000
1000
0010
,
0000
1000
0001
0000
1001
0000
0000
1001
,
0000
0000
1001
0000
1000
0100
1000
0000
,
0001
0100
0001
0000
0010
0100
1000
0001
,
1000
0100
0010
0001
0100
0010
0100
0000
,
0001
0100
0001
0000
1001
0000
0000
1001
,
0000
0000
1001
0000
1000
0100
0010
0001
,
0010
0100
1000
0000
0010
0000
0001
0000
,
0010
0000
1000
0100
0010
0000
0001
1000
,
0001
0000
0100
0010
1000
0000
0100
0000
,
0010
0000
0001
0000
1001
0000
1000
0001
,
0000
1000
0001
0000
1000
0001
0000
1000
,
0001
0010
0100
0000
1001
0000
0001
1000
,
0000
0001
1000
0000
0001
1000
0000
0001
,
1000
0010
0100
0000
0001
0010
0100
0000
,
0100
0000
0100
0000
1000
0001
0100
0000
,
0100
0000
0100
0000
0001
1000
0010
0000
,
0010
0000
0010
0000
1010
0000
0000
1001
,
0000
0000
0101
0000
0001
1000
0100
0000
,
0100
0000
0100
0000
1000
0100
0010
0000
,
0010
0000
0010
0000
0001
0000
0100
0010
,
0000
0100
0010
1000
0100
0000
0100
0000
,
0010
0001
0010
0001
1000
0100
0010
0000
,
0010
0000
0010
0000
0001
0100
0010
0000
,
0010
0000
0010
0000
1000
0001
0100
0000
,
0100
0000
0100
0000
1002
0000
0000
1000
,
0000
0000
1003
0000
0001
0100
0001
0000
,
0100
0010
1000
0000
1001
0000
0001
0000
,
1001
0000
1000
0000
0010
0100
0001
0010
,
0000
0001
0010
0000
0100
1000
0010
0000
,
0010
0000
0010
0000
1000
0100
0001
0100
,
1000
0000
1000
0000
0001
0010
1000
0010
,
0001
0000
0001
0000
1000
0100
0010
0100
,
0000
0010
0100
0000
1001
0000
0001
1000
,
0000
0001
1000
0000
0001
0100
1000
0100
,
0001
0000
0001
0000
1000
0010
0001
0010
,
1000
0000
1000
0000
0001
0000
0100
0010
,
0000
0100
0010
1000
0100
0000
0100
0000
,
0010
0001
0010
0001
1000
0010
0001
0010
,
0100
0001
1000
0000
0001
0100
1000
0100
,
0010
1000
0001
0000
1000
0100
0001
0100
,
1000
0010
0100
0000
0001
0000
1000
0100
,
0000
1000
0001
0000
1000
0100
1000
0010
,
0100
0001
0010
0000
1001
0000
1000
0000
,
1001
0000
0001
0000
1001
0000
1000
0010
,
0000
1000
0010
0000
1000
0001
0010
0001
,
0000
0010
0001
0000
1000
0100
1000
0010
,
0100
0001
0010
0000
0001
0010
0100
0000
,
1000
0100
0010
0001
1000
0000
1000
0010
,
0000
0010
0110
0000
0000
0000
0000
0000
;

//---------------dance-single - ----------------
#NOTES:
     dance-single:
     :
     Medium:
     10:
     0.553,0.588,0.217,0.039,0.000:
0000
0000
0000
0000
,
0000
0000
0000
0000
,
0000
0000
0000
0000
,
0000
0000
0000
0000
,
0000
0000
0000
0000
,
0000
0000
0000
0000
,
0000
0000
0000
0000
,
1000
0001
1000
0100
,
0010
0100
0010
0000
,
0001
1000
0001
0100
,
0010
0100
0001
0001
,
1000
0100
0010
0001
,
1000
0001
1000
0000
,
0010
0100
0010
0100
,
0001
0000
1000
0000
0100
0000
0010
0100
,
0000
0000
1001
0001
,
0001
0001
2000
0000
,
0000
3001
0100
0100
,
0100
0100
0002
0000
,
0000
1003
0001
0010
,
0001
1000
0100
0010
,
0001
1000
0001
1000
,
0100
0010
0001
1000
,
0010
0100
0010
0100
0010
0000
0010
0000
,
0010
0010
2000
0000
,
0000
3001
0100
0100
,
0100
0100
0002
0000
,
0000
1003
0001
0010
,
0001
0010
0100
1000
,
0010
0100
0101
0001
,
1000
0000
0010
0000
1000
0001
0000
0000
,
1000
0000
1000
0000
0001
1000
0001
0000
,
0100
0001
0100
0000
0001
1000
0001
0000
,
0100
0010
0100
0000
0001
0000
0100
0000
,
1000
0000
0100
0000
0001
1000
0010
0000
,
0100
0010
0100
0000
0001
1000
0001
0000
,
1000
0100
1000
0000
0001
1000
0001
0000
,
0100
0010
0100
0000
0001
0000
1000
0000
,
0100
0010
0000
0100
0010
0000
0001
1000
,
0000
0001
1000
0000
0001
0010
0001
0000
,
1000
0001
1000
0000
0001
0010
0001
0000
,
0100
0010
0100
0000
0001
0000
0010
0000
,
1000
0010
0001
1000
,
0001
1000
1100
0100
,
1100
0100
0011
0010
,
0011
0010
0110
0100
,
0110
0100
1001
1000
,
1001
0000
1000
0000
0001
0100
0000
0100
,
0010
0000
0010
1000
0000
2000
0000
0000
,
0000
0000
0000
0000
3001
0000
1000
0100
,
1000
0000
0010
0100
0001
0000
1000
0001
,
1000
0000
0100
0000
0010
0001
0010
0000
,
0001
0010
0100
0000
1000
0001
1000
0000
,
0100
0000
0010
0000
0001
0000
1000
0010
,
1000
0000
0010
0100
0001
0000
1000
0001
,
1000
0000
0100
0000
0010
0000
0001
1000
,
0000
0001
1000
0000
0000
0000
0010
0000
,
0010
0000
0010
0000
1000
0000
0100
0010
,
0100
0000
1000
0100
0010
0000
0001
1000
,
0001
0000
0100
0010
1000
0000
0010
0000
,
0001
0000
0010
0000
1000
0000
0000
1001
,
0000
0000
0001
0000
1000
0000
0100
1000
,
0100
0000
0010
0001
0100
0000
0001
1000
,
0001
0010
1000
0010
,
0001
0000
1000
0000
1001
0000
0000
1001
,
0000
0000
1001
0000
0001
0000
1000
0100
,
0000
1000
0100
0000
0010
0000
0001
0000
,
0100
0000
0010
0100
0010
0000
1000
0000
,
0100
0010
0001
0100
,
1000
0000
0100
0000
0001
0000
1000
0001
,
0000
1000
0001
0000
0100
0010
0000
0100
,
0010
0000
0010
0000
1001
0000
0001
1000
,
0000
0001
1000
0000
0010
0100
0000
0010
,
0100
0100
0001
0001
,
0001
0001
1000
1000
,
1000
1000
0010
0010
,
0010
0010
1001
0100
,
1001
0100
1000
1000
,
1000
1000
0001
0001
,
0001
0000
0001
0000
0100
0000
0010
0100
,
0000
0010
0100
0000
0001
0000
0010
0000
,
0100
1000
0100
1000
0100
0000
1100
0000
,
0100
1100
0001
1001
,
0001
1001
0100
0101
,
0100
0000
0101
0000
1001
0000
0000
0001
,
0000
0000
1000
0000
0001
1000
0001
0000
,
1000
0100
1000
0000
1001
0000
0001
0000
,
1000
0000
0010
0100
0010
0000
1000
0001
,
0000
1000
0001
0000
1001
0000
1000
0000
,
0001
0000
0100
0000
0010
0100
0010
0100
,
0001
0010
0001
0000
0010
0100
0010
0100
,
1000
0010
1000
0000
0001
0000
0010
0000
,
0100
0000
1000
0000
1001
0000
0001
1000
,
0000
0001
1000
0000
0010
0100
0010
0100
,
0001
0010
0001
0000
0010
0100
0010
0100
,
1000
0010
1000
0000
0100
0000
0010
0000
,
0001
1000
0010
1000
,
0001
1000
0001
1000
0001
0000
0010
0000
,
0100
1000
0001
0000
0010
0000
0100
0000
,
0010
0001
0100
0000
0001
0000
1000
0000
,
0100
0010
0001
0000
0100
0000
0001
0000
,
0010
0100
1000
0000
0001
0000
0100
0000
,
0001
1000
0100
0010
,
0100
0000
1000
0000
1001
0000
0001
1000
,
0000
0001
1000
0000
0001
1000
0001
1000
,
0001
0000
0010
0000
0100
1000
0100
0000
,
1000
0100
0010
0000
0001
0100
0001
0000
,
0010
0100
1000
0001
1000
0000
0001
1000
,
0000
0001
1000
0000
0000
0000
0000
0000
;

//---------------dance-double - ----------------
#NOTES:
     dance-double:
     :
     Easy:
     7:
     0.376,0.420,0.116,0.054,0.000:
00000000
00000000
00000000
00000000
,
00000000
00000000
00000000
00000000
,
00000000
00000000
00000000
00000000
,
00000000
00000000
00000000
00000000
,
00000000
00000000
00000000
00000000
,
00000000
00000000
00000000
00000000
,
00000000
00000000
00000000
00000000
,
10000000
01000000
00100000
00010000
,
10000000
00000000
00001000
00000000
,
00010000
00000010
00000100
00000001
,
00001000
00000010
00010000
00010000
,
00001000
00000100
00000010
00000001
,
00010000
00000000
00000100
00001000
,
00010000
00100000
01000000
10000000
,
00010000
00100000
00010000
10000000
,
00000000
00000000
20010000
00000000
,
00000000
00000000
30010000
00000000
,
00000000
00000000
00100000
00000000
,
00001000
00000000
00100000
00000000
,
00000000
00000000
00001000
00000000
,
00010000
00000000
00001000
00000000
,
00010000
00000000
00000010
00000000
,
00000100
00000000
00000010
00000000
,
00000100
00000000
00000002
00000000
,
00000000
00000000
00001003
00000000
,
00000000
00000000
00000100
00000000
,
00010000
00000000
00000100
00000000
,
00000000
00000000
00010000
00000000
,
00001000
00000000
00100000
00000000
,
01000000
00000000
10000000
00000000
,
00010000
00000000
20000000
00000000
,
30010000
00000000
10000000
01000000
,
00100000
00000000
01000000
00100000
,
00010000
00000000
10000000
01000000
,
10000000
01000000
00100000
00010000
,
00100000
00000000
00001000
00010000
,
00000100
00000000
00010000
00000100
,
00000010
00000000
00000001
00001000
,
00000001
00001000
00000010
00010000
,
00000010
00010000
00001000
00100000
,
00000000
00000000
00001000
00100000
,
01000000
00000000
10000000
01000000
,
10000000
01000000
00100000
00001000
,
00100000
00001000
00010000
00010000
,
00010000
00010000
00000010
00000010
,
00000010
00000010
00000110
00000100
,
00000100
00000100
00000001
00000001
,
00000001
00000001
00001001
00000000
,
00000000
00001001
00000000
00000000
,
00000000
00000000
00000001
00000010
,
00000100
00000010
00000001
00001000
,
00000001
00001000
00000001
00010000
,
00001000
00010000
00001000
01000000
,
00100000
00000000
10000000
00100000
,
01000000
10000000
00010000
10000000
,
00010000
10000000
00010000
00001000
,
00000100
00000010
00000100
00000000
,
00000110
00000000
00000100
00000001
,
00000010
00000001
00010000
00000100
,
00010000
00001000
00100000
01000000
,
10000000
01000000
00100000
00000000
,
01100000
00000000
00100000
01000000
,
10000000
01000000
00100000
00001000
,
01000000
00010000
00001000
00000100
,
00000010
00000001
00001001
00000000
,
00000000
00001000
00000001
00000010
,
00000001
00010000
00000100
00010000
,
00001000
00000000
00100000
01000000
,
00100000
01000000
10000000
00000000
,
00010000
00000000
02200000
00000000
,
00000000
00000000
00000000
03300000
,
01100000
00000000
20020000
00000000
,
00000000
00000000
00000000
30030000
,
10010000
00000000
01000000
10000000
,
01000000
10000000
00100000
01000000
,
00100000
01000000
00001000
01000000
,
00001000
01000000
00001000
00001000
,
00001000
00001000
00010000
00001000
,
00010000
00001000
00010000
00000010
,
00010000
00000010
00000100
00000010
,
00000100
00000010
00001000
00001000
,
00001000
00001000
00000001
00000010
,
00000001
00000010
00000001
00010000
,
00000001
00010000
00001000
00100000
,
00001000
00100000
00010000
00010000
,
00010000
00010000
00100000
01000000
,
10000000
01000000
00100000
00000000
,
00100000
00010000
10000000
00010000
,
00100000
01000000
10000000
00100000
,
01000000
00000000
00001000
00001000
,
00001000
00001000
00010000
00000100
,
00010000
00000100
00001000
00001000
,
00001000
00001000
00000100
00000010
,
00000100
00000010
00000001
00000001
,
00000001
00000001
00010000
00000100
,
00010000
00000100
00010000
00010000
,
00010000
00010000
00001000
00100000
,
00001000
00100000
01000000
01000000
,
01000000
01000000
10000000
00010000
,
10000000
00010000
01000000
01000000
,
01000000
01000000
00001000
00010000
,
00001000
00010000
00000010
00000100
,
00000001
00000010
00000100
00001000
,
00000010
00000000
00000110
00000000
,
00000000
00000000
00000110
00000000
,
00000000
00000000
00000010
00000001
,
00000010
00000100
00010000
00001000
,
01000000
00000000
00100000
00000000
01100000
00000000
00000000
00100000
,
00000000
01100000
00000000
00000000
;

//---------------dance-double - ----------------
#NOTES:
     dance-double:
     :
     Medium:
     10:
     0.557,0.546,0.225,0.008,0.000:
00000000
00000000
00000000
00000000
,
00000000
00000000
00000000
00000000
,
00000000
00000000
00000000
00000000
,
00000000
00000000
00000000
00000000
,
00000000
00000000
00000000
00000000
,
00000000
00000000
00000000
00000000
,
00000000
00000000
00000000
00000000
,
10010000
00100000
01000000
10000000
,
00010000
00000000
10000000
00000000
,
00100000
01000000
00001000
00010000
,
00000100
00000000
00000010
00000010
,
00000100
00000001
00000010
00000100
,
00010000
00000000
00001000
00000000
,
00100000
01000000
10000000
00010000
,
00100000
00000000
01000000
00000000
10000000
00000000
00010000
10000000
,
00000000
00000000
10010000
01000000
,
00100000
00010000
00001000
00010000
,
00001000
00010000
00000100
00000010
,
00000001
00001000
00000010
00000100
,
00000010
00000100
00000110
00000010
,
00000001
00000010
00000001
00000100
,
00000010
00000100
00000010
00010000
,
00001000
00010000
00001000
00100000
,
01000000
10000000
01000000
10000000
01000000
00000000
10000000
00000000
,
00100000
01000000
00010000
00001000
,
00010000
00001000
00000010
00000100
,
00000001
00001000
00000100
00010000
,
00000100
00010000
00001000
00100000
,
01000000
10000000
00010000
01000000
,
00010000
10000000
10010000
00100000
,
01000000
00000000
10000000
00000000
00010000
10000000
00000000
00000000
,
00001000
00000000
00001000
00000000
00010000
00001000
00010000
00000000
,
00000001
00000100
00000001
00000000
00010000
00001000
00010000
00000000
,
00000001
00000100
00000001
00000000
00000010
00000000
00000100
00000000
,
00010000
00000000
00001000
00000000
00100000
01000000
10000000
00000000
,
00010000
10000000
00010000
00000000
00100000
01000000
00100000
00000000
,
01000000
00010000
01000000
00000000
00100000
01000000
00100000
00000000
,
00010000
01000000
00010000
00000000
00100000
00000000
00001000
00000000
,
00000100
00000010
00000000
00000100
00000010
00000000
00000001
00000100
,
00000000
00000001
00000100
00000000
00000001
00001000
00000001
00000000
,
00010000
00000100
00010000
00000000
00000001
00001000
00000001
00000000
,
00010000
00000100
00010000
00000000
00001000
00000000
00100000
00000000
,
01000000
10000000
00100000
01000000
,
00001000
00010000
00011000
00001000
,
00001000
00001000
00010000
00010000
,
00010000
00010000
00010001
00000100
,
00000010
00000001
00001001
00001001
,
00000110
00000000
00000000
00000000
00000100
00000010
00000000
00000010
,
00010000
00000000
00010000
00001000
00000000
00002000
00000000
00000000
,
00000000
00000000
00000000
00000000
10003000
00000000
01000000
10000000
,
01000000
00000000
10000000
01000000
00100000
00000000
00001000
00100000
,
00001000
00000000
00010000
00000000
00000001
00000100
00000001
00000000
,
00000010
00000100
00001000
00000000
00010000
00000100
00010000
00000000
,
00001000
00000000
00100000
01000000
00100000
00000000
00010000
01000000
,
00100000
00000000
10000000
01000000
00100000
00000000
00010000
00000000
,
00001000
00000010
00001000
00000000
00000100
00000000
00000010
00000001
,
00000000
00000010
00000001
00000000
00000000
00000000
00001001
00000000
,
00001001
00000000
00001001
00000000
00000001
00000000
00000100
00000001
,
00000100
00000000
00000001
00000010
00000100
00000000
00010000
00001000
,
00010000
00000000
00001000
00000000
00100000
01000000
10000000
00000000
,
00100000
01000000
00100000
00000000
01000000
00000000
00000000
01100000
,
00000000
00000000
00100000
00000000
10010000
00000000
10000000
01000000
,
10000000
00000000
01000000
00100000
00010000
00000000
00001000
01000000
,
00001000
00000000
00010000
00000000
00000100
00000010
00000100
00000000
,
00001000
00000001
00000100
00000000
00000110
00000000
00000000
00000010
,
00000000
00000000
00000010
00000000
00001001
00000000
00000001
00001000
,
00000000
00000001
00001000
00000000
00000100
00000000
00000010
00000000
,
00000100
00000000
00010000
00001000
00010000
00000000
00001000
00000000
,
00100000
01000000
10000000
00010000
,
01000000
00000000
00001000
00000000
00010000
00000000
00000100
00000010
,
00000000
00000100
00000010
00000000
00000001
00000100
00000000
00000001
,
00000100
00000000
00000100
00000000
00001001
00000000
00001000
00000001
,
00000000
00001000
00000001
00000000
00001000
00010000
00000000
00001000
,
00010000
00010000
01100000
00100000
,
00100000
00100000
01000000
01000000
,
01000000
01000000
10000000
10000000
,
10000000
10000000
01100000
00010000
,
00011000
00001000
00010000
00010000
,
00010000
00010000
00000010
00000010
,
00000010
00000010
00000100
00000100
,
00000100
00000100
00000001
00000001
,
00001000
00000001
00001000
00000001
00001000
00000000
00001001
00000000
,
00000001
00000001
00000001
00000010
,
00000010
00000010
00000010
00010000
,
00010000
00000000
00010000
00000000
00010000
00000000
00000000
00001000
,
00000000
00000000
01000000
00000000
00100000
01000000
00100000
00000000
,
10000000
00010000
10000000
00000000
10010000
00000000
00100000
00000000
,
01000000
00000000
10000000
00010000
10000000
00000000
01000000
00100000
,
00000000
01000000
00100000
00000000
01100000
00000000
00001000
00000000
,
00100000
00000000
00001000
00000000
00010000
00001000
00010000
00001000
,
00000100
00000010
00000001
00000000
00000100
00000001
00000100
00000001
,
00000010
00000100
00010000
00000000
00001000
00000000
00100000
00000000
,
01000000
00000000
10000000
00000000
10010000
00000000
00100000
01000000
,
00000000
00100000
01000000
00000000
00010000
00100000
00010000
00100000
,
00001000
00000100
00000010
00000000
00000001
00000100
00000001
00000100
,
00000010
00001000
00010000
00000000
00010000
00000000
00001000
00000000
,
00100000
01000000
10000000
01000000
,
00100000
01000000
00100000
00000000
01100000
00000000
01000000
00000000
,
00010000
01000000
00100000
00000000
10000000
00000000
01000000
00000000
,
00100000
00001000
00000100
00000000
00000010
00000000
00000100
00000000
,
00010000
00000010
00000100
00000000
00000001
00000000
00000100
00000010
,
00000000
00000100
00000010
00000000
00011000
00000000
00001000
00000000
,
00100000
01000000
10010000
10000000
,
10010000
00000000
01000000
00000000
01100000
00000000
00100000
01000000
,
00000000
00100000
01000000
00000000
00001000
00010000
00001000
00010000
,
00000000
00000010
00010000
00000000
00000100
00000010
00000100
00000010
,
00000001
00000100
00000010
00000000
00010000
00001000
00010000
00000000
,
00001000
00100000
01000000
10000000
00100000
00000000
01000000
00100000
,
00000000
01000000
00100000
00000000
00000000
00000000
00000000
00000000
;

//---------------dance-double - ----------------
#NOTES:
     dance-double:
     :
     Hard:
     14:
     0.691,0.714,0.334,0.140,0.000:
00000000
00000000
00000000
00000000
,
00000000
00000000
00000000
00000000
,
00000000
00000000
00000000
00000000
,
00000000
00000000
00000000
00000000
,
00000000
00000000
00000000
00000000
,
00000000
00000000
00000000
00000000
,
00000000
00000000
00000000
00000000
,
20010000
32000000
03200000
00301000
,
00010000
00000000
00000100
00000010
00000000
00000001
00000100
00000000
,
00001002
00000023
00000230
00010300
,
00001000
00000000
00100000
01000000
00000000
10000000
00010000
10000000
,
10020000
00230000
02300000
13000000
,
00010000
00000000
01000000
00001000
00000000
00010000
00001000
00000000
,
00020001
00030200
00000320
00000031
,
00000100
00000001
00000100
00000001
00010000
00001000
00100000
01000000
,
00000000
00000000
10010000
10000000
,
10000000
10000000
00002000
01000000
,
00100000
01003000
00001000
00010000
,
00000100
00000010
00000002
00000010
,
00000100
00000000
00000013
00000000
00001001
00000000
00001000
00000010
,
00001000
00000000
00000001
00010000
00000001
00000000
00010000
00001000
,
00010000
00000000
00001000
00100000
00001000
00000000
00100000
01000000
,
10000000
00000000
00010000
10000000
00010000
00000000
01000000
00100000
,
01000000
00010000
00100000
01000000
10000000
00000000
00100000
00000000
,
01000000
00010000
20000000
01000000
,
00100000
31000000
10000000
01000000
,
00100000
00010000
00002000
00000100
,
00000010
00000000
00003100
00000000
00001001
00000000
00000001
00000010
,
00000001
00000000
00001000
00000010
00001000
00000000
00000001
00001000
,
00000001
00000010
00000100
00010000
00001000
00000000
01000000
00100000
,
01000000
00000000
00010000
10000000
00010000
10000000
00000000
01000000
,
00100000
00000000
01100000
00000000
01000000
00010000
01000000
00010000
,
10000000
01000000
10000000
01000000
00100000
00001000
00100000
00001000
,
00010000
00000010
00000100
00000001
00000010
00000100
00000010
00000000
,
00000001
00000010
00000100
00000000
00010000
00001000
10000000
00100000
,
10000000
00001000
00010000
00000000
00000100
00000010
00000100
00000010
,
00000001
00000100
00000001
00000100
00000001
00010000
00000001
00010000
,
00001000
00100000
01000000
10000000
00010000
01000000
00100000
00000000
,
10000000
00010000
00000000
01000000
00001000
00000000
00010000
00000100
,
00000000
00000010
00000001
00000000
00000010
00000100
00000010
00000100
,
00010000
00001000
00010000
01001000
00100000
01000000
00100000
10000000
,
01000000
10000000
01000000
00100000
00001000
00010000
00000100
00000000
,
00001000
00000100
00000010
00000000
00000001
00001000
00000010
00001000
,
00000001
00010000
00001000
00000000
00011000
00000000
00011000
00000000
,
01001000
01001000
10100000
10100000
,
01100000
01100000
01010000
01000000
,
01001000
00001000
00011000
00010000
,
00010002
00000000
00000000
00000000
00001003
00000100
00000000
00010000
,
00001000
00000000
00100000
01000000
00000000
02000000
00000000
00000000
,
00000000
00000000
00000000
00000000
13000000
00010000
00100000
00000000
,
00010000
00100000
01000000
00100000
00010000
10000000
00010000
10000000
,
00100000
10000000
00001000
00010000
00000100
00000010
00000001
00000000
,
00001000
00000001
00001000
00000000
00000100
00000010
00000100
00000010
,
00000001
00001000
00000010
00010000
00001000
00100000
01000000
00000000
,
10000000
00010000
01000000
00000000
00010000
10000000
01000000
10000000
,
00010000
10000000
01000000
00100000
00001000
00000000
00001000
00010000
,
00000000
00000010
00000100
00000010
00000000
00001000
00000001
00000000
,
00001001
00000000
00001001
00000000
00001000
00000100
00000010
00000000
,
00000001
00000100
00000010
00000100
00000001
00000100
00000001
00000100
,
00000010
00001000
00010000
00100000
01000000
00000000
10000000
00010000
,
00000000
00010000
01000000
00000000
01100000
00000000
00000000
01001000
,
00000000
00000000
00011000
00000000
00010000
00000100
00000010
00000000
,
00000001
00001000
00000010
00001000
00000001
00000010
00000001
00000010
,
00000100
00010000
00001000
00100000
01000000
00100000
00010000
00000000
,
00100000
00001000
00010000
00000000
00011000
00000000
00000000
00010010
,
00000000
00000000
00000110
00000000
00000100
00000001
00000010
00000000
,
00000100
00001000
00010000
00000000
01000000
00000000
00100000
00000000
,
10000000
00000000
01000000
00100000
00010000
00000000
00001000
01000000
,
00001000
00000000
00010000
00000100
00000010
00000000
00000001
00000000
,
00001000
00000000
00000100
00000000
00010100
00000000
00010000
00001000
,
00000000
00010000
00001000
00000000
01000000
00100000
00000000
01000000
,
00100000
10000000
01000000
00000000
10010000
00000000
00010000
10000000
,
00000000
00010000
10000000
00000000
00001000
00010000
00000000
00001000
,
00010000
00000100
00000010
00000000
00000001
00000010
00000100
00000000
,
00000100
00000000
00000100
00000000
00010000
00001000
00100000
00000000
,
00100000
00000000
00100000
00000000
01000000
10000000
00001000
00000000
,
00001000
00000000
00001000
00000000
00011000
00000000
00000000
00010010
,
00000000
00000000
00000110
00000000
00000100
00000010
00000001
00000000
,
00000001
00000000
00000001
00000000
00000100
00000010
00010000
00000000
,
00010000
00000000
00010000
00000000
00001000
00000000
00100000
01000000
,
00000000
00100000
01000000
10000000
00010000
00000000
00010000
00000000
,
10000000
00100000
10000000
00100000
01000000
00010000
10000000
00000000
,
10000000
00000000
10000000
00000000
01000000
00100000
00001000
00000000
,
00001000
00000000
00001000
00000000
00010000
00000010
00000100
00000000
,
00000100
00000000
00000100
00000000
00000001
00000010
00000100
00000000
,
00000100
00000100
00011000
00001000
,
00100000
01000000
10000000
00000000
10010000
00000000
00010000
00000000
,
10010000
00000000
10000000
00000000
00100000
01000000
00001000
00010000
,
00000000
00000100
00000010
00000000
00000001
00001000
00000100
00000000
,
00000100
00000000
00000100
00000000
00010000
00001000
00100000
01000000
,
10000000
00000000
10000000
00000000
01000000
00100000
00001000
00010000
,
00000010
00000000
00000010
00000000
00001000
00000001
00000010
00000100
,
00000000
00010000
00001000
00000000
01100000
00000000
00100000
01000000
,
00000000
00100000
01000000
00000000
00010000
00100000
10000000
00100000
,
00001000
00000000
00001000
00000000
00010000
00000100
00000001
00000100
,
00001000
00000000
00001000
00000000
00000010
00000000
00000100
00000001
,
00000000
00010000
00001000
00100000
01000000
00000000
01000000
00000000
,
10000000
00010000
10000000
00010000
10000000
00100000
00010000
00100000
,
10000000
01000000
00100000
00000000
00001000
00010000
00000010
00000001
,
00000010
00010000
00000100
00000000
00001000
00010000
01000000
10000000
,
01000000
00010000
00100000
00000000
00001000
00000000
00010000
00000010
,
00000000
00001000
00000001
00000000
00000010
00000100
00010000
00001000
,
00100000
01000000
10000000
00000000
10010000
00000000
00010000
00000000
,
10010000
00000000
10000000
00000000
11000000
00000000
01000000
10000000
,
00000000
00100000
01000000
00000000
00010000
00100000
10000000
00100000
,
00000000
00001000
00010000
00000000
00000100
00000010
00000001
00000100
,
00001000
00000100
00000001
00000000
00010001
00000000
00010000
00000000
,
00011000
00000000
00001000
00100000
01000000
00000000
10000000
00100000
,
00000000
10000000
00001000
00000000
00000000
00000000
00000000
00000000
;

//---------------dance-single - ----------------
#NOTES:
     dance-single:
     :
     Beginner:
     3:
     0.100,0.125,0.085,0.000,0.000: // measure 1
0000
0000
0000
0000
,  // measure 2
0000
0000
0000
0000
,  // measure 3
0000
0000
0000
0000
,  // measure 4
0000
0000
0000
0000
,  // measure 5
0000
0000
0000
0000
,  // measure 6
0000
0000
0000
0000
,  // measure 7
0000
0000
0000
0000
,  // measure 8
1000
0000
0000
0000
,  // measure 9
0001
0000
0000
0000
,  // measure 10
1000
0000
0000
0000
,  // measure 11
0100
0000
0000
0000
,  // measure 12
0010
0000
0000
0000
,  // measure 13
0100
0000
0000
0000
,  // measure 14
0010
0000
0000
0000
,  // measure 15
0001
0000
0000
0000
,  // measure 16
0000
0000
0100
0000
,  // measure 17
0000
0000
0000
0000
,  // measure 18
0000
0000
0100
0000
,  // measure 19
0000
0000
0000
0000
,  // measure 20
0000
0000
0110
0000
,  // measure 21
0000
0000
0000
0000
,  // measure 22
0000
0000
0010
0000
,  // measure 23
0000
0000
0000
0000
,  // measure 24
0000
0000
1001
0000
,  // measure 25
0000
0000
0000
0000
,  // measure 26
0000
0000
1000
0000
,  // measure 27
0000
0000
0000
0000
,  // measure 28
0000
0000
1001
0000
,  // measure 29
0000
0000
0000
0000
,  // measure 30
0000
0000
0001
0000
,  // measure 31
0000
0000
0000
0000
,  // measure 32
0000
0000
0010
0000
,  // measure 33
0000
0000
0100
0000
,  // measure 34
0000
0000
0010
0000
,  // measure 35
0000
0000
0100
0000
,  // measure 36
0000
0000
1000
0000
,  // measure 37
0000
0000
0001
0000
,  // measure 38
0000
0000
1000
0000
,  // measure 39
0000
0000
0000
0000
,  // measure 40
0000
0000
0010
0000
,  // measure 41
0000
0000
1000
0000
,  // measure 42
0000
0000
0010
0000
,  // measure 43
0000
0000
1000
0000
,  // measure 44
0000
0000
0001
0000
,  // measure 45
0000
0000
0001
0000
,  // measure 46
0000
0000
1001
0000
,  // measure 47
0000
0000
0000
0000
,  // measure 48
0000
0000
1001
0000
,  // measure 49
0000
0000
0000
0000
,  // measure 50
0000
0000
1000
0000
,  // measure 51
0000
0000
0100
0000
,  // measure 52
0000
0000
0010
0000
,  // measure 53
0000
0000
0000
0000
,  // measure 54
0000
0000
0001
0000
,  // measure 55
0000
0000
0010
0000
,  // measure 56
0000
0000
0100
0000
,  // measure 57
0000
0000
0000
0000
,  // measure 58
0000
0000
1000
0000
,  // measure 59
0000
0000
0010
0000
,  // measure 60
0000
0000
0100
0000
,  // measure 61
0000
0000
0000
0000
,  // measure 62
0000
0000
0001
0000
,  // measure 63
0000
0000
0100
0000
,  // measure 64
0000
0000
0010
0000
,  // measure 65
0000
0000
0000
0000
,  // measure 66
0000
0000
1001
0000
,  // measure 67
0000
0000
0000
0000
,  // measure 68
0000
0000
0001
0000
,  // measure 69
0000
0000
0000
0000
,  // measure 70
0000
0000
1001
0000
,  // measure 71
0000
0000
0000
0000
,  // measure 72
0000
0000
1001
0000
,  // measure 73
0000
0000
0000
0000
,  // measure 74
0000
0000
0010
0000
,  // measure 75
0000
0000
0010
0000
,  // measure 76
0000
0000
0010
0000
,  // measure 77
0000
0000
0110
0000
,  // measure 78
0000
0000
0100
0000
,  // measure 79
0000
0000
0100
0000
,  // measure 80
0000
0000
0100
0000
,  // measure 81
0000
0000
0000
0000
,  // measure 82
0000
0000
0001
0000
,  // measure 83
0000
0000
0001
0000
,  // measure 84
0000
0000
0001
0000
,  // measure 85
0000
0000
1001
0000
,  // measure 86
0000
0000
1000
0000
,  // measure 87
0000
0000
0001
0000
,  // measure 88
0000
0000
1000
0000
,  // measure 89
0000
0000
0000
0000
,  // measure 90
0000
0000
0100
0000
,  // measure 91
0000
0000
0100
0000
,  // measure 92
0000
0000
0010
0000
,  // measure 93
0000
0000
0010
0000
,  // measure 94
0000
0000
0001
0000
,  // measure 95
0000
0000
0001
0000
,  // measure 96
0000
0000
1000
0000
,  // measure 97
0000
0000
1000
0000
,  // measure 98
0000
0000
0100
0000
,  // measure 99
0000
0000
0100
0000
,  // measure 100
0000
0000
1000
0000
,  // measure 101
0000
0000
1000
0000
,  // measure 102
0000
0000
0010
0000
,  // measure 103
0000
0000
0010
0000
,  // measure 104
0000
0000
0100
0000
,  // measure 105
0000
0000
0000
0000
,  // measure 106
0000
0000
0001
0000
,  // measure 107
0000
0000
0010
0000
,  // measure 108
0000
0000
1001
0000
;
