#TITLE:Black Sheep;
#SUBTITLE:;
#ARTIST:EVO+;
#TITLETRANSLIT:;
#SUBTITLETRANSLIT:;
#ARTISTTRANSLIT:;
#CREDIT:DigiMindAxel;
#BANNER:Black Sheep.png;
#BACKGROUND:Black Sheep-bg.png;
#LYRICSPATH:Black Sheep.lrc;
#CDTITLE:DigiMindAxel original simfile.png;
#MUSIC:Black Sheep.ogg;
#METERTYPE:DDR X;
#OFFSET:-1.501;
#SAMPLESTART:74.217;
#SAMPLELENGTH:12.000;
#SELECTABLE:YES;
#BPMS:0.000=95.000;
#STOPS:;
#BGCHANGES:0.000=Black Sheep.avi=1.000=1=1=0,
99999=-nosongbg-=1.000=0=0=0 // don't automatically add -songbackground-
;

//---------------dance-single - ----------------
#NOTES:
     dance-single:
     :
     Easy:
     3:
     0.166,0.193,0.035,0.329,0.004:
0000
0000
0000
0000
,
0000
0000
0000
0000
,
0000
0000
0000
0000
,
0000
0000
0000
0000
,
0000
0000
0000
0000
,
2000
0000
3200
0000
,
2300
0000
3002
0000
,
2003
0000
3020
0000
,
0030
0000
0000
0110
,
0200
0000
0302
0000
,
0023
0000
0032
0000
,
2003
0000
3020
0000
,
0230
0000
0310
0000
,
0200
0000
0302
0000
,
2003
0000
3200
0000
,
0310
0010
0010
0110
,
1000
0000
0000
0000
0000
1001
0000
0000
,
0001
0000
0010
0000
,
0001
0000
0100
0000
,
0010
0000
0010
0000
,
0010
0000
1000
0000
,
1000
0000
0100
0000
,
1000
0000
0010
0000
,
0100
0000
0100
0000
,
0001
0000
2000
0000
,
3001
0000
2000
0000
,
3100
0000
0020
0000
,
0031
0000
0200
0000
,
0310
0100
0010
0000
,
2000
0000
3002
0000
,
0013
0001
0100
0000
,
0020
0000
2030
0000
,
3100
0010
0001
0000
,
2000
0000
3002
0000
,
0013
0100
1000
0000
,
0020
0000
0230
0000
,
0301
1000
0100
0000
,
2000
0000
3002
0000
,
2003
0000
3002
0000
,
0023
0000
0230
0000
,
2300
0000
3200
0000
,
0310
0001
0010
0001
,
0100
0010
0100
0010
,
1000
0100
1000
0100
,
2000
0000
0000
0000
0000
0000
0000
0000
3000
0000
0000
1001
0000
0000
0000
0000
;

//---------------dance-single - ----------------
#NOTES:
     dance-single:
     :
     Medium:
     7:
     0.280,0.271,0.147,0.087,0.147:
0000
0000
0000
0000
,
0000
0000
0000
0000
,
0000
0000
0000
0000
,
0000
0000
0000
0000
,
0000
0000
0000
0000
,
1000
0010
0100
0001
,
1000
0001
0010
0100
,
0010
0001
1000
0001
,
0010
0000
0000
0000
0000
0001
0000
0000
0000
0001
0000
0000
1001
0000
0000
0000
,
0100
0000
0000
0001
0000
0000
0000
0010
0000
0000
0000
0100
0000
0000
0000
1000
,
0000
0000
0000
0001
0000
0000
0000
0010
0000
0000
0000
0001
0000
1000
0000
0100
,
0000
0000
0000
1000
0000
0000
0000
0010
0000
0000
0000
0100
0000
0000
0000
0001
,
0000
0000
0000
0100
0000
0000
0000
0001
1000
0000
0100
0000
0010
0000
0001
0000
,
1000
0000
0000
0001
0000
0000
0000
0020
0000
0000
0000
0000
0031
0000
0000
0100
,
0000
0000
0000
0110
0000
0000
0000
0000
0000
0010
0100
0010
0000
1000
0001
1000
,
0000
0000
0000
1001
0000
0000
0000
1001
0000
0000
0000
1001
0000
0000
0000
0000
,
0000
0110
0000
0010
0000
0000
0000
0100
0000
0000
0110
0000
0000
0000
0000
0000
,
0001
0010
0001
0000
0010
0000
0100
0000
,
1000
0010
0100
0000
0001
0100
1000
0000
,
0100
0001
0100
0000
1000
0001
1000
0000
,
0010
0000
0100
0000
0001
1000
0100
0000
,
1000
0000
0100
0000
1000
0010
0100
0000
,
0001
0000
1000
0000
0100
0010
0001
0000
,
1000
0100
0001
0000
0100
1000
0100
0000
,
0001
1000
0001
0000
0200
0000
0310
0000
,
1000
0001
0100
0000
0001
0010
0100
0000
,
1000
0001
1000
0000
0100
1000
0010
0000
,
0100
0001
0010
0001
0100
0000
0001
0000
,
1001
1001
1001
0000
,
1000
0100
0001
0100
1000
0000
0001
0000
,
1000
0010
0001
0010
1000
0000
0001
0000
,
1000
0100
0001
0100
1000
0000
0001
0000
,
1001
1001
1001
0000
,
0001
0010
1000
0010
0001
0000
1000
0000
,
0001
0100
1000
0100
0001
0000
1000
0000
,
0001
0010
1000
0010
0001
0000
1000
0000
,
1001
1001
1001
0000
,
0200
1300
0002
0103
,
0020
0130
0002
1003
,
0200
1300
0002
0103
,
0020
0130
0002
1003
,
0100
1000
0010
0000
0100
0010
0100
0000
,
0001
0010
0100
0000
0010
0001
0010
0000
,
0001
1000
0100
0000
0001
0100
1000
0000
,
0000
0010
0000
0000
0100
0000
0000
0001
0000
0000
0000
1001
0000
0000
0000
0000
;

//---------------dance-single - ----------------
#NOTES:
     dance-single:
     :
     Hard:
     9:
     0.386,0.426,0.260,0.182,0.299:
0000
0000
0000
0000
,
0000
0000
0000
0000
,
0000
0000
0000
0000
,
0000
0000
0000
0000
,
0000
0000
0000
0000
,
2000
0000
0000
0000
0000
3000
0000
0000
0020
0000
0000
0000
0000
0030
0000
0000
,
0200
0000
0000
0000
0000
0300
0000
0000
0002
0000
0000
0000
0000
0003
0000
0000
,
2000
0000
0000
0000
0000
3000
0000
0000
0002
0000
0000
0000
0000
0003
0000
0000
,
0000
1000
0001
0000
0000
1000
0001
0000
0000
1000
0100
1000
0001
0000
0000
0000
,
0101
0000
0000
0100
0010
0000
0000
1000
0100
0000
0000
0010
0001
0010
0000
0001
,
1000
0000
0000
0010
1000
0000
0000
0001
0100
0000
0000
0001
0000
1001
0000
1100
,
0000
0000
0000
0010
0001
0000
0000
0010
0100
0000
0000
1000
0100
1000
0000
0001
,
0100
0000
0000
0010
1000
0000
0000
0001
1000
0000
0100
0000
1100
0000
0000
0000
,
1001
0000
0000
0001
0100
0000
0000
0010
1000
0000
0000
0100
0010
0000
0000
0101
,
0000
0000
0000
0220
0000
0000
0330
0000
0000
0010
0100
1000
0000
1000
0001
0100
,
0000
0000
0000
0202
0000
0303
0000
0220
0000
0330
0000
2020
0000
3030
0000
0000
,
0000
1001
0000
1000
0000
0100
0000
1100
0000
0000
1001
0000
0000
0000
0000
0000
,
0210
0000
0301
0000
0010
0001
0010
0100
,
1000
0000
0010
0000
0001
0010
1000
0000
,
0001
0100
1000
0000
0001
0100
1000
0000
,
0001
0100
1000
0100
0001
1000
0010
0000
,
1002
0000
1003
0100
0010
0000
0001
0000
,
0100
0000
1000
0100
0001
0000
1000
0000
,
0210
0000
0301
0000
0010
0100
1000
0100
,
0010
0000
0000
0000
0001
0000
0000
0000
1000
0020
0000
0000
0130
0000
0000
0000
,
0001
0000
0000
0000
0000
0000
1000
0000
0000
0000
0000
0000
0010
0000
0000
0000
0000
0000
1000
0000
0000
0001
0000
0000
0000
0000
0000
0000
0000
0000
0000
0000
0010
0000
0000
0000
0100
0000
0000
0000
1000
0000
0000
0000
0001
0000
0000
0000
,
0100
0100
0100
0000
0010
0100
0001
0000
,
1000
0000
0100
0000
0010
0000
0100
1000
0000
0000
0000
0010
0100
0000
0001
0000
,
0101
0000
0100
0000
0010
0000
1000
0000
0100
2000
0000
0000
3000
0000
0000
0000
,
0001
0000
0100
0000
1000
0000
0100
0000
0001
1000
0010
2000
0000
0000
3000
0000
,
0001
0010
1000
0010
0001
1100
1001
0000
,
1000
0010
0001
0010
1000
0100
0010
0000
,
0110
0000
0000
0000
0110
0000
0000
0000
0110
0000
1000
0001
0000
1001
0000
0000
,
1000
0000
0100
0000
0001
0000
0100
0000
1000
0001
0010
0002
0000
0000
0003
0000
,
1000
0010
0001
0010
1000
0101
1001
0000
,
0001
0100
1000
0100
0001
0010
0100
0000
,
0110
0000
0000
0000
0110
0000
0000
0000
0110
0000
0001
1000
0000
1001
0000
0000
,
1000
0100
0001
0000
0100
1000
0001
0000
,
1000
0010
0001
0000
0010
1000
0001
0010
,
0000
0001
0000
0001
0000
0010
0000
0100
0000
1000
0001
0000
0000
1000
0100
1000
,
0001
0000
0010
0000
0100
0000
0000
1000
0000
0010
0000
0100
0010
0000
0100
0010
,
1000
0001
0010
1000
0010
0001
1000
0000
,
0100
0001
0100
1000
0001
0010
0100
0000
,
1000
0010
0001
0010
1000
0100
0010
0001
,
0000
0100
0001
0100
0010
0000
1000
0100
0010
0001
0000
1001
0000
0000
0000
0000
;

//---------------dance-single - ----------------
#NOTES:
     dance-single:
     :
     Challenge:
     11:
     0.512,0.522,0.199,0.277,0.736:
0000
0000
0000
0000
,
0000
0000
0000
0000
,
0000
0000
0000
0000
,
0000
0000
0000
0000
,
0000
0000
0000
0000
,
0200
0000
0000
1000
0000
1300
0000
0000
0020
0000
0000
0100
0000
0130
0000
0000
,
0002
0000
0000
0010
0000
0013
0000
0000
0002
0000
0000
1000
0000
1000
0000
1003
,
0020
0000
0000
0100
0000
0130
0000
0000
0002
0000
0000
1000
0000
1003
0000
0000
,
0000
0001
0010
0100
0000
0100
1000
0001
0000
0001
0010
0100
1000
0000
0000
0000
,
1002
0000
0000
0103
0002
0000
0000
0013
0200
0000
0000
1300
0010
0100
0000
0001
,
2000
0000
0000
3100
0020
0000
0000
0031
0200
0000
0000
0310
0000
1010
0000
1002
,
0000
0000
0000
0013
0200
0000
0000
1300
0020
0000
0000
0130
0001
1000
0000
0100
,
0020
0000
0000
0031
2000
0000
0000
3010
0100
0010
0100
0001
0100
0010
1000
0010
,
0200
0000
0000
0301
2000
0000
0000
3100
0020
0000
0000
0031
1000
0010
0000
1010
,
0000
1001
0000
2002
0000
0000
3003
0000
0000
1000
0010
0100
0000
0100
0001
1000
,
0000
1000
0000
1100
0000
0100
0000
0110
0000
0010
0000
0011
0000
0001
1000
0000
,
0000
0110
0000
0010
0100
0001
0100
0010
0000
0000
0110
0000
1000
0001
1000
0001
,
1000
0000
0100
0000
0010
0000
0001
1000
0001
0000
1000
0100
1000
0000
0001
0100
,
0001
0000
1000
0000
0100
0000
1000
0000
0010
0100
0010
0100
0010
0000
0000
0000
,
1000
0001
0000
0001
0000
0010
0100
1000
0000
0010
0000
0010
0000
0000
0000
0000
,
0100
0001
0100
0001
1000
0000
0100
0000
0011
0000
0001
2000
0000
0000
3000
0000
,
0001
0000
0010
0000
0100
0000
0010
0001
0010
0000
0100
0010
0100
0000
1000
0001
,
1000
0000
0010
0000
0100
0000
0001
0000
0010
0100
0010
0100
0010
0000
0000
0000
,
0001
0000
1000
0020
0000
0000
0130
0001
0000
0001
0000
0000
1000
0001
1000
0001
,
1000
0000
0100
0000
0110
0000
0000
0010
0001
2000
0000
0000
3001
0000
0000
0000
,
1000
0000
0000
0000
0000
0000
0001
0000
0000
0100
0000
0000
0001
0000
0000
0100
0000
0000
0001
0000
0000
2000
0000
0000
0000
0000
0000
0000
0000
0000
0000
0000
0100
3000
0000
0000
0010
0000
0000
0000
0001
0000
0000
0000
1000
0000
0000
0000
,
0100
0000
1000
0000
0020
0000
0000
0130
0000
0000
0001
0000
1001
0000
0000
0000
,
1000
0000
0001
0010
0001
0010
0001
0020
0000
0000
0000
0031
1000
0010
0100
0010
,
1000
0000
1000
0000
0001
0000
0001
0000
0100
0020
0000
0000
0030
0000
0000
0000
,
1000
0000
0000
0100
0001
0000
0100
0000
1000
0001
0010
0200
0000
0000
0300
0000
,
1000
0001
1000
0000
0100
1000
0100
0000
0010
0000
0101
0000
1001
0000
0000
0000
,
0001
0000
0000
0010
1000
0000
0010
0000
0001
0000
0000
1001
0000
0000
0000
0000
,
0001
0010
0100
0000
0010
0100
1000
0000
0001
0000
0001
1000
0000
1001
0000
0000
,
0001
0000
0000
0010
1000
0000
0010
0000
0001
1000
0100
0020
0000
0000
0030
0000
,
0001
1000
0001
0000
1000
0100
1000
0000
0010
0000
1010
0000
1001
0000
0000
0000
,
1000
0000
0000
0100
0001
0000
0100
0000
1000
0000
0000
1001
0000
0000
0000
0000
,
1000
0010
0100
0000
0010
0100
0001
0000
1000
0000
1000
0001
0000
1001
0000
0000
,
0100
0001
0100
0001
0100
0000
0000
0000
0001
1000
0001
1000
0001
0000
0000
0000
,
1000
0100
1000
0100
1000
0000
0000
0000
0010
0100
0010
0100
0010
0000
0000
0000
,
1000
0001
1000
0001
1000
0000
0000
0000
0001
1000
0002
0000
0000
1003
0001
1000
,
0000
0100
0010
0100
0000
1000
0000
1000
0000
0001
0000
0001
1000
0000
0000
0000
,
0001
0100
0001
1000
0000
1000
0000
0010
0100
0010
0100
0001
0000
0001
0000
0000
,
0100
0010
1000
0100
0000
0100
0000
1000
0001
0010
0001
1000
0000
1000
0000
0001
,
0000
0000
0000
0000
0100
0000
0001
1000
0100
0000
0010
0001
0010
0001
0000
0001
,
0000
1000
0010
0001
0010
1000
0100
0001
0100
1000
0001
1001
0000
0000
0000
0000
;

//---------------dance-double - ----------------
#NOTES:
     dance-double:
     :
     Easy:
     3:
     0.168,0.193,0.052,0.329,0.004:
00000000
00000000
00000000
00000000
,
00000000
00000000
00000000
00000000
,
00000000
00000000
00000000
00000000
,
00000000
00000000
00000000
00000000
,
00000000
00000000
00000000
00000000
,
20000000
00000000
30020000
00000000
,
02030000
00000000
03200000
00000000
,
02300000
00000000
03002000
00000000
,
00003000
00000000
00000000
00011000
,
00020000
00000000
00030200
00000000
,
00000320
00000000
00000230
00000000
,
00020300
00000000
00032000
00000000
,
20003000
00000000
31000000
00000000
,
00200000
00000000
00302000
00000000
,
00023000
00000000
00030020
00000000
,
00000130
00000100
00000100
00000110
,
00000001
00000000
00000000
00000000
00000000
00001001
00000000
00000000
,
00001000
00000000
00000001
00000000
,
00010000
00000000
00001000
00000000
,
00100000
00000000
01000000
00000000
,
10000000
00000000
00100000
00000000
,
01000000
00000000
00001000
00000000
,
00010000
00000000
00001000
00000000
,
00000100
00000000
00000010
00000000
,
00000001
00000000
00000200
00000000
,
00000310
00000000
00020000
00000000
,
00031000
00000000
00200000
00000000
,
01300000
00000000
20000000
00000000
,
30010000
00100000
00010000
00000000
,
20000000
00000000
30002000
00000000
,
00013000
00000100
00010000
00000000
,
00000200
00000000
00000320
00000000
,
00000031
00001000
00001001
00000000
,
00020000
00000000
00032000
00000000
,
00103000
01000000
10000000
00000000
,
00200000
00000000
20300000
00000000
,
30010000
10000000
10010000
00000000
,
02000000
00000000
03200000
00000000
,
02300000
00000000
03200000
00000000
,
00302000
00000000
00023000
00000000
,
00032000
00000000
00023000
00000000
,
00030100
00000010
00000100
00000010
,
00000001
00000100
00000001
00010000
,
00001000
00100000
01000000
10000000
,
00002000
00000000
00000000
00000000
00000000
00000000
00000000
00000000
00003000
00000000
00000000
00011000
00000000
00000000
00000000
00000000
;

//---------------dance-double - ----------------
#NOTES:
     dance-double:
     :
     Medium:
     7:
     0.310,0.329,0.173,0.130,0.152:
00000000
00000000
00000000
00000000
,
00000000
00000000
00000000
00000000
,
00000000
00000000
00000000
00000000
,
00000000
00000000
00000000
00000000
,
00000000
00000000
00000000
00000000
,
10000000
00010000
20000000
00000000
30100000
01000000
00200000
00000000
,
10300000
00010000
20000000
00000000
30001000
00100000
00002000
00000000
,
00013000
00000100
00020000
00000000
00030010
00000100
00000020
00000000
,
00000030
00000000
00000000
00000000
00000000
00000100
00000010
00000000
00000000
00000100
00000010
00000000
00001001
00000000
00000000
00000000
,
00000001
00000000
00000000
00001000
00000000
00000000
00000000
00000010
00000000
00000000
00000000
00010000
00000000
00000000
00000000
00001000
,
00000000
00000000
00000000
00100000
00000000
00000000
00000000
01000000
00000000
00000000
00000000
10000000
00000000
00010000
00000000
10010000
,
00000000
00000000
00000000
00100000
00000000
00000000
00000000
01000000
00000000
00000000
00000000
00001000
00000000
00000000
00000000
00010000
,
00000000
00000000
00000000
00000100
00000000
00000000
00000000
00000000
00001000
00000000
00000100
00000000
00000010
00000000
00000001
00000000
,
00010000
00000000
00000000
00001000
00000000
00000000
00000000
00020000
00000000
00000000
00000000
00000000
00031000
00000000
00000000
01000000
,
00000000
00000000
00000000
01100000
00000000
00000000
00000000
00000000
00000000
10000000
01000000
10000000
00000000
00001000
10000000
00001000
,
00000000
00000000
00000000
00011000
00000000
00000000
00000000
00011000
00000000
00000000
00000000
00011000
00000000
00000000
00000000
00000000
,
00000000
00000110
00000000
00000010
00000000
00000000
00000000
00000100
00000000
00000000
00000110
00000000
00000000
00000000
00000000
00000000
,
00000001
00000010
00000001
00000000
00000010
00000000
00000100
00000000
,
00010000
00000010
00000100
00000000
00000001
00000100
00001000
00000000
,
00000100
00000001
00000100
00000000
00010000
00001000
01000000
00100000
,
10000000
10000000
10000000
00000000
01100000
00100000
00000000
00000000
,
10000000
01000000
00100000
00000000
00010000
10000000
00001000
00000000
,
00010000
00000000
00000010
00000000
00001000
00000100
00000010
00000000
,
00000001
00000100
00001000
00000000
00000100
00000001
00000100
00000000
,
00001000
00100000
01000000
00000000
10000000
10000000
10010000
00000000
,
00100000
00001000
00010000
00000010
00000100
00000000
00000001
00000000
,
00000010
00000001
00000010
00000100
00010000
00001000
00011000
00000000
,
00100000
01000000
10000000
00010000
00100000
00001000
00010000
00000000
,
00011000
00011000
00011000
00000000
,
00000001
00000100
00001000
00000100
00000001
00000000
00010000
00000000
,
00001000
00100000
10000000
00100000
00001000
00000000
10000000
00000000
,
00010000
01000000
10000000
01000000
00010000
00000000
00001000
00000000
,
00011000
00011000
00011000
00000000
,
00010000
00000010
00000001
00000010
00010000
00000000
00001000
00000000
,
10000000
01000000
00010000
01000000
10000000
00000000
00001000
00000000
,
10000000
00100000
00010000
00100000
10000000
00000000
00001000
00000000
,
00011000
00011000
00011000
00000000
,
00000020
00000130
00000002
00001003
,
00000200
00010300
00002000
10003000
,
02000000
03100000
00002000
00013000
,
00000200
00000310
00000002
00001003
,
00000001
00001000
00000100
00000000
00010000
00001000
00100000
00000000
,
01000000
10000000
00010000
00100000
01000000
00100000
00001000
00000000
,
00010000
00000100
00000010
00000000
00000001
00001000
00000100
00000000
,
00000000
00010000
00001000
00010000
00001000
00000000
00000000
01000000
00100000
01000000
00100000
01000000
00000000
00000000
00000000
00000000
;

//---------------dance-double - ----------------
#NOTES:
     dance-double:
     :
     Hard:
     10:
     0.406,0.426,0.251,0.182,0.372:
00000000
00000000
00000000
00000000
,
00000000
00000000
00000000
00000000
,
00000000
00000000
00000000
00000000
,
00000000
00000000
00000000
00000000
,
00000000
00000000
00000000
00000000
,
20000000
31000000
00200000
01300000
,
20000000
30010000
02000000
03001000
,
00020000
00030010
00000200
00000310
,
00000000
00001000
00000001
00000000
00000000
00001000
00000001
00000000
00000000
00001000
00000001
00001000
00000100
00000000
00000000
00000000
,
00011000
00000000
00000000
00010000
00001000
00000000
00000000
00100000
00010000
00000000
00000000
01000000
00100000
01000000
00000000
10000000
,
00010000
00000000
00000000
01000000
00010000
00000000
00000000
00100000
01000000
00000000
00000000
10000000
00000000
00001000
00000000
00011000
,
00000000
00000000
00000000
00010000
00000100
00000000
00000000
00000010
00000100
00000000
00000000
00001000
00000001
00001000
00000000
00000100
,
00000010
00000000
00000000
00000001
00000010
00000000
00000000
00000100
00010000
00000000
00001000
00000000
00011000
00000000
00000000
00000000
,
01100000
00000000
00000000
01000000
00100000
00000000
00000000
10000000
00100000
00000000
00000000
01000000
00001000
00000000
00000000
00011000
,
00000000
00000000
00000000
00020020
00000000
00000000
00030030
00000000
00000000
00000010
00000100
00000001
00000000
00000001
00001000
00000001
,
00000000
00000000
00000000
00002002
00000000
00003003
00000000
00002200
00000000
00003300
00000000
00020200
00000000
00030300
00000000
00000000
,
00000000
00011000
00000000
00001000
00000000
01000000
00000000
01100000
00000000
00000000
10010000
00000000
00000000
00000000
00000000
00000000
,
01020000
00000000
00000000
00000000
10030000
00000000
00000000
00100000
01000000
00000000
00000000
00010000
01000000
00000000
00001000
00000000
,
00010000
00000000
00000100
00001000
00000010
00000100
00000001
00000000
,
00001000
00000100
00000001
00000000
00001000
00000010
00000001
00000000
,
00000010
00000100
00001000
00010000
01000000
00100000
10000000
00000000
,
02100000
00000000
00000000
00000000
03100000
00000000
00000000
10000000
00010000
00000000
00000000
01000000
00010000
00000000
00000000
00000000
,
00100000
00000000
00001000
00010000
00000100
00000010
00000100
00000000
,
00002001
00000000
00000000
00000000
00003100
00000000
00000000
00010000
00001000
00000000
00000000
00100000
01000000
00000000
10000000
00000000
,
00010000
00000000
00100000
00000000
00010000
00000000
00000000
00000000
10000000
00020000
00000000
00000000
10030000
00000000
00000000
00000000
,
00001000
00000000
00000000
00000000
00000000
00000000
00100000
00000000
00000000
00000000
00000000
00000000
01000000
00000000
00000000
00000000
00000000
00000000
00100000
00000000
00000000
00001000
00000000
00000000
00000000
00000000
00000000
00000000
00000000
00000000
00000000
00000000
00010000
00000000
00000000
00000000
00001000
00000000
00000000
00000000
00010000
00000000
00000000
00000000
00000010
00000000
00000000
00000000
,
00000100
00000100
00000100
00000000
00000001
00001000
00000100
00000000
,
00010000
00000000
00000100
00000000
00000010
00000000
00000100
00010000
00000000
00000000
00000000
00001000
00010000
00000000
00001000
00000000
,
01001000
00000000
01000000
00000000
00100000
00000000
10000000
00000000
01000000
00200000
00000000
00000000
00300000
00000000
00000000
00000000
,
00010000
00000000
01000000
00000000
10000000
00000000
01000000
00000000
00010000
00100000
00010000
00200000
00000000
00000000
00300000
00000000
,
00001000
00010000
00001000
00000000
00010000
00000010
00010000
00000000
00000010
00000000
00000110
00000000
00000101
00000000
00000000
00000000
,
00000001
00000100
00001000
00000100
00000001
00000010
00000100
00000000
,
00011000
00000000
00000000
00000000
00011000
00000000
00000000
00000000
00011000
00000000
00001000
01000000
00000000
01100000
00000000
00000000
,
10000000
00000000
01000000
00000000
00010000
00000000
01000000
00000000
10000000
00010000
00100000
00020000
00000000
00000000
00030000
00000000
,
00100000
00001000
00100000
00000000
00001000
00010000
00001000
00000000
00000010
00000000
00000110
00000000
00001001
00000000
00000000
00000000
,
00001000
00000010
00000001
00000010
00001000
00000100
00000010
00000000
,
00011000
00000000
00000000
00000000
00011000
00000000
00000000
00000000
00011000
00000000
00001000
00100000
00000000
01100000
00000000
00000000
,
10000000
01000000
00100000
00000000
00001000
01000000
00100000
00000000
,
10000000
00010000
00100000
00000000
00001000
00010000
00000010
00000100
,
00000000
00000001
00000000
00000001
00000000
00000010
00000000
00000100
00000000
00001000
00000001
00000000
00000000
00001000
00000001
00001000
,
00000100
00000000
00010000
00000000
00001000
00000000
00000000
00100000
00000000
01000000
00000000
10000000
00010000
00000000
10000000
00010000
,
10000000
00000000
00100000
00000000
00010000
00000000
00000000
00100000
10000000
00000000
00000000
00001000
00010000
00000000
00000000
00000000
,
00000001
00000000
00000100
00000000
00001000
00000000
00000000
00000100
00000001
00000000
00000000
00000010
00000100
00000000
00000000
00000000
,
00010000
00000000
00001000
00000000
01000000
00000000
00000000
00100000
10000000
00000000
00000000
01000000
00100000
00000000
00001000
00000000
,
00000000
00010000
00001000
00010000
00000010
00001000
00000010
00000100
00000010
00000100
00000000
00000110
00000000
00000000
00000000
00000000
;

//---------------dance-double - ----------------
#NOTES:
     dance-double:
     :
     Challenge:
     11:
     0.503,0.484,0.208,0.147,0.753: // measure 1
00000000
00000000
00000000
00000000
,  // measure 2
00000000
00000000
00000000
00000000
,  // measure 3
00000000
00000000
00000000
00000000
,  // measure 4
00000000
00000000
00000000
00000000
,  // measure 5
00000000
00000000
00000000
00000000
,  // measure 6
00200000
00000000
00000000
01000000
00000000
01300000
00000000
00000000
00020000
00000000
00000000
00100000
00000000
00130000
00000000
00000000
,  // measure 7
00002000
00000000
00000000
00010000
00000000
00013000
00000000
00000000
00000020
00000000
00000000
00000100
00000000
00000100
00000000
00000130
,  // measure 8
00000002
00000000
00000000
00001000
00000000
00001003
00000000
00000000
00000020
00000000
00000000
00000100
00000000
00000130
00000000
00000000
,  // measure 9
00000000
00000001
00001000
00000010
00000000
00000010
00010000
00001000
00000000
00001000
00100000
01000000
10000000
00000000
00000000
00000000
,  // measure 10
01100000
00000000
00000000
01000000
00010000
00000000
00000000
00010000
10000000
00000000
00000000
10000000
01000000
10000000
00000000
00100000
,  // measure 11
01000000
00000000
00000000
01000000
00001000
00000000
00000000
00001000
00010000
00000000
00000000
00011000
00000000
00010010
00000000
00000110
,  // measure 12
00000000
00000000
00000000
00000100
00000001
00000000
00000000
00000001
00001000
00000000
00000000
00001000
00000100
00001000
00000000
00000010
,  // measure 13
00010000
00000000
00000000
00010000
00001000
00000000
00000000
00001000
01000000
00001000
01000000
00100000
01000000
00100000
10000000
01000000
,  // measure 14
10000000
00000000
00000000
01000000
00100000
00000000
00000000
00100000
00001000
00000000
00000000
00001000
00010000
00000010
00000000
00010010
,  // measure 15
00000000
00000110
00000000
00000220
00000000
00000000
00000330
00000000
00000000
00000100
00000001
00001000
00000000
00001000
00000100
00000010
,  // measure 16
00000000
00000001
00000000
00001001
00000000
00001000
00000000
00001100
00000000
00000100
00000000
00010100
00000000
00010000
00001000
00000000
,  // measure 17
00000000
01100000
00000000
00100000
01000000
00010000
01000000
00100000
00000000
00000000
01100000
00000000
10000000
00010000
10000000
00010000
,  // measure 18
10000000
00000000
01000000
00000000
00100000
00000000
00001000
01000000
00001000
00000000
00010000
00001000
00010000
00000000
00000010
00000100
,  // measure 19
00000010
00000000
00001000
00000000
00000100
00000000
00001000
00000000
00000010
00000100
00000010
00000100
00000010
00000000
00000000
00000000
,  // measure 20
00001000
00000001
00000000
00000001
00000000
00000010
00000100
00010000
00000000
00001000
00000000
00001000
00000000
00000000
00000000
00000000
,  // measure 21
01000000
00100000
01000000
00100000
10000000
00000000
00010000
00000000
10010000
00000000
10000000
00020000
00000000
00000000
00030000
00000000
,  // measure 22
00100000
00000000
01000000
00000000
10000000
00000000
00001000
01000000
00001000
00000000
00010000
00001000
00010000
00000000
00000100
00000010
,  // measure 23
00000100
00000000
00001000
00000000
00000001
00000000
00000010
00000000
00000100
00001000
00000100
00001000
00000100
00000000
00000000
00000000
,  // measure 24
00010000
00000000
00001000
02000000
00000000
00000000
03100000
10000000
00000000
10000000
00000000
00000000
00001000
00010000
00001000
00010000
,  // measure 25
00001000
00000000
00010000
00000000
00010010
00000000
00000000
00000010
00000100
00000020
00000000
00000000
00000130
00000000
00000000
00000000
,  // measure 26
00000001
00000000
00000000
00000000
00000000
00000000
00000100
00000000
00000000
00000010
00000000
00000000
00000100
00000000
00000000
00000010
00000000
00000000
00000100
00000000
00000000
00000020
00000000
00000000
00000000
00000000
00000000
00000000
00000000
00000000
00000000
00000000
00001000
00000030
00000000
00000000
00000100
00000000
00000000
00000000
00010000
00000000
00000000
00000000
00001000
00000000
00000000
00000000
,  // measure 27
01000000
00000000
00100000
00000000
01100000
00000000
00000000
01100000
00000000
00000000
00000000
00000000
10000000
00000000
00000000
00000000
,  // measure 28
00010000
00000000
10000000
01000000
10000000
01000000
10000000
02000000
00000000
00000000
00000000
13000000
00100000
01000000
00001000
00010000
,  // measure 29
00001000
00000000
00010000
00000000
00000010
00000000
00000100
00000000
00000001
00002000
00000000
00000000
00003000
00000000
00000000
00000000
,  // measure 30
00001001
00000000
00000000
00000001
00000100
00000000
00000010
00000000
00010000
00001000
00010000
00002000
00000000
00000000
00003000
00000000
,  // measure 31
01000000
00100000
01000000
00000000
00010000
01000000
00010000
00000000
10000000
00000000
11000000
00000000
10010000
00000000
00000000
00000000
,  // measure 32
10000000
00000000
00000000
10000000
01000000
00000000
00100000
00000000
00001000
00000000
00010000
00001000
00000000
00010000
00001000
00010000
,  // measure 33
00000100
00000010
00000001
00000000
00000010
00000100
00001000
00000000
00010000
00000000
00010000
00001000
00000000
00011000
00000000
00000000
,  // measure 34
01000000
00000000
00000000
01000000
00100000
00000000
10000000
00000000
01000000
10000000
01000000
00200000
00000000
00000000
00300000
00000000
,  // measure 35
00010000
10000000
00010000
00000000
00100000
00010000
00100000
00000000
00001000
00000000
00101000
00000000
00011000
00000000
00000000
00000000
,  // measure 36
00000100
00000000
00000000
00000100
00000010
00000000
00000001
00000000
00000100
00000000
00000001
00001000
00000000
00000100
00001000
00000100
,  // measure 37
00010000
00001000
00010000
00000000
00001000
01000000
00001000
00000000
10000000
00000000
01000000
10000000
00000000
11000000
00000000
00000000
,  // measure 38
00100000
01000000
00100000
01000000
00100000
00000000
00000000
00000000
10000000
01000000
10000000
01000000
10000000
00000000
00000000
00000000
,  // measure 39
00010000
00100000
00010000
00100000
00010000
00000000
00000000
00000000
01000000
00100000
01000000
00100000
01000000
00000000
00000000
00000000
,  // measure 40
00001000
00010000
00001000
00010000
00001000
00000000
00000000
00000000
00010000
00001000
00020000
00000000
00000000
00030010
00000100
00000001
,  // measure 41
00000000
00000001
00000010
00000100
00000000
00010000
00000000
00010000
00000000
00001000
00000000
00001000
10000000
00000000
00000000
00000000
,  // measure 42
00100000
10000000
00100000
10000000
00000000
00010000
00000000
00010000
00100000
00010000
00100000
00001000
00000000
00001000
00000000
00000000
,  // measure 43
00001000
00010000
00000100
00000010
00000000
00000010
00000000
00000010
00000001
00000010
00000001
00001000
00000000
00001000
00000000
00001000
,  // measure 44
00000000
00000000
00000000
00000000
00000100
00000000
00010000
00001000
00010000
00000000
00001000
01000000
00001000
10000000
00000000
10000000
,  // measure 45
00000000
01000000
00100000
01000000
00100000
00001000
00010000
00001000
00010000
00000010
00000100
00000110
00000000
00000000
00000000
00000000
;

//---------------dance-single - ----------------
#NOTES:
     dance-single:
     :
     Beginner:
     2:
     0.067,0.114,0.035,0.000,0.000:
0000
0000
0000
0000
,
0000
0000
0000
0000
,
0000
0000
0000
0000
,
0000
0000
0000
0000
,
0000
0000
0000
0000
,
1000
0000
0000
0000
,
0100
0000
0000
0000
,
0010
0000
0000
0000
,
0001
0000
0000
0000
,
1001
0000
0000
0000
,
0010
0000
0000
0000
,
0100
0000
0000
0000
,
0010
0000
0010
0000
,
1000
0000
0000
0000
,
0100
0000
0000
0000
,
1000
0000
1000
0000
,
0001
0000
0000
0000
,
0110
0000
0000
0000
,
0100
0000
0000
0000
,
0010
0000
0000
0000
,
0100
0000
0000
0000
,
0001
0000
0000
0000
,
0010
0000
0000
0000
,
0100
0000
0000
0000
,
0010
0000
0000
0000
,
0001
0000
0000
0000
,
1000
0000
0000
0000
,
0010
0000
0000
0000
,
1000
0000
0000
0000
,
1001
0000
0001
0000
,
0001
0000
0000
0000
,
1000
0000
1000
0000
,
1000
0000
1001
0000
,
0010
0000
0010
0000
,
0010
0000
0000
0000
,
0100
0000
0100
0000
,
0100
0000
0000
0000
,
0010
0000
0000
0000
,
0100
0000
0000
0000
,
0010
0000
0000
0000
,
0100
0000
0000
0000
,
0001
0000
0010
0000
,
0100
0000
1000
0000
,
0001
0000
0010
0000
,
0100
0000
0000
0000
;
