#TITLE:Beethoven Virus;
#SUBTITLE:;
#ARTIST:BANYA;
#TITLETRANSLIT:;
#SUBTITLETRANSLIT:;
#ARTISTTRANSLIT:;
#CREDIT:DigiMindAxel;
#BANNER:Beethoven Virus.png;
#BACKGROUND:Beethoven Virus-bg.png;
#LYRICSPATH:;
#CDTITLE:PUMP IT UP.png;
#MUSIC:Beethoven Virus.ogg;
#METERTYPE:DDR X;
#OFFSET:-6.234;
#SAMPLESTART:5.660;
#SAMPLELENGTH:12.000;
#SELECTABLE:YES;
#BPMS:0.000=162.000;
#STOPS:;
#BGCHANGES:-18.000=Beethoven Virus.avi=1.000=1=1=0,
99999=-nosongbg-=1.000=0=0=0 // don't automatically add -songbackground-
;

//---------------dance-single - ----------------
#NOTES:
     dance-single:
     :
     Easy:
     5:
     0.264,0.306,0.281,0.040,0.000: // measure 1
0001
0000
0010
0000
,  // measure 2
0001
0000
0000
0000
,  // measure 3
1001
0000
1001
0000
,  // measure 4
1001
0000
0000
1000
,  // measure 5
0010
0000
1000
0010
,  // measure 6
1000
0000
0001
0010
,  // measure 7
0001
0000
0010
0000
,  // measure 8
0100
0000
0000
1000
,  // measure 9
0001
0000
0010
0000
,  // measure 10
0100
0000
0000
0000
,  // measure 11
1001
0000
1001
0000
,  // measure 12
1001
0000
0000
0001
,  // measure 13
0010
0000
0001
0010
,  // measure 14
0001
0000
1000
0001
,  // measure 15
1000
0000
0010
0000
,  // measure 16
0100
0000
0000
0000
,  // measure 17
0001
1000
0001
1000
,  // measure 18
0001
0000
0010
0000
,  // measure 19
0100
0010
0100
0010
,  // measure 20
0100
0000
1000
0000
,  // measure 21
0010
1000
0010
1000
,  // measure 22
0001
0000
0010
0000
,  // measure 23
0001
0010
0001
0010
,  // measure 24
0100
0000
1000
0000
,  // measure 25
1001
0000
0000
0000
,  // measure 26
0010
0100
0010
0100
,  // measure 27
0001
0000
0000
0000
,  // measure 28
0100
0010
0100
0010
,  // measure 29
1000
0000
1000
0000
,  // measure 30
0001
1000
0001
1000
,  // measure 31
0100
0000
0100
0000
,  // measure 32
1001
0000
1001
0000
,  // measure 33
1001
0000
0010
0000
,  // measure 34
0110
0000
0010
0000
,  // measure 35
0110
0000
0000
0000
,  // measure 36
0100
0010
0100
0010
,  // measure 37
1001
0000
0001
0000
,  // measure 38
1001
0000
1000
0000
,  // measure 39
1001
0000
1001
0000
,  // measure 40
0110
0010
0010
0000
,  // measure 41
0110
0000
0110
0000
,  // measure 42
0000
1001
0000
1001
,  // measure 43
0000
1001
1001
0000
,  // measure 44
0001
0010
0100
1000
,  // measure 45
0001
0000
0000
1000
,  // measure 46
0020
0000
0130
0010
,  // measure 47
0200
0000
0310
1000
,  // measure 48
0001
0000
0010
0000
,  // measure 49
0100
0000
1000
0001
,  // measure 50
1000
1001
0000
1001
,  // measure 51
0000
1001
1001
0000
,  // measure 52
1000
0100
0010
0001
,  // measure 53
1000
0000
0000
0001
,  // measure 54
0200
0000
0310
0100
,  // measure 55
0002
0000
1003
0001
,  // measure 56
0010
0000
0100
0000
,  // measure 57
1000
0000
0010
0100
,  // measure 58
0001
0000
1000
0100
,  // measure 59
0010
0000
0001
1000
,  // measure 60
0010
0100
0001
0100
,  // measure 61
0010
0000
0000
0000
,  // measure 62
0110
0000
0000
0000
;

//---------------dance-single - ----------------
#NOTES:
     dance-single:
     :
     Medium:
     8:
     0.475,0.460,0.432,0.121,0.000:
0001
0010
0100
0010
,
0001
0000
1000
0000
0010
0100
0001
0000
,
1001
1001
1001
1001
,
1001
0000
0000
0000
0000
0000
0010
0100
,
0010
0000
0000
0000
0110
0000
0100
0010
,
0100
0000
0000
0000
0110
0000
0001
0100
,
0001
0000
1000
0100
1000
0000
0010
0100
,
0001
0000
0000
0000
0000
1000
0100
1000
,
0001
0100
0010
0100
,
0001
0000
0000
0000
0100
0001
1000
0000
,
1001
1001
1001
1001
,
1001
0000
0000
0000
0000
0000
0010
0100
,
0010
0000
0000
0000
0110
0000
0100
0010
,
0100
0000
0000
0000
0110
0000
0001
0010
,
0001
0000
1000
0010
1000
0000
0001
0010
,
0100
0000
0000
0000
0000
1000
0001
1000
,
0010
0010
0100
0100
,
0001
0010
0001
0000
1000
0100
1000
0000
,
0001
0001
0010
0010
,
0001
0100
0010
0000
0100
0010
0100
0000
,
0001
0001
1000
1000
,
0010
1000
0010
1000
0001
1000
0001
0000
,
0010
0010
0001
0001
,
0010
0100
0010
0100
1000
0100
1000
0000
,
1001
0000
0001
0001
,
0010
0001
0010
0001
0010
0001
0010
0001
,
1000
0000
0001
0001
,
0100
0001
0100
0001
0100
0001
0100
0001
,
1000
0000
0100
0100
,
1000
1001
0001
1001
,
0100
0000
0100
0100
,
1002
1000
1000
1003
,
1001
0000
0001
0010
0001
0000
1000
0100
,
1000
0000
0001
0010
0001
0000
1000
0100
,
1000
0000
0001
0100
0001
0000
1000
0010
,
2000
0001
0001
3001
,
1001
0000
1000
0010
1000
0000
0001
0100
,
0001
0000
1000
0010
1000
0000
0001
0100
,
0001
0000
1000
0100
1000
0000
0001
0010
,
0001
0000
0100
0100
0100
0000
0000
0000
,
0110
0110
0110
0110
,
0100
1001
0100
1001
,
0100
1001
1001
0000
,
1100
0011
1100
0011
,
2002
0000
0000
0000
3003
0000
0001
0100
,
0020
0000
0000
0000
0130
0000
0001
0100
,
0020
0000
0000
0000
0130
0000
0001
1000
,
0001
0000
1000
0100
0010
0000
0100
1000
,
0100
0000
0000
0000
0000
1000
0001
0010
,
0100
1001
0100
1001
,
0100
1001
1001
0000
,
0101
0101
1010
1010
,
2002
0000
0000
0000
3003
0000
1000
0100
,
0020
0000
0000
0000
0130
0000
1000
0100
,
0020
0000
0000
0000
0130
0000
1000
0010
,
0100
0000
0010
0100
0010
0000
1000
0100
,
0010
0000
0000
0000
0001
0000
1000
0010
,
0200
0000
0000
0000
0310
0000
1000
0010
,
0200
0000
0000
0000
0310
0000
1000
0100
,
0010
0000
0001
1000
0001
0000
0100
0010
,
1000
0010
0010
0010
,
1001
0000
0000
0000
;

//---------------dance-single - ----------------
#NOTES:
     dance-single:
     :
     Hard:
     11:
     0.584,0.525,0.532,0.201,0.000:
0001
0010
0100
0000
0010
0001
1000
0000
,
0100
0010
0001
0000
0100
0001
1000
0100
,
1100
0011
1100
0011
,
2002
0000
0000
0000
3003
0000
0100
0010
,
2000
0000
0000
0000
3010
0000
0100
0001
,
0020
0000
0000
0000
0031
0000
1000
0100
,
0001
0100
0010
0100
0001
0100
1000
0010
,
0100
0010
1000
0000
0000
0001
0010
0100
,
1000
0001
0010
0000
0100
1000
0010
0000
,
1000
0100
0010
0000
0100
1000
0010
0100
,
0101
1010
0101
1010
,
2002
0000
0000
0000
3003
0000
0001
0010
,
0200
0000
0000
0000
0310
0000
0001
1000
,
0200
0000
0000
0000
1300
0000
0001
0100
,
1000
0100
0010
0100
1000
0100
0001
0100
,
0010
0100
0001
0000
0000
1000
0010
0100
,
0001
0001
0100
0010
0100
0000
0001
0001
,
1000
1000
0100
0100
0010
0010
0001
0001
,
1000
0100
1000
0001
0100
0001
1000
1000
,
0001
0001
0010
0010
0100
0100
0010
0010
,
0001
1000
0100
1000
0001
0000
1001
0000
,
0001
0100
1000
0100
0001
1000
0100
0000
,
0010
0100
1000
0010
0100
0000
0110
0000
,
1000
0100
0001
0100
1000
0001
0010
0001
,
1001
0000
0000
1000
1000
0010
0100
0000
,
0001
0100
1000
0100
0001
0100
1000
0100
,
0001
0000
0000
1000
0100
1000
0001
0000
,
1000
0010
0001
0010
1000
0010
0001
0010
,
1000
0000
0000
0010
0100
0010
0100
0010
,
1010
0110
1010
0101
,
1001
0000
0000
0010
0001
1000
0010
0000
,
1001
0110
1001
0110
,
1001
0000
1000
1000
0001
0000
0010
0010
,
0001
0000
1000
1000
0010
0000
1000
1000
,
0001
0000
0010
0010
0100
0000
1000
1000
,
1100
1001
1100
1001
,
1100
0000
1000
1000
0001
0000
0100
0100
,
0001
0000
0010
0010
0100
0000
1000
1000
,
0001
0000
0010
0010
0001
0000
1000
1000
,
1001
0000
0010
0010
0110
0000
0000
0000
,
0101
0101
1010
1010
,
0010
0101
0010
0101
,
0010
0101
0101
0000
,
0110
1001
0110
1001
,
0220
0000
0000
0000
0330
0000
0001
0100
,
2000
0000
0000
0000
3100
0000
0001
0100
,
2000
0000
0000
0000
3100
0000
0001
1000
,
0100
0001
0100
0010
0100
0001
0100
1000
,
0001
0100
0001
0000
0000
1000
1000
1000
,
0010
1100
0010
1100
,
0010
1100
1100
0000
,
1001
0110
1001
0110
,
2002
0000
0000
0000
3003
0000
1000
0100
,
0002
0000
0000
0000
0103
0000
1000
0100
,
0002
0000
0000
0000
0103
0000
1000
0001
,
0010
1000
0010
0100
0010
1000
0010
0001
,
1000
0100
1000
0000
0000
0001
1000
0100
,
0002
0000
0100
0000
0103
0000
1000
0010
,
0002
0000
0010
0000
0013
0000
1000
0001
,
0100
1000
0100
0010
0100
1000
0100
0001
,
1000
0100
1000
0100
0010
0001
0010
0001
,
2002
0000
3003
0000
;

//---------------dance-single - ----------------
#NOTES:
     dance-single:
     :
     Challenge:
     14:
     0.756,0.803,0.241,0.141,0.337:
1000
0001
1000
0001
0010
0001
0010
0001
,
1000
0000
0010
0000
0100
0000
0000
0000
0001
0000
1000
0100
1000
0100
1000
0100
,
1000
1001
1100
1001
,
2200
0000
0000
0000
3300
0000
0010
0001
,
0100
0010
0100
0001
0010
0000
0100
1000
,
0010
0100
0010
1000
0100
0000
1000
0100
,
0001
0100
0001
0100
1000
0001
1000
0001
,
0010
0000
0100
0000
1000
0000
0001
0000
0100
0000
0001
1000
0001
1000
0001
1000
,
0001
0100
0001
0100
0001
1000
0001
1000
,
0100
0000
0010
0000
0001
0000
0000
0000
0100
0000
0001
1000
0001
1000
0001
1000
,
0001
0101
1001
0101
,
2020
0000
0000
0000
3030
0000
0100
0001
,
0010
0001
0010
0001
0100
0000
0010
1000
,
0100
1000
0100
1000
0010
0000
1000
0010
,
0001
0010
0001
0010
1000
0001
1000
0001
,
0100
0000
0010
0000
1000
0000
0000
0000
0001
0000
1000
0100
1000
0100
1000
0100
,
1000
0001
0100
1000
0100
0010
1000
0001
,
0010
0010
0100
0100
1000
1000
0001
0001
,
1000
0010
0001
0010
0100
0001
1000
0010
,
0100
0100
0001
0001
0010
0010
0001
0001
,
1000
0010
0001
0010
1000
0100
0010
0000
,
0001
0100
1000
0100
0010
1000
0001
0010
,
0001
0100
1000
0100
0001
0010
0100
0000
,
1000
0000
0010
0000
0001
0000
0010
0000
0100
0000
0001
1000
0001
1000
0001
1000
,
0002
0000
0000
0000
0000
0000
0013
0100
1000
0000
0010
0000
0010
0000
1000
0000
,
0001
0001
1000
1000
0010
0010
0100
0100
,
0002
0000
0000
0000
0000
0000
1003
0100
0010
0000
0001
0000
0001
0000
1000
0000
,
0010
0010
0100
0100
0001
0001
1000
1000
,
0020
0000
0000
0000
0000
0000
0130
0001
0100
0000
0001
1000
0001
1000
0001
1000
,
0001
0000
1000
0100
1000
0000
0001
0010
0001
0000
1000
0100
1000
0000
0001
0000
,
0020
0000
0000
0000
0000
0000
0031
0010
0100
0000
1000
0001
1000
0000
0010
0000
,
0100
0001
0100
0001
0100
0001
0100
0001
1000
0100
1000
0100
1000
0100
1000
0100
,
1000
0001
0010
0100
1000
0001
0001
0001
,
1000
0100
0001
0100
1000
0001
0010
0001
,
1000
0100
0001
0100
1000
0100
0001
0100
,
1000
0010
1000
0010
1000
0010
1000
0010
1000
0001
1000
0001
1000
0001
1000
0001
,
1000
0010
0100
0001
0100
0010
1000
0001
,
0010
1000
0010
0001
0010
1000
0010
0001
,
0100
0010
0100
0010
0100
0010
0100
0010
1000
0010
1000
0010
1000
0010
1000
0010
,
1000
0000
0001
1000
1001
0000
0000
0000
,
1001
0000
1001
0000
0110
0000
0110
0010
,
1000
0000
1010
0010
0100
0000
1010
0010
,
0100
0000
0000
0000
1010
0000
0000
0000
1010
0000
0010
0100
0010
0100
0001
0100
,
0001
1000
0100
0010
0001
1000
0100
0010
,
2002
0000
0000
0000
3003
0000
1000
0100
,
0001
0100
0001
0100
1000
0000
0001
0010
,
1000
0010
1000
0010
0001
0000
1000
0100
,
0001
0100
0001
0100
1000
0010
0100
0001
,
1000
0000
0010
0000
0100
0000
0000
0000
0001
0000
0100
0010
0100
0010
0100
0010
,
0100
0001
1001
0000
0100
0001
1001
0000
,
0100
0000
0001
0000
1001
0000
0000
0000
1001
0000
1000
0010
1000
0001
1000
0001
,
1000
0010
0100
0001
1000
0010
0100
0001
,
2002
0000
0000
0000
3003
0000
0001
0100
,
1000
0100
1000
0100
0001
0000
1000
0010
,
0001
0010
0001
0010
1000
0000
0001
0010
,
1000
0010
1000
0010
0001
1000
0100
0010
,
0001
0000
1000
0000
0100
0000
0000
0000
1000
0000
0001
0010
0001
0010
0001
0010
,
0001
1000
0010
0001
0010
0000
1000
0010
,
1000
0001
0100
1000
0100
0000
0001
0010
,
1000
0010
1000
0010
0001
1000
0010
0100
,
0001
0000
0100
0000
0001
1000
0001
1000
0001
1000
0001
1000
0100
1000
0100
0000
,
2002
0000
3003
0000
;

//---------------dance-double - ----------------
#NOTES:
     dance-double:
     :
     Easy:
     5:
     0.253,0.306,0.181,0.040,0.000:
10000000
00000000
00010000
00000000
,
10000000
00000000
00010000
00000000
,
10010000
00000000
10010000
00000000
,
10010000
00000000
00000000
10000000
,
00001000
00000000
00010000
00001000
,
00010000
00000000
00001000
00010000
,
00001000
00000000
00010000
00000000
,
00000010
00000000
00000000
00001000
,
00000001
00000000
00000010
00000000
,
00000001
00000000
00001000
00000000
,
00001001
00000000
00001001
00000000
,
00001001
00000000
00000000
00000001
,
00010000
00000000
00001000
00010000
,
00001000
00000000
00010000
00001000
,
00010000
00000000
00001000
00000000
,
01000000
00000000
00000000
00000000
,
00010000
10000000
00010000
10000000
,
00010000
00000000
00100000
00000000
,
01000000
00100000
01000000
00100000
,
01000000
00000000
10000000
00000000
,
00001000
00010000
00001000
00010000
,
00001000
00000000
00010000
00000000
,
00000100
00000010
00000100
00000010
,
00000100
00000000
00001000
00000000
,
00000001
00000000
00000000
00000000
,
00001000
00000001
00001000
00000001
,
00010000
00000000
00000000
00000000
,
00001000
10000000
00001000
10000000
,
00010000
00000000
00100000
00000000
,
00001000
00010000
00001000
00010000
,
00000100
00000000
00001000
00000000
,
00001001
00000000
00001001
00000000
,
00001001
00000000
00000010
00000000
,
00000110
00000000
00000010
00000000
,
00000110
00000000
00000000
00000000
,
00010000
00001000
00010000
00001000
,
10000000
00000000
00010000
00000000
,
10010000
00000000
10000000
00000000
,
10010000
00000000
10010000
00000000
,
01100000
00100000
00100000
00000000
,
10010000
00000000
10010000
00000000
,
00000000
01000000
00000000
01000000
,
00000000
01000000
01000000
00000000
,
10000000
01000000
00100000
00001000
,
00010000
00000000
00000000
00000001
,
00002000
00000000
00003001
00000010
,
00000002
00000000
00001003
00000001
,
00010000
00000000
00001000
00000000
,
01000000
00000000
00010000
10000000
,
00010000
01000000
00000000
01000000
,
00000000
01000000
01000000
00000000
,
00100000
01000000
00001000
00010000
,
00001000
00000000
00000000
00010000
,
00000002
00000000
00000103
00000001
,
00000200
00000000
00000301
00001000
,
00000100
00000000
00010000
00000000
,
00001000
00000000
01000000
00100000
,
01000000
00000000
00010000
10000000
,
00001000
00000000
00010000
00000010
,
00010000
00000010
00001000
00000001
,
00001000
00000000
00000000
00000000
,
00001001
00000000
00000000
00000000
;

//---------------dance-double - ----------------
#NOTES:
     dance-double:
     :
     Medium:
     8:
     0.469,0.429,0.382,0.100,0.000:
00001000
00000001
00000010
00000100
,
00001000
00000000
00000100
00000000
00010000
00001000
00010000
00000000
,
00011000
00011000
00011000
00011000
,
00011000
00000000
00000000
00000000
00000000
00000000
00010000
01000000
,
00100000
00000000
00000000
00000000
01100000
00000000
00100000
01000000
,
10000000
00000000
00000000
00000000
11000000
00000000
10000000
00010000
,
10000000
00000000
00001000
00100000
00001000
00000000
00010000
00001000
,
00010000
00000000
00000000
00000000
00000000
00001000
00000100
00000010
,
00000001
00010000
00000100
00001000
,
00000010
00000000
00000000
00000000
00000100
00000001
00010000
00000000
,
00011000
00011000
00011000
00011000
,
00011000
00000000
00000000
00000000
00000000
00000000
00010000
00100000
,
01000000
00000000
00000000
00000000
01100000
00000000
00100000
10000000
,
01000000
00000000
00000000
00000000
11000000
00000000
10000000
00010000
,
10000000
00000000
00001000
00100000
00001000
00000000
00010000
00001000
,
00010000
00000000
00000000
00000000
00000000
00001000
00000010
00000100
,
00000001
00000001
00000100
00000100
,
00000001
00000010
00000001
00000000
00001000
00000100
00001000
00000000
,
00000001
00000001
00000010
00000010
,
00000001
00000010
00000100
00000000
00001000
00000010
00000100
00000000
,
00000001
00000001
00001000
00001000
,
00000001
00000010
00000100
00010000
00001000
00100000
01000000
00000000
,
10000000
10000000
00100000
00100000
,
10000000
01000000
00100000
00001000
00010000
00000100
00000010
00000000
,
00001001
00000000
00000001
00000001
,
00001000
00000100
00001000
00000100
00001000
00000100
00001000
00000100
,
00010000
00000000
00001000
00001000
,
00100000
00001000
00100000
00001000
00100000
00001000
00100000
00001000
,
10000000
00000000
01000000
01000000
,
10010000
10010000
01100000
01100000
,
10010000
00000000
00000000
00000000
00100000
01000000
00100000
00000000
,
10000000
01000000
00100000
00010000
,
00011000
00000000
00001000
00010000
00001000
00000000
00010000
00000100
,
00010000
00000000
00000010
00000100
00000010
00000000
00000100
00000001
,
00000100
00000000
00000001
00001000
00000001
00000000
00001000
00000001
,
00000010
00000100
00010000
00001000
,
00011000
00000000
00010000
00001000
00010000
00000000
00001000
01000000
,
00001000
00000000
01000000
00100000
01000000
00000000
00010000
10000000
,
00010000
00000000
10000000
01000000
10000000
00000000
00010000
00100000
,
00010000
00000000
10000000
10000000
10000000
00000000
00000000
00000000
,
10010000
10010000
10010000
10010000
,
10000000
00100000
01000000
00010000
,
10000000
00100000
01100000
00000000
,
00011000
01001000
00011000
01001000
,
00022000
00000000
00000000
00000000
00033000
00000000
00010000
00000010
,
00000200
00000000
00000000
00000000
00000310
00000000
00001000
00000001
,
00000020
00000000
00000000
00000000
00000031
00000000
00001000
00000001
,
00001000
00000000
00000001
00000010
00000100
00000000
00010000
00000100
,
00001000
00000000
00000000
00000000
00000000
00000001
00000010
00000100
,
00001000
00000001
00000100
00000010
,
00001000
00000100
00001100
00000000
,
00011000
00010100
00011000
00010100
,
00022000
00000000
00000000
00000000
00033000
00000000
00010000
00100000
,
02000000
00000000
00000000
00000000
03100000
00000000
00010000
10000000
,
02000000
00000000
00000000
00000000
13000000
00000000
00010000
00100000
,
00010000
00000000
00100000
01000000
10000000
00000000
00100000
01000000
,
00001000
00000000
00000000
00000000
00000000
00000000
00100000
00001000
,
00020000
00000000
00000000
00000000
00031000
00000000
00010000
00000100
,
00000020
00000000
00000000
00000000
00000130
00000000
00000001
00000100
,
00000010
00000000
00010000
00001000
00010000
00000000
00001000
00100000
,
01000000
00000000
10000000
00010000
10000000
00010000
10000000
00010000
,
00100000
00000000
00000000
00000000
;

//---------------dance-double - ----------------
#NOTES:
     dance-double:
     :
     Hard:
     11:
     0.580,0.525,0.552,0.201,0.000:
10000000
00100000
01000000
00000000
00010000
10000000
01000000
00000000
,
10000000
01000000
00100000
00000000
00001000
00010000
00000010
00000100
,
00000110
00001001
00000110
00001001
,
00000220
00000000
00000000
00000000
00000330
00000000
00000001
00000010
,
00000200
00000000
00000000
00000000
00000310
00000000
00000001
00000100
,
00000020
00000000
00000000
00000000
00000130
00000000
00000001
00000100
,
00001000
00000100
00000010
00000100
00001000
00000100
00000001
00010000
,
00000100
00010000
00000001
00000000
00000000
00000010
00000100
00001000
,
00010000
00100000
01000000
00000000
10000000
00010000
01000000
00000000
,
00010000
01000000
00100000
00000000
10000000
00100000
01000000
00001000
,
00011000
00010100
00011000
00010100
,
00022000
00000000
00000000
00000000
00033000
00000000
00000100
00001000
,
00000002
00000000
00000000
00000000
00001003
00000000
00000100
00001000
,
00000002
00000000
00000000
00000000
00001003
00000000
00000001
00000010
,
00001000
00000010
00000100
00000010
00001000
00000010
00000001
00010000
,
00000010
00010000
00000001
00000000
00000000
00000010
00000100
00001000
,
00010000
00010000
00001000
01000000
00001000
00000000
10000000
10000000
,
00010000
00010000
00100000
00100000
01000000
01000000
10000000
10000000
,
00001000
00010000
00001000
01000000
00010000
01000000
00001000
00001000
,
00010000
00010000
00000010
00000010
00000100
00000100
00000001
00000001
,
00001000
00000100
00000010
00000001
00001000
00000000
00001001
00000000
,
00000001
00000100
00001000
00000100
00000001
00010000
00001000
00000000
,
00100000
00010000
01000000
00100000
10000000
00000000
10010000
00000000
,
10000000
00100000
00010000
00100000
10000000
00001000
00010000
00000100
,
00000010
00000000
00000000
00000001
00000001
00001000
00000100
00000000
,
00001000
00000100
00000001
00000100
00001000
00000100
00000001
00000100
,
00001000
00000000
00000000
00000100
00010000
00001000
00100000
00000000
,
00010000
00100000
10000000
00100000
00010000
00100000
10000000
00100000
,
00010000
00000000
00000000
01000000
00100000
01000000
00100000
10000000
,
10010000
01100000
10010000
01100000
,
10010000
00000000
00000000
10000000
01000000
00100000
00001000
00000000
,
00011000
00010100
00011000
00010100
,
00011000
00000000
00010000
00010000
00000100
00000000
00001000
00000000
,
00001001
00000000
00000001
00000001
00000100
00000000
00000001
00000000
,
00001001
00000000
00000100
00000100
00000010
00000000
00000001
00000000
,
00000011
00001001
00000011
00001001
,
00000110
00000000
00000010
00000010
00010000
00000000
00001000
00000000
,
00011000
00000000
00010000
00010000
01000000
00000000
00100000
00000000
,
01100000
00000000
10000000
01000000
00100000
00000000
00010000
00100000
,
01000000
00000000
00100000
00100000
01100000
00000000
00000000
00000000
,
11000000
11000000
00110000
00110000
,
01000000
10010000
01000000
10010000
,
01000000
10010000
10010000
00000000
,
00011000
01001000
00011000
01001000
,
00022000
00000000
00000000
00000000
00033000
00000000
00001000
00010000
,
00000020
00000000
00000000
00000000
00000130
00000000
00000001
00001000
,
00000200
00000000
00000000
00000000
00001300
00000000
00000001
00001000
,
00000001
00000010
00001000
00000010
00000100
00000010
00001000
00000010
,
00000001
00001000
00000001
00000000
00000000
00000010
00000100
00010000
,
00001000
00010100
00001000
00010100
,
00001000
00010100
00010100
00000000
,
01001000
10100000
01001000
10100000
,
02002000
00000000
00000000
00000000
03003000
00000000
00001000
10000000
,
02000000
00000000
00000000
00000000
13000000
00000000
00100000
01000000
,
00020000
00000000
00000000
00000000
10030000
00000000
00010000
10000000
,
00010000
01000000
10000000
01000000
00100000
01000000
10000000
01000000
,
00010000
10000000
00010000
00000000
00000000
00100000
00001000
00010000
,
00000020
00000000
00000100
00000000
00000130
00000000
00000001
00010000
,
00000200
00000000
00010000
00000000
00010300
00000000
00000001
00001000
,
00000001
00000100
00001000
00000100
00000010
00000100
00001000
00000100
,
00000001
00000010
00000100
00010000
00001000
00010000
00001000
00010000
,
00020200
00000000
00030300
00000000
;

//---------------dance-double - ----------------
#NOTES:
     dance-double:
     :
     Challenge:
     14:
     0.756,0.803,0.231,0.141,0.337:
00010000
01000000
00010000
01000000
00010000
10000000
00010000
10000000
,
01000000
00000000
00100000
00000000
00001000
00000000
00000000
00000000
00100000
00000000
00001000
00010000
00001000
00010000
00001000
00010000
,
00001000
00011000
00010100
00011000
,
00020200
00000000
00000000
00000000
00030300
00000000
00001000
00000001
,
00000010
00000001
00000010
00000001
00001000
00000000
00000001
00010000
,
00000100
00010000
00000100
00010000
00000001
00000000
00001000
00000100
,
00000001
00000100
00001000
00000100
00000001
00000100
00001000
00000001
,
00000010
00000000
00000100
00000000
00010000
00000000
00000100
00000000
00010000
00000000
00001000
00010000
00001000
00010000
00001000
00010000
,
00001000
01000000
00001000
01000000
00001000
10000000
00001000
10000000
,
01000000
00000000
00100000
00000000
00001000
00000000
00000000
00000000
00100000
00000000
00001000
00010000
00001000
00010000
00001000
00010000
,
00001000
00011000
00010100
00011000
,
00020200
00000000
00000000
00000000
00030300
00000000
00001000
00000001
,
00000100
00000001
00000100
00000001
00001000
00000000
00000001
00010000
,
00000100
00010000
00000100
00010000
00000001
00000000
00001000
00000010
,
00000001
00000010
00001000
00000010
00000001
00000010
00001000
00000100
,
00000010
00000000
00000100
00000000
00010000
00000000
00000000
00000000
00000100
00000000
00010000
00001000
00010000
00001000
00010000
00001000
,
00010000
00000010
00000100
00000010
00010000
00000100
00010000
00000010
,
00000100
00000100
00000001
00000001
00000010
00000010
00000100
00000100
,
00001000
00100000
00010000
00100000
00001000
00100000
01000000
10000000
,
00010000
00010000
00100000
00100000
10000000
10000000
00100000
00100000
,
00001000
01000000
10000000
01000000
00001000
00100000
01000000
00000000
,
10000000
01000000
00010000
01000000
10000000
00100000
01000000
00010000
,
10000000
00100000
00010000
00100000
10000000
00001000
00010000
00000000
,
00000100
00000000
00000010
00000000
00000001
00000000
00000010
00000000
00000100
00000000
00010000
00000010
00010000
00000010
00010000
00000010
,
00020000
00000000
00000000
00000000
00000000
00000000
00030001
00000010
00000100
00000000
00010000
00000000
00010000
00000000
00001000
00000000
,
01000000
01000000
00100000
00100000
10000000
10000000
00010000
00010000
,
20000000
00000000
00000000
00000000
00000000
00000000
30100000
01000000
00010000
00000000
10000000
00000000
10000000
00000000
00100000
00000000
,
01000000
01000000
00001000
00001000
00010000
00010000
00000100
00000100
,
00000020
00000000
00000000
00000000
00000000
00000000
00000031
00000010
00000100
00000000
00001000
00000001
00001000
00000001
00001000
00000001
,
00001000
00000000
00000100
00001000
00000100
00000000
00010000
00001000
00010000
00000000
00000001
00001000
00000001
00000000
00010000
00000000
,
00002000
00000000
00000000
00000000
00000000
00000000
01003000
00100000
01000000
00000000
00010000
10000000
00010000
00000000
00100000
00000000
,
01000000
10000000
01000000
10000000
01000000
10000000
01000000
10000000
00010000
01000000
00010000
01000000
00010000
01000000
00010000
01000000
,
00010000
01000000
00010000
10000000
00100000
01000000
01000000
01000000
,
00100000
10000000
01000000
10000000
00100000
01000000
00010000
01000000
,
00100000
10000000
01000000
10000000
00100000
10000000
01000000
10000000
,
00010000
00100000
00010000
00100000
00010000
00100000
00010000
00100000
00001000
01000000
00001000
01000000
00001000
01000000
00001000
01000000
,
00001000
00010000
00000100
00000001
00000100
00010000
00000001
00001000
,
00000001
00000010
00001000
00000010
00000001
00000010
00001000
00000010
,
00000001
00001000
00000001
00001000
00000001
00001000
00000001
00001000
00000100
00010000
00000100
00010000
00000100
00010000
00000100
00010000
,
00000100
00000000
00010000
00010000
00011000
00000000
00000000
00000000
,
01100000
00000000
01100000
00000000
10010000
00000000
10010000
00010000
,
00100000
00000000
11000000
10000000
00010000
00000000
11000000
10000000
,
00010000
00000000
00000000
00000000
11000000
00000000
10000000
00000000
00010000
00000000
01000000
00010000
01000000
00001000
00010000
00001000
,
00010000
00000010
00000100
00000001
00001000
00000010
00000100
00000001
,
00002002
00000000
00000000
00000000
00003003
00000000
00000001
00000100
,
00001000
00000100
00001000
00000100
00000001
00000000
00001000
00000010
,
00000001
00000010
00000001
00000010
00001000
00000000
00000001
00000010
,
00000100
00000010
00000001
00010000
00001000
01000000
00100000
10000000
,
01000000
00000000
00100000
00000000
01000000
00000000
00000000
00000000
10000000
00000000
00100000
01000000
00100000
01000000
00100000
01000000
,
00100000
10000000
10010000
00000000
00100000
10000000
10010000
00000000
,
00100000
00000000
10000000
00000000
10010000
00000000
00000000
00000000
10010000
00000000
00010000
01000000
00010000
01000000
00001000
00010000
,
00001000
00010000
00000010
00000100
00000001
00001000
00000010
00000100
,
00002002
00000000
00000000
00000000
00003003
00000000
00000001
00000010
,
00001000
00000010
00001000
00000010
00000001
00000000
00001000
00000100
,
00000001
00000100
00000001
00000100
00001000
00000000
00000001
00000010
,
00000100
00010000
00000100
00010000
00001000
01000000
00100000
10000000
,
01000000
00000000
00100000
00000000
01000000
00000000
00000000
00000000
10000000
00000000
00001000
00100000
00001000
00100000
00001000
00100000
,
00001000
10000000
01000000
00100000
00010000
00000000
00001000
00010000
,
00000010
00000100
00000001
00000100
00000010
00000000
00001000
00000100
,
00000001
00000100
00001000
00000100
00000001
00000100
00001000
00000010
,
00010000
00000000
00000100
00000000
00010000
00000100
00010000
00000100
00010000
00000100
00010000
00001000
00010000
00001000
00010000
00000000
,
02002000
00000000
03003000
00000000
;

//---------------dance-single - ----------------
#NOTES:
     dance-single:
     :
     Beginner:
     3:
     0.103,0.153,0.131,0.000,0.000: // measure 1
0001
0000
0000
0000
,  // measure 2
0000
0000
0000
0000
,  // measure 3
0001
0000
0000
0000
,  // measure 4
1001
0000
0000
0000
,  // measure 5
0010
0000
0000
0000
,  // measure 6
0010
0000
0000
0000
,  // measure 7
0100
0000
0000
0000
,  // measure 8
0000
0000
0000
0000
,  // measure 9
0110
0000
0000
0000
,  // measure 10
0000
0000
0000
0000
,  // measure 11
1001
0000
0000
0000
,  // measure 12
0000
0000
0000
0000
,  // measure 13
1000
0000
0000
0000
,  // measure 14
1000
0000
0000
0000
,  // measure 15
0010
0000
0000
0000
,  // measure 16
0000
0000
0000
0000
,  // measure 17
0110
0000
0000
0000
,  // measure 18
0100
0000
0000
0000
,  // measure 19
0010
0000
0000
0000
,  // measure 20
0100
0000
0000
0000
,  // measure 21
0010
0000
0000
0000
,  // measure 22
0001
0000
0000
0000
,  // measure 23
1000
0000
0000
0000
,  // measure 24
0001
0000
0000
0000
,  // measure 25
1001
0000
0000
0000
,  // measure 26
0000
0000
0000
0000
,  // measure 27
1000
0000
0000
0000
,  // measure 28
0000
0000
0000
0000
,  // measure 29
0010
0000
0000
0000
,  // measure 30
0100
0000
0000
0000
,  // measure 31
0001
0000
0000
0000
,  // measure 32
1001
0000
0000
0000
,  // measure 33
1001
0000
0000
0000
,  // measure 34
0001
0000
0000
0000
,  // measure 35
0001
0000
0000
0000
,  // measure 36
1000
0000
0000
0000
,  // measure 37
1001
0000
0000
0000
,  // measure 38
1000
0000
0000
0000
,  // measure 39
0110
0000
0000
0000
,  // measure 40
0110
0000
0000
0000
,  // measure 41
0010
0000
0000
0000
,  // measure 42
0000
1001
0000
0001
,  // measure 43
0000
0001
0000
0000
,  // measure 44
1000
0000
0100
0000
,  // measure 45
1000
0000
0000
0000
,  // measure 46
0001
0000
0000
0000
,  // measure 47
0001
0000
0000
0000
,  // measure 48
0100
0000
0010
0000
,  // measure 49
0100
0000
0000
0000
,  // measure 50
0000
1001
0000
0001
,  // measure 51
0000
0001
0000
0000
,  // measure 52
0010
0000
0100
0000
,  // measure 53
0010
0000
0000
0000
,  // measure 54
0001
0000
0000
0000
,  // measure 55
0100
0000
0000
0000
,  // measure 56
0010
0000
0000
0000
,  // measure 57
0000
0000
0000
0000
,  // measure 58
1000
0000
0000
0000
,  // measure 59
0010
0000
0000
0000
,  // measure 60
0100
0000
0000
0000
,  // measure 61
0001
0000
0000
0000
,  // measure 62
1001
0000
0000
0000
;
