#TITLE:Bangin' Burst;
#SUBTITLE:;
#ARTIST:かめりあ;
#TITLETRANSLIT:;
#SUBTITLETRANSLIT:;
#ARTISTTRANSLIT:CAMELLIA;
#CREDIT:DigiMindAxel;
#BANNER:Bangin' Burst.png;
#BACKGROUND:Bangin' Burst-bg.png;
#LYRICSPATH:;
#CDTITLE:SOUND VOLTEX.png;
#MUSIC:Bangin' Burst.ogg;
#METERTYPE:DDR X;
#OFFSET:-4.679;
#SAMPLESTART:50.280;
#SAMPLELENGTH:12.000;
#SELECTABLE:YES;
#BPMS:0.000=234.000,338.000=468.000;
#STOPS:;
#BGCHANGES:;

//---------------dance-single - ----------------
#NOTES:
     dance-single:
     :
     Easy:
     7:
     0.328,0.451,0.233,0.017,0.000:
0000
0000
1000
0000
,
0000
0000
1000
0000
,
0000
0000
1000
0000
,
1000
0000
1001
0000
,
0000
0000
0001
0000
,
1000
0000
0001
0000
,
1000
0000
0100
0000
,
0010
0000
0100
0000
,
0010
0000
0001
0000
,
1000
0000
0001
0000
,
1000
0000
0100
0000
,
0100
0000
0100
0000
,
0000
0000
1001
0000
,
1000
0000
1000
0000
,
1000
0000
1001
0000
,
0110
0000
2002
0000
,
0000
3003
0001
0000
,
1000
0000
0001
0000
,
1000
0000
0010
0010
,
0010
0000
1000
0000
,
0100
0000
1000
0000
,
0001
0000
0010
0000
,
0100
0000
1000
1000
,
1000
0000
0001
0001
,
0001
0000
1000
0001
,
1000
0000
0001
1000
,
0001
0000
1001
0000
,
1001
0000
1000
0001
,
1000
0000
0010
0000
,
0100
0000
0010
0000
,
0100
0000
0001
0000
,
0010
0000
0001
0000
,
0010
0000
0001
0000
,
1000
0000
0001
0000
,
1000
0000
0100
0000
,
1000
0000
0100
0000
,
0000
0000
1001
0000
,
1000
0000
1000
0000
,
0000
0000
1001
0000
,
0001
0000
0001
0000
,
0000
0000
0110
0000
,
0100
0000
0100
0000
,
0000
0000
0110
0000
,
0010
0000
0010
0000
,
0000
0000
1000
0000
,
0010
0000
0100
0001
,
0100
0000
0001
0000
,
1000
0000
0100
1000
,
0100
0000
1000
0000
,
0001
0000
0100
0001
,
0100
0000
0010
0000
,
0100
0000
0001
1000
,
0001
0000
0010
0000
,
0010
0000
0001
0000
,
0001
0000
0100
0000
,
0100
0000
0010
0000
,
0010
0000
1000
0000
,
1000
0000
0001
0000
,
0001
0000
1000
0001
,
1000
0001
1000
0000
,
0000
0000
1001
0000
,
0001
0000
0010
0001
,
0010
0000
0001
0000
,
1000
0000
0010
0100
,
0010
0000
1000
0000
,
0100
0000
0010
0001
,
0010
0000
0001
0000
,
0100
0000
0010
0100
,
0010
0000
0100
0001
,
0100
0000
0001
1000
,
0001
1000
0100
1000
,
0100
0000
1000
0001
,
1000
0001
0010
0001
,
0010
0000
0001
1000
,
0001
0000
1000
0100
,
1000
0000
0001
1000
,
0010
0000
0110
0000
,
0000
0000
0110
0000
,
0000
0000
1001
0000
,
0000
0000
1001
0000
,
0000
0000
0110
0000
,
0000
0000
1001
0000
,
0000
0000
1001
0000
,
1000
0000
1000
0000
,
0000
0000
0001
0000
,
1000
0000
0001
0000
,
1000
0000
0001
0000
,
1000
0000
0001
0000
,
0000
0000
0010
0000
,
0001
0000
0010
0000
,
0001
0000
0010
0000
,
0001
0000
0100
0000
,
0000
0000
0010
0000
,
0100
0000
0010
0000
,
0100
0000
0010
0000
,
0100
0000
0001
0000
,
0000
0000
1000
0000
,
0100
0000
1000
0000
,
0100
0000
1000
0000
,
0100
0000
0010
0000
,
0000
0000
0001
0000
,
1000
0000
0001
0000
,
1000
0000
0100
0000
,
1000
0000
0100
0000
,
0000
0000
1000
0000
,
0001
0000
1000
0000
,
0001
0000
0010
0000
,
0001
0000
0010
0000
,
0000
0000
0001
0000
,
1000
0000
0001
0000
,
1000
0000
0010
0000
,
1000
0000
0010
0000
,
0000
0000
1000
0000
,
0001
0000
0100
0000
,
0001
0000
1000
0000
,
0001
0000
0100
0000
,
0001
0000
1000
0000
,
0000
0000
0000
0000
,
0000
0000
1000
0000
,
0000
0000
0000
0000
,
0000
0000
1001
0000
,
0000
0000
0000
0000
,
0000
0000
0001
0000
,
0000
0000
0000
0000
,
0000
0000
1001
0000
,
0000
0000
0000
0000
,
0000
0000
1001
0000
,
0000
0000
0000
0000
,
0000
0000
0110
0000
,
0000
0000
0010
0000
,
0000
0000
0110
0000
,
0000
0000
0000
0000
,
0000
0000
1001
0000
,
0000
0000
1001
0000
,
0000
0000
1001
0000
,
0000
0000
0110
0000
;

//---------------dance-single - ----------------
#NOTES:
     dance-single:
     :
     Medium:
     10:
     0.564,0.677,0.425,0.208,0.000:
0000
0000
1001
0000
,
0000
0000
1001
0000
,
0000
0000
0100
0000
,
0100
0000
0110
0000
,
0000
0000
0100
1000
,
0100
1000
0001
0100
,
0001
0100
0001
1000
,
0100
0000
1000
0000
0002
0000
0000
2003
,
0000
3001
1000
0100
,
0010
0001
1000
0100
,
1000
0010
1000
0000
,
1001
0000
2002
0000
,
0000
3003
0100
0001
,
0100
0001
0100
0001
,
1000
0001
1001
0000
,
1100
0000
0011
0000
,
1001
0000
0100
1000
,
0100
1000
0010
1000
,
0100
1000
0001
0001
,
1001
0000
0100
0001
,
2000
0000
3100
0010
,
0001
1000
0100
1000
,
0002
0000
0013
0100
,
1000
0001
1000
0001
,
0020
0000
0031
0010
,
0100
1100
1001
0000
,
0110
0000
1001
0001
,
0100
0010
2000
0001
,
3001
0000
1100
0000
,
1000
0000
1000
0001
,
0010
0000
0011
0000
,
0001
0000
0010
0100
,
1000
0000
1001
0000
,
0001
0000
0010
0100
,
1000
0000
0000
0000
1001
0000
0000
1000
,
0000
0000
0001
0000
0000
0100
0000
0000
,
0110
0000
1100
0000
,
1100
0000
1001
0001
,
0000
0000
0011
0000
,
0011
0000
0000
1001
0000
1000
0000
0000
,
0000
0000
1010
0000
,
1010
0000
1001
0001
,
0000
0000
0101
0000
,
0101
0000
0002
0000
,
0000
0000
1003
0100
,
0010
0000
0100
1000
0100
0000
0100
0000
,
1000
1000
0001
0100
,
0010
0000
1000
0001
1000
0000
1000
0000
,
0010
0010
1000
0100
,
0010
0000
0001
1000
0001
0000
0001
0000
,
0010
0010
0100
0010
,
0001
0000
0100
0001
0200
0000
0000
0000
,
0000
0300
1001
0001
,
1000
0000
0100
1000
0100
0000
0010
0000
,
0001
0000
1001
0000
1000
0100
1000
0000
,
0010
0000
0100
0001
0100
0000
0001
0000
,
1000
0100
1001
0001
,
1000
0000
0100
1000
0100
0000
0010
0000
,
0001
0100
0001
0000
1000
0001
0000
0010
,
0000
0100
0000
1000
0002
0000
0000
0000
,
0000
0000
0003
0000
0100
0010
0100
0010
,
0100
0001
1000
0100
,
1000
0001
0010
1000
,
0010
0001
1000
1000
,
1001
0000
0000
0000
0010
0100
0010
0100
,
0010
1000
0001
0010
,
1000
0010
0001
0010
,
0100
0010
1001
0000
,
1001
0000
0000
0000
0100
1000
0100
1000
,
0100
1000
0001
0100
,
0010
0000
0100
0000
0001
1000
0001
1000
,
0001
0010
0100
0010
,
0001
0000
1000
0000
0001
0100
0001
0100
,
0001
0010
0100
1000
,
0010
0000
0100
0000
0001
1000
0001
1000
,
0001
0010
0200
1000
,
1300
0000
2002
0000
,
0000
3003
1001
0001
,
1000
0001
0220
0000
,
0000
0330
0110
0100
,
0010
0100
1002
0000
,
1003
0000
0210
0000
,
0310
0000
1001
1000
,
1000
0001
0002
0000
,
0000
0003
0100
0001
,
0100
0001
0100
0001
,
0100
0000
0010
0000
,
1000
0000
0100
0000
,
0010
0000
0001
1000
,
0001
1000
0001
1000
,
0001
0000
0010
0000
,
0100
0000
1000
0000
,
0001
0000
1000
0100
,
1000
0100
1000
0100
,
1000
0000
0001
0000
,
0100
0000
0010
0000
,
1000
0000
0100
0010
,
0100
0010
0100
0010
,
0100
0000
1000
0000
,
0001
0000
0010
0000
,
0100
0000
0010
0001
,
0010
0001
0010
0001
,
0010
0000
0001
0000
,
0100
0000
0010
0000
,
1000
0000
0100
0010
,
0100
0010
0100
0010
,
0100
0000
1000
0000
,
0010
0000
0100
0000
,
0001
0000
1000
0100
,
1000
0100
1000
0100
,
1000
0100
1000
0001
,
1000
0001
1000
0000
,
0000
0000
0010
0100
,
0010
0100
0010
0100
,
0010
0100
0001
1000
,
0001
1000
0001
1000
,
0001
0000
2001
0000
,
0000
0000
0000
0000
,
0000
0000
3100
0000
,
0000
0000
0000
0000
,
0000
0000
1001
0000
,
1002
0000
0000
0000
,
0000
0000
0013
0000
,
0000
0000
0000
0100
,
0000
0000
0220
0000
,
0000
0000
0000
0000
,
0330
0000
1001
0000
,
0001
0000
0000
1000
,
0000
0000
1100
0000
,
0000
0000
0011
0000
,
0000
0000
0220
0000
,
0000
0000
0000
0000
,
0330
0000
0010
1000
,
0010
1000
0001
0010
,
0001
0010
0001
1000
,
0001
1000
0100
0000
;

//---------------dance-single - ----------------
#NOTES:
     dance-single:
     :
     Hard:
     16:
     0.843,0.902,0.533,0.291,0.058:
0000
0001
0000
0000
1001
0000
0000
0000
,
0000
0000
1001
0000
,
0000
1000
0001
1000
0100
0000
0000
0000
,
1100
0000
2002
0000
,
0000
0000
3003
0000
0001
0100
0001
0100
,
0001
0100
0001
0000
0010
0100
0010
0100
,
0010
0100
1000
0000
0001
1000
0001
1000
,
0001
1000
0001
0000
0011
0000
0000
1100
,
0000
0000
1000
0010
1000
0010
1000
0010
,
1000
0010
0100
0000
0001
1000
0001
1000
,
0001
1000
0100
0000
1100
0000
1000
0001
,
0100
0000
0001
1000
0002
0000
0000
0000
,
2000
0000
3003
0000
1000
0001
1000
0001
,
1000
0100
1000
0100
1000
0010
1000
0010
,
1000
0000
0000
0100
0000
0000
0010
0000
0000
0100
0000
0000
0010
0000
0000
0000
0001
0000
0000
0000
0100
0000
0000
0000
,
0001
0000
0100
0000
0010
0000
1000
0000
1000
0000
1000
0000
,
0001
0000
0000
0001
0000
0000
0001
0000
1000
0000
0010
0000
1000
0000
0010
0000
,
0100
0001
0100
0001
0010
0100
0010
0100
,
1000
0001
0100
0001
1000
0000
1001
0000
,
0001
1000
0100
1000
0001
0010
0100
1000
,
0002
0000
0000
0000
1003
0001
0010
0001
,
0010
0001
1000
0000
0100
1000
0001
0100
,
0002
0000
0000
0000
0103
0010
0100
0001
,
1000
0010
0100
0000
0001
0010
0001
0100
,
0020
0000
0000
0000
0130
0001
0100
0001
,
1000
0100
1000
0100
1000
0100
1000
0000
0010
0000
0100
0000
,
0002
0000
0000
0000
1003
0100
0010
0001
,
1000
0100
0010
0000
0101
0000
0100
0000
,
0100
0000
0000
0000
1001
0000
0000
1000
,
0000
0001
0100
0010
,
1000
0000
0001
0000
1000
0000
0000
1000
,
0000
0100
0010
0001
,
1001
0000
1000
0000
1010
0000
0000
0010
,
0000
0100
0001
0010
,
0100
0000
1000
0000
1001
0000
0000
1001
,
0000
0000
1001
0000
0000
0110
0000
0000
,
0110
0000
1100
0000
,
1100
0000
1100
2002
,
0000
3003
0011
0000
,
0011
0000
0000
0011
0000
2002
0000
0000
,
0000
3003
0110
0000
,
0110
0000
0110
0202
,
0000
0303
1010
0000
,
1010
0000
2020
0000
,
0000
0000
3030
0000
1001
0000
0001
0100
,
0000
0100
0001
1000
0100
0000
1100
0000
,
0100
0000
1100
0000
1000
0000
0001
0010
,
0000
0010
0001
0000
0010
0001
1000
0100
,
1000
0100
0010
0000
0001
0000
1000
0010
,
0000
0010
1000
0100
0010
0000
0011
0000
,
0010
0000
0011
0000
0001
0000
0010
0100
,
0000
0100
1000
0001
0100
0010
0100
0010
,
0100
0000
0000
0000
1001
0000
0001
1000
,
0000
1000
0010
0001
0010
1000
0100
1000
,
0010
0000
1010
0000
1000
0000
0001
0010
,
0000
0010
0100
1000
0100
1000
0001
0100
,
1000
0100
0001
0000
0101
0000
0100
0010
,
0000
0010
1000
0100
0001
0100
1000
0001
,
0100
0010
0100
0000
0001
1000
0000
0100
,
0000
0010
0000
0001
1000
0100
1000
0000
,
0001
0010
0001
0000
1000
0010
0100
0010
,
1000
0001
0010
1000
0010
0000
0001
1000
,
0010
1000
0001
0000
0010
0100
1000
0100
,
0010
0001
0100
1000
0100
0001
1000
0100
,
0010
0001
0100
0000
0001
1000
0010
1000
,
0001
0010
1000
0010
0001
1000
0001
0100
,
0010
0100
0001
0000
1000
0100
0010
0100
,
1000
0000
0010
0000
0100
0000
0001
0000
1000
0000
0000
1000
0000
0000
1000
0000
,
0000
0001
0001
0000
1000
0100
0001
0100
,
1000
0001
0100
0001
2000
0000
0001
0000
,
0100
0000
3001
0000
1000
0010
0001
0010
,
1000
0001
0010
0001
1000
0000
1001
0000
,
1100
0000
0101
0000
0001
0010
1000
0010
,
0001
1000
0010
1000
0002
0000
1000
0000
,
0010
0000
1003
0000
0001
0100
1000
0100
,
0001
1000
0100
1000
0001
0000
1001
0000
,
1100
0011
2002
0000
,
0000
0000
3003
0000
0001
0100
1000
0100
,
0001
1000
0100
1000
2002
0000
0000
0000
,
0000
0000
3003
0000
1000
0010
0001
0010
,
1000
0001
0100
0001
1002
0000
0000
0000
,
0103
0010
0100
0000
2001
0000
0000
0000
,
3010
0100
0010
0000
0110
0000
0100
1000
,
0010
0100
0001
0010
0002
0000
0000
0000
,
0000
0003
1000
0100
,
0010
0100
0010
0100
,
0010
0001
0100
0010
,
1000
0010
0100
0010
,
1000
0010
1000
0100
,
0010
0100
0010
0100
,
0010
0001
1000
0010
,
0100
0010
1000
0010
,
0100
0000
0001
1000
,
0100
1000
0100
1000
,
0100
1000
0001
0100
,
0010
0100
0001
0100
,
0010
0100
0001
0010
,
0100
0010
0100
0010
,
0100
1000
0010
0100
,
0010
1000
0020
0000
,
0000
0000
1030
1000
,
0001
0001
1000
1000
,
0001
0000
0001
0000
1000
0001
1000
0000
,
0100
0010
0002
0000
,
0000
0000
1003
1000
,
0001
0001
1000
1000
,
0001
0100
0101
0000
,
1001
0000
1100
0000
,
1001
0000
0001
0001
,
1000
1000
0001
0001
,
1000
1000
0100
1000
,
0010
0100
0010
0100
0020
0000
0000
0000
,
0000
0000
0000
0000
1030
0000
0001
1000
,
0001
0000
1000
0000
0001
1000
0001
0000
,
0010
0000
0100
0000
1000
0001
1000
0001
,
1000
0000
0010
0000
0100
0010
0100
0010
,
0100
0000
2001
0000
,
0000
3002
0000
0000
,
1003
0000
0020
0000
,
0000
0230
0000
0000
,
0310
0000
1001
0001
,
0102
0000
0000
0000
,
1003
0000
0001
1000
,
0000
0100
0000
1100
,
0000
0000
1002
0000
,
0000
0023
0000
0000
,
0031
0000
0011
0000
,
1001
0000
0000
1000
,
0100
1000
1001
0000
,
0000
0000
0011
0000
,
0000
0000
0000
0000
0001
0100
0001
0100
,
0001
0000
0000
0000
1000
0010
1000
0010
,
1000
0000
0000
0000
0001
1000
0001
1000
,
0001
1000
0001
0000
1000
0100
1000
0100
,
1000
0100
1000
0000
0010
0100
0010
0100
,
0010
0100
0010
0100
0001
0000
0000
0000
;

//---------------dance-single - ----------------
#NOTES:
     dance-single:
     :
     Challenge:
     18:
     1.000,1.000,0.658,0.225,0.495: // measure 1
0000
1001
0000
0000
1100
0000
0100
0000
,  // measure 2
0100
0100
1001
0001
,  // measure 3
0001
0000
1000
0010
1000
0000
0001
0000
0010
0000
0000
0000
0010
0000
0000
0000
,  // measure 4
0110
0100
2002
0000
,  // measure 5
0000
0000
3003
0000
0001
0100
0001
1000
,  // measure 6
0100
0000
1000
0000
0001
0000
0100
0001
0100
0000
0001
0000
0100
0000
0001
1000
,  // measure 7
0001
0000
1000
0000
0001
0100
0001
0000
0010
0000
0100
0000
0010
0000
0100
0000
,  // measure 8
1000
0001
1000
0001
0200
0001
0000
0302
,  // measure 9
1000
0000
1003
0100
1000
0001
0100
0001
,  // measure 10
0010
0000
0100
0000
0010
0000
0100
1000
0100
0000
1000
0000
0100
0000
1000
0001
,  // measure 11
1000
0000
0010
0000
0100
0010
0100
0000
0110
0000
0000
0000
0001
0000
0100
0000
,  // measure 12
0101
0000
0000
0000
1000
0000
0100
0000
1100
0000
0000
0000
1000
0001
1000
0001
,  // measure 13
2000
0000
0000
0000
3001
0100
0010
0100
,  // measure 14
0001
0000
0010
0000
0100
0000
0010
0001
1000
0000
0100
0000
0010
0000
0100
0000
,  // measure 15
1000
0000
0000
0000
0000
0000
0010
0000
0000
0000
0000
0000
0100
0000
0000
0000
0000
0000
0010
0000
0000
1000
0000
0000
0001
0000
0000
0000
0000
0000
0000
0000
0011
0000
0000
0000
0000
0000
0000
0000
1001
0000
0000
0000
0000
0000
0000
0000
,  // measure 16
1100
0000
1100
0000
1001
0000
0101
0000
0110
0000
1010
0000
,  // measure 17
0110
0000
0000
0101
0000
0000
1001
0000
1000
0000
0010
0000
1000
0010
1000
0000
,  // measure 18
0100
0000
0010
0000
0100
0000
0010
0001
0010
0000
0001
0000
1000
0000
0010
0000
,  // measure 19
1000
0010
1000
0000
0001
0000
0010
0001
0010
0000
0000
0000
0011
0000
0000
0000
,  // measure 20
0001
0000
0010
0000
0100
0000
1000
0001
1000
0001
1000
0100
1000
0100
1000
0000
,  // measure 21
0200
0000
0000
0000
1300
0010
0100
0010
,  // measure 22
0100
0000
0001
0000
0010
0000
0001
1000
0001
0000
1000
0000
0010
0000
1000
0000
,  // measure 23
0002
0000
1003
0000
0001
0100
0010
0100
,  // measure 24
0010
0000
1000
0000
0100
0000
1000
0001
1000
0000
0010
0000
0100
0000
0001
0000
,  // measure 25
2000
0000
3001
0000
1000
0100
0010
0001
,  // measure 26
1000
0100
0001
0100
1000
0010
1000
0000
1001
0000
0110
0000
,  // measure 27
0210
0000
0000
0000
0310
0000
0000
0000
1000
0100
1000
0100
1000
0000
0100
0000
,  // measure 28
0010
0001
0010
0001
0010
0000
0001
1000
0002
0000
0000
0000
1000
0000
0000
0000
,  // measure 29
1003
0000
0000
0000
0010
0100
0010
0100
0010
0000
0000
0000
1000
0000
0010
0000
,  // measure 30
0000
1000
0001
0000
0010
0100
1000
0100
,  // measure 31
1000
0001
0100
0000
0001
0000
0010
0100
,  // measure 32
0000
1000
0100
0000
1000
0001
0100
0001
,  // measure 33
0101
0000
1001
0000
1100
0000
0010
0100
,  // measure 34
0000
0001
0010
0000
0001
1000
0100
0010
,  // measure 35
0100
1000
0010
0100
0101
0000
0000
1010
,  // measure 36
0000
0000
0101
0000
0000
1010
0000
0000
,  // measure 37
1001
0000
0101
0100
,  // measure 38
0110
0100
0101
0220
,  // measure 39
0000
0330
1100
1000
,  // measure 40
1001
0000
1000
1100
0000
2002
0000
0000
,  // measure 41
0000
3003
0101
0001
,  // measure 42
1001
0001
0101
2002
,  // measure 43
0000
3003
0110
0010
,  // measure 44
1010
0010
0220
0000
,  // measure 45
0000
0000
0000
0000
0330
0000
0000
0000
1000
0000
0001
0100
0010
0000
1000
0000
,  // measure 46
0000
0000
0010
0100
0010
0000
1000
0000
0100
0000
0000
0100
1000
0000
0000
1000
,  // measure 47
0010
0000
0000
0010
0100
0000
0000
0000
0001
0000
1000
0010
1000
0000
0001
0000
,  // measure 48
0000
0000
0010
0100
0010
0000
0001
0000
0010
0000
0000
0010
0100
0000
0000
0100
,  // measure 49
1000
0000
0000
1000
0001
0000
0000
0000
1000
0000
0001
0010
0001
0000
1000
0000
,  // measure 50
0000
0000
0010
0100
0010
0000
1000
0000
0001
0000
0000
0001
0010
0000
0000
0010
,  // measure 51
0100
0000
0000
0100
1000
0000
0000
0000
0001
0000
1000
0100
1000
0000
0010
0000
,  // measure 52
0000
0000
0100
0010
0100
0000
0001
0000
1000
0100
1000
0100
0010
0001
0010
0001
,  // measure 53
0020
0000
0000
0000
0000
0000
0000
0000
0031
0000
1000
0100
0010
0000
0100
0000
,  // measure 54
1000
0000
0001
0100
0001
0000
1000
0000
0100
1000
0100
0000
0010
0100
0010
0000
,  // measure 55
0001
0010
0001
0000
1001
0000
0000
0000
0100
0000
0001
0010
0100
0000
0010
0000
,  // measure 56
0001
0000
1000
0010
1000
0000
0010
0000
0100
0001
0100
0000
0001
1000
0001
0000
,  // measure 57
1000
0100
1000
0000
0100
0000
1000
0000
0001
0000
0100
0001
0010
0000
0100
0000
,  // measure 58
1000
0000
0001
0100
0001
0000
1000
0000
0010
0100
0010
0000
1000
0100
1000
0000
,  // measure 59
0001
0010
0001
0010
0100
0000
1000
0000
0001
0000
0101
0000
0000
0000
1001
0000
,  // measure 60
0000
1100
0000
1001
0001
0100
0001
0000
,  // measure 61
1000
0000
0100
0000
1000
0000
0000
0000
0001
0000
0010
0100
1000
0000
0001
0000
,  // measure 62
0100
0000
0010
0000
1000
0100
0010
0000
0100
0000
1000
0000
0001
0000
0100
0000
,  // measure 63
1000
0000
0100
0000
0001
0000
0010
0000
0100
0000
1000
0001
0100
0000
0001
0000
,  // measure 64
1000
0000
0100
0000
0010
0001
0100
0000
0001
0000
0010
0000
1000
0000
0010
0000
,  // measure 65
0001
0000
1000
0000
0100
0000
0010
0000
0100
0000
1000
0001
0100
0000
0001
0000
,  // measure 66
1000
0000
0100
0000
0010
0001
1000
0000
0010
0000
0100
0000
0001
0000
0010
0000
,  // measure 67
1000
0000
0010
0000
0001
0000
1000
0000
0010
0000
0100
0001
1000
0000
0100
0000
,  // measure 68
0010
0100
1000
0000
0001
0100
0010
0100
0001
0000
0000
1001
0000
0000
1100
0000
,  // measure 69
0000
0000
0011
0000
1001
0000
0000
0000
0001
1000
0100
1000
0001
0000
0100
0000
,  // measure 70
0010
0000
1000
0100
0010
0100
1000
0000
0001
0000
1000
0000
0010
0000
0001
0000
,  // measure 71
0010
0000
1000
0000
0100
0000
0000
0000
0010
0001
1000
0001
0010
0000
0100
0000
,  // measure 72
1000
0000
0010
1000
0100
1000
0010
0000
0100
0000
0001
1000
0001
0000
1000
0100
,  // measure 73
1000
0000
0010
0100
0010
0000
0000
0000
1000
0000
0001
0100
0010
0100
0001
0000
,  // measure 74
1000
0000
0100
0010
0001
0010
0100
0000
1000
0000
0001
0000
0010
0000
1000
0000
,  // measure 75
0010
0000
0001
0000
1000
0000
0000
0000
0100
1000
0100
1000
0010
0100
0010
0100
,  // measure 76
0001
1000
0001
1000
0001
0010
0100
1000
0010
0100
0010
0100
0010
0000
0000
0000
,  // measure 77
1000
0001
0010
0000
0022
0000
0000
0000
,  // measure 78
0000
0000
0033
0000
0001
0100
1000
0100
,  // measure 79
0010
1000
0001
0010
0220
0000
0000
0000
,  // measure 80
0000
0000
0330
0000
1000
0010
0001
0010
,  // measure 81
0100
0000
0001
0000
1000
0000
0100
0000
1000
0100
1000
0100
1000
0000
0000
0000
,  // measure 82
0010
0000
0100
0000
0001
0000
0010
0000
0001
0010
0001
0010
0001
0000
0000
0000
,  // measure 83
0010
0100
1000
0001
0100
0000
0001
0001
,  // measure 84
1000
0000
1000
0000
0100
0000
0010
0001
0200
0000
0000
0000
0000
0000
0000
0000
,  // measure 85
0000
0300
1001
1000
,  // measure 86
0010
0100
0001
1000
,  // measure 87
0100
0000
0001
0100
1000
0000
0010
0100
,  // measure 88
0001
0000
1000
0100
1000
0000
0100
0010
,  // measure 89
0001
0010
0100
0000
1000
0000
0010
0001
,  // measure 90
0010
0000
1000
0000
0010
0001
0010
0000
,  // measure 91
1000
0000
0100
0010
0001
0000
1000
0010
,  // measure 92
0100
0000
0001
1000
0001
0000
0100
0010
,  // measure 93
1000
0000
0100
0010
,  // measure 94
0001
1000
0001
0100
,  // measure 95
1000
0100
0001
0000
1000
0010
0100
0000
,  // measure 96
0010
0100
0010
0000
0100
0001
0010
0000
,  // measure 97
0001
0000
1000
0000
0001
0000
0100
1000
,  // measure 98
0100
0000
0001
0000
0100
1000
0100
0000
,  // measure 99
0001
0000
0010
0100
1000
0000
0001
0000
,  // measure 100
0100
0001
0100
0001
2000
0000
0000
0000
,  // measure 101
3001
0000
1001
1000
,  // measure 102
1100
0100
0110
0010
,  // measure 103
0011
0000
0001
1000
0100
0000
1000
0100
,  // measure 104
0010
0000
0001
0100
0020
0000
0000
0000
,  // measure 105
0000
0030
0110
0100
,  // measure 106
0101
0001
1001
1000
,  // measure 107
0100
1000
0010
0000
0100
0001
1000
0100
,  // measure 108
1000
0100
0010
0001
1000
0100
0001
0100
,  // measure 109
1000
0001
0010
0000
1001
0000
1000
0000
,  // measure 110
1010
0000
0010
0000
0110
0000
0100
0001
,  // measure 111
1000
0100
0010
0001
0100
1000
0100
0001
,  // measure 112
1000
0010
1000
0010
0200
0000
0000
0000
,  // measure 113
0000
0000
0300
0000
0110
0000
0010
1000
,  // measure 114
0100
0000
0001
0100
1000
0000
0001
0010
,  // measure 115
0100
1000
0010
0100
0010
1000
0001
0010
,  // measure 116
1000
0010
0001
1000
0100
0001
0100
1000
,  // measure 117
0001
0000
0101
0000
,  // measure 118
0100
0010
1000
0100
,  // measure 119
0010
0000
0001
1000
,  // measure 120
0000
1000
0100
0000
,  // measure 121
0001
1000
1010
0010
,  // measure 122
0110
0100
0000
0001
,  // measure 123
1000
0000
0100
0010
,  // measure 124
0001
1000
0010
0110
,  // measure 125
0000
0000
1001
0000
,  // measure 126
1000
0001
0000
0001
,  // measure 127
0100
0000
1010
0000
,  // measure 128
0110
0000
0000
0101
,  // measure 129
0001
1000
1100
0000
,  // measure 130
0100
0000
0110
0000
,  // measure 131
0010
0000
0000
0000
1000
0010
1000
0010
,  // measure 132
0100
0000
0001
0000
0010
0100
0010
0100
,  // measure 133
1000
0000
0001
0000
1000
0010
1000
0010
,  // measure 134
1000
0100
0010
0001
0100
1000
0100
0001
,  // measure 135
0010
0001
0010
0001
0100
0010
1000
0010
,  // measure 136
0001
0010
1000
0100
0010
0000
0000
0000
;

//---------------dance-double - ----------------
#NOTES:
     dance-double:
     :
     Easy:
     7:
     0.367,0.508,0.225,0.125,0.000:
00000000
00000000
10010000
00000000
,
00000000
00000000
10010000
00000000
,
00000000
00000000
01000000
00000000
,
01000000
00000000
01100000
00000000
,
00000000
00000000
00100000
00000000
,
01000000
00000000
00100000
00000000
,
01000000
00000000
00001000
00000000
,
00010000
00000000
00001000
00000000
,
00010000
00000000
00000100
00000000
,
00000010
00000000
00000100
00000000
,
00000010
00000000
00001001
00000000
,
00001001
00000000
00001001
00000000
,
00000000
00000000
00000110
00000000
,
00000010
00000000
00000100
00000000
,
00000010
00000000
00000110
00000000
,
00000110
00000000
00020020
00000000
,
00000000
00030030
00010000
00000000
,
00001000
00000000
01000000
00000000
,
00100000
00000000
10000000
10000000
,
10000000
00000000
00010000
00000000
,
00100000
00000000
00010000
00000000
,
00100000
00000000
00001000
00000000
,
00010000
00000000
00000010
00000010
,
00000010
00000000
00000100
00000100
,
00000100
00000000
00000001
00001000
,
00000002
00000000
00010003
00001000
,
00020000
00000000
00031000
10000000
,
00001000
10000000
00200000
00000000
,
00300000
00000000
10010000
00000000
,
10000000
00000000
00100000
00000000
,
01000000
00000000
00001000
00000000
,
00010000
00000000
00001000
00000000
,
00010000
00010000
00010000
00000000
,
00000100
00000000
00000010
00000000
,
00000001
00000000
00000100
00000000
,
00000001
00000000
00000100
00000000
,
00000000
00000000
00001001
00000000
,
00000001
00000000
00000001
00000000
,
00000000
00000000
00011000
00000000
,
00010000
00000000
00010000
00000000
,
00000000
00000000
10010000
00000000
,
10000000
00000000
10000000
00000000
,
00000000
00000000
00011000
00000000
,
00001000
00000000
00001000
00000000
,
00000000
00000000
00010000
00000000
,
00000100
00000000
00001000
00000010
,
00001000
00000000
00000001
00000000
,
00000010
00000000
00000100
00000010
,
00000100
00000000
00010000
00000000
,
00001000
00000000
01000000
00010000
,
01000000
00000000
00100000
00000000
,
10000000
00000000
00010000
10000000
,
00010000
00000000
00100000
00001000
,
00100000
00001000
00010000
00000000
,
00000010
00000100
00000010
00000100
,
00000001
00000000
00000010
00000100
,
00000010
00000100
00010000
00000000
,
00001000
01000000
00001000
01000000
,
00100000
00000000
10000000
01000000
,
00100000
00001000
00020000
00000000
,
00030000
00000000
00011000
00000000
,
00001000
00000000
00010000
00000100
,
00010000
00000000
00000100
00000000
,
00000010
00000000
00000001
00000100
,
00000001
00000000
00000100
00000000
,
00000010
00000000
00010000
00001000
,
00010000
00000000
00001000
00000000
,
00100000
00000000
01000000
10000000
,
01000000
00000000
00100000
00001000
,
00100000
00000000
00001000
00010000
,
00001000
00010000
00000010
00000100
,
00000010
00000000
00001000
00000001
,
00001000
00000001
00010000
00000100
,
00010000
00000000
00001000
00010000
,
00001000
00000000
00100000
00010000
,
00100000
00000000
01000000
10000000
,
01000000
00000000
20020000
00000000
,
00000000
30030000
00010000
00100000
,
00001000
00010000
00022000
00000000
,
00000000
00033000
00010000
00000100
,
00000010
00000001
00002002
00000000
,
00000000
00003003
00000220
00000000
,
00000000
00000330
00001001
00001000
,
00001000
00001000
00000002
00000000
,
00000000
00000000
00000013
00000000
,
00000100
00000000
00000010
00000000
,
00000100
00000000
00000010
00000000
,
00000100
00000000
00000010
00000000
,
00000000
00000000
00000001
00000000
,
00000100
00000000
00000001
00000000
,
00000100
00000000
00000001
00000000
,
00000100
00000000
00000001
00000000
,
00000000
00000000
00010000
00000000
,
00001000
00000000
00010000
00000000
,
00001000
00000000
00010000
00000000
,
00001000
00000000
10000000
00000000
,
00000000
00000000
01000000
00000000
,
10000000
00000000
01000000
00000000
,
10000000
00000000
01000000
00000000
,
10000000
00000000
00100000
00000000
,
00000000
00000000
01000000
00000000
,
00010000
00000000
01000000
00000000
,
00010000
00000000
01000000
00000000
,
00010000
00000000
00100000
00000000
,
00000000
00000000
00001000
00000000
,
00010000
00000000
00001000
00000000
,
00010000
00000000
00001000
00000000
,
00010000
00000000
00000100
00000000
,
00001000
00000000
00000001
00000000
,
00001000
00000000
00000001
00000000
,
00001000
00000000
00000100
00000000
,
00000010
00000000
00000100
00000000
,
00000000
00000000
00010000
00000000
,
00000001
00000000
00000010
00000000
,
00000001
00000000
00010000
00000000
,
00000001
00000000
00000010
00000000
,
00000001
00000000
00010000
00000000
,
00000000
00000000
00000000
00000000
,
00000000
00000000
00010000
00000000
,
00000000
00000000
00000000
00000000
,
00000000
00000000
00011000
00000000
,
00000000
00000000
00000000
00000000
,
00000000
00000000
01000000
00000000
,
00000000
00000000
00000000
00000000
,
00000000
00000000
01100000
00000000
,
00000000
00000000
00000000
00000000
,
00000000
00000000
10010000
00000000
,
00000000
00000000
00000000
00000000
,
00000000
00000000
10010000
00000000
,
00000000
00000000
00100000
00000000
,
00000000
00000000
01100000
00000000
,
00000000
00000000
00000000
00000000
,
00000000
00000000
10000000
00000000
,
01000000
00000000
00100000
00000000
,
00001000
00000000
00010000
00000000
,
00000010
00000000
00000110
00000000
;

//---------------dance-double - ----------------
#NOTES:
     dance-double:
     :
     Medium:
     12:
     0.596,0.733,0.341,0.266,0.000:
00000000
00000000
10010000
00000000
,
00000000
00000000
10010000
00000000
,
00000000
00100000
01000000
00000000
,
01000000
00000000
01100000
00000000
,
00000000
00000000
01000000
10000000
,
01000000
10000000
00001000
00010000
,
00001000
00010000
00000010
00000100
,
00000010
00000000
00000100
00000000
00000002
00000000
00000000
00002003
,
00000000
00003001
00001000
00000001
,
00000010
00000001
00010000
00001000
,
10000000
00100000
10000000
00001000
,
10000000
00000000
20002000
00000000
,
00000000
00000000
30003000
00000000
00001000
10000000
00000000
01000000
,
00000000
00100000
00000000
00001000
00000000
00010000
00000000
00000100
,
00000000
00000010
00000000
00000001
00002000
00000000
00000000
00000000
,
00003200
00000000
00020300
00000000
,
00032000
00000000
00000000
00000000
10003000
00010000
00000000
00100000
,
00000000
01000000
00000000
10000000
00000000
00001000
00000000
00010000
,
00000000
00000010
00000000
00000100
00000001
00000000
00000001
00000000
,
00010000
00000100
00010000
00000100
00010000
00000000
00001000
00000000
,
02000000
00000000
00000000
00000000
03100000
10000000
00000000
01000000
,
00000000
00100000
00000000
01000000
00000000
10000000
00000000
00001000
,
00020000
00000000
00000000
00000000
00031000
00010000
00000000
00000010
,
00000000
00000100
00000000
00000010
00000000
00010000
00000000
00000001
,
00000020
00000000
00000000
00000000
00000031
00001000
00000001
00001000
,
00000001
00001001
00000110
00000000
,
00001100
00000000
00000000
00000000
00010100
00000000
00010000
00001000
,
00010000
00001000
01000000
00100000
02000000
00000000
00000000
00000000
,
03000000
00000000
01100000
00000000
,
01000000
00000000
01000000
00001000
,
00010000
00000000
00011000
00000000
,
00001000
00000000
00001000
00010000
,
00000100
00000100
00001100
00000000
,
00001000
00000000
00001000
00000100
,
00000010
00000000
00000000
00000000
00000001
00000000
00000000
00000001
,
00000000
00000000
00001000
00000000
00000000
00001000
00000000
00000000
,
00001001
00000000
00000110
00000000
,
00000110
00000000
00011000
00010000
,
00000000
00000000
01100000
00000000
,
01100000
00000000
00000000
10010000
00000000
10000000
00000000
00000000
,
00000000
00000000
01100000
00000000
,
01100000
00000000
00011000
00001000
,
00000000
00000000
00000110
00000000
,
00000110
00000000
00002002
00000000
,
00000000
00000000
00003003
00000000
00000001
00000000
00001000
00000100
,
00000000
00001000
00000001
00000000
00000010
00000000
00000010
00000000
,
00000100
00000000
00000100
00000000
00010000
00000000
00001000
00100000
,
00000000
00001000
10000000
00000000
01000000
00000000
01000000
00000000
,
00100000
00000000
00100000
00000000
00001000
00000000
00010000
00001000
,
00000000
00010000
00000010
00000000
00000100
00000000
00000100
00000000
,
00000001
00000001
00000010
00000100
,
00010000
00000000
00001000
00010000
00002000
00000000
00000000
00000000
,
00000000
00003000
01100000
00100000
,
01000000
00000000
10000000
00100000
10000000
00000000
01000000
00000000
,
00100000
00000000
01100000
00000000
00001000
01000000
00001000
00000000
,
00010000
00000000
00000100
00000010
00000100
00000000
00010000
00000000
,
00000010
00000100
00000001
00000100
,
00000010
00000000
00010000
00000010
00010000
00000000
00001000
00000000
,
00100000
01000000
00100000
00000000
00010000
10000000
00000000
01000000
,
00000000
00100000
00000000
00001000
00020000
00000000
00000000
00000000
,
00000000
00000000
00030000
00000000
00000010
00000100
00000010
00000100
,
00000010
00000000
00001000
00000100
00010000
00000000
00001000
00000000
,
01000000
00000000
00100000
00000000
10000000
00010000
10000000
00010000
,
10000000
00000000
01000000
10000000
00001000
00000000
00010000
00000000
,
00000010
00000000
00000100
00000000
00000001
00001000
00000001
00001000
,
00000001
00000000
00000010
00000100
00010000
00000000
00001000
00000000
,
01000000
00000000
00100000
00000000
10000000
01000000
10000000
01000000
,
10000000
00000000
00100000
01000000
00002000
00000000
00000000
00013000
,
00000000
00000000
00000000
00000000
00000001
00000100
00000001
00000100
,
00000001
00000010
00000100
00001000
,
00000010
00000000
00010000
00000000
00001000
00010000
00001000
00010000
,
00001000
00100000
01000000
10000000
,
10000000
00000000
00100000
00000000
01000000
00001000
01000000
00001000
,
01000000
00010000
00001000
00000010
,
00000100
00000000
00000001
00000000
00001000
00000100
00001000
00000100
,
00001000
00000010
00020000
00000000
,
00031000
00000000
00022000
00000000
,
00000000
00000000
00033000
00000000
01000000
00100000
01000000
00100000
,
01000000
00100000
01000000
00000000
02200000
00000000
00000000
00000000
,
00000000
00000000
03300000
00000000
00001000
01000000
00001000
01000000
,
00001000
01000000
00001000
00000000
01001000
00000000
00000000
00000000
,
00001000
00010000
00010010
00000000
,
00000010
00000000
00001000
00000000
00001001
00000000
00000001
00001000
,
00000001
00001000
00000001
00000000
00002002
00000000
00000000
00000000
,
00000000
00003003
00001000
00000010
,
00001000
00000010
00001000
00000010
,
00001000
00000000
00000001
00000000
,
00000010
00000000
00000100
00000000
,
00010000
00000000
00001000
00100000
,
00001000
00100000
00001000
00100000
,
00001000
00000000
00100000
00000000
,
01000000
00000000
10000000
00000000
,
00010000
00000000
10000000
01000000
,
10000000
01000000
10000000
01000000
,
10000000
00000000
00100000
00000000
,
01000000
00000000
00001000
00000000
,
00010000
00000000
00000010
00010000
,
00000010
00010000
00000010
00010000
,
00000010
00000000
00000100
00000000
,
00000001
00000000
00000010
00000000
,
00000100
00000000
00001000
00000001
,
00001000
00000001
00001000
00000001
,
00001000
00000000
00000001
00000000
,
00001000
00000000
00001001
00000000
,
00000000
00000000
00000100
00010000
,
00000100
00010000
00000100
00010000
,
00000100
00000000
00010000
00000000
,
00001000
00000000
01000000
00000000
,
00100000
00000000
01000000
00100000
,
01000000
00100000
01000000
00100000
,
01000000
00100000
10000000
00010000
,
10000000
00010000
10000000
00000000
,
00000000
00000000
00010000
00100000
,
00010000
00100000
00010000
00100000
,
00010000
00100000
00001000
00010000
,
00001000
00010000
00001000
00010000
,
00001000
00000000
00012000
00000000
,
00000000
00000000
00000000
00000000
,
00000000
00000000
00023000
00000000
,
00000000
00000000
00000000
00000000
,
00030000
00000000
00000110
00000000
,
00000210
00000000
00000000
00000000
,
00000000
00000000
00000320
00000000
,
00000000
00000000
00000000
00000130
,
00000000
00000000
00002002
00000000
,
00000000
00000000
00000000
00000000
,
00003003
00000000
00001001
00000000
,
00000001
00000000
00000000
00010000
,
00000000
00000000
00011000
00000000
,
00000000
00000000
01100000
00000000
,
00000000
00000000
20020000
00000000
,
00000000
00000000
00000000
00000000
,
30030000
00000000
00010000
01000000
,
00010000
01000000
00001000
00010000
,
00001000
00010000
00000001
00000010
,
00000001
00000010
00000001
00000000
;

//---------------dance-double - ----------------
#NOTES:
     dance-double:
     :
     Hard:
     16:
     0.842,0.902,0.524,0.291,0.058:
00000000
10010000
00000000
00000000
10010000
00000000
00000000
00000000
,
00000000
00000000
11000000
00000000
,
00000000
10000000
00100000
01000000
00001000
00000000
00000000
00000000
,
01001000
00000000
00022000
00000000
,
00000000
00000000
00033000
00000000
00010000
00000010
00010000
00000010
,
00010000
00000010
00010000
00000000
00000100
00000010
00000100
00000010
,
00000100
00000010
00000001
00000000
00010000
00000001
00010000
00000001
,
00010000
00000001
00010000
00000000
00010001
00000000
00000000
00010100
,
00000000
00000000
00001000
00100000
00001000
00100000
00001000
00100000
,
00001000
00100000
01000000
00000000
10000000
01000000
10000000
01000000
,
10000000
01000000
00100000
00000000
01100000
00000000
01000000
00001000
,
00010000
00000000
00001000
00010000
00000020
00000000
00000000
00000000
,
00000200
00000000
00000330
00000000
00000001
00001000
00000001
00001000
,
00000001
00001000
00000100
00001000
00000100
00001000
00000100
00010000
,
00001000
00000000
00000000
00010000
00000000
00000000
00001000
00000000
00000000
00010000
00000000
00000000
00001000
00000000
00000000
00000000
01000000
00000000
00000000
00000000
00100000
00000000
00000000
00000000
,
10000000
00000000
00100000
00000000
01000000
00000000
00001000
00000000
00001000
00000000
00001000
00000000
,
00010000
00000000
00000000
00010000
00000000
00000000
00010000
00000000
00000001
00000000
00000010
00000000
00000001
00000000
00000010
00000000
,
00000001
00001000
00000001
00001000
00000001
00010000
00000010
00010000
,
00000010
00001000
00010000
00001000
00010000
00000000
00011000
00000000
,
00001000
10000000
00100000
10000000
00001000
00100000
01000000
10000000
,
00002000
00000000
00000000
00000000
00013000
00000010
00000100
00000010
,
00000100
00000010
00010000
00000000
00001000
00010000
00000010
00000100
,
00000020
00000000
00000000
00000000
00001030
00000100
00001000
00000001
,
00000010
00000100
00001000
00000000
00000010
00000100
00000010
00010000
,
00002000
00000000
00000000
00000000
01003000
00100000
01000000
00100000
,
10000000
01000000
10000000
01000000
10000000
01000000
10000000
00000000
00100000
00000000
01000000
00000000
,
00020000
00000000
00000000
00000000
10030000
00100000
01000000
00001000
,
00010000
00000100
00000010
00000000
00000110
00000000
00000100
00000000
,
00000100
00000000
00000000
00000000
00001001
00000000
00000000
00001000
,
00000000
00000001
00000010
00000100
,
00010000
00000000
00000100
00000000
00010000
00000000
00000000
00010000
,
00000000
00001000
01000000
00100000
,
10010000
00000000
10000000
00000000
10010000
00000000
00000000
00010000
,
00000000
00010000
01000000
00001000
,
00010000
00000000
00000010
00000000
00000100
00000000
00000000
00000100
,
00000000
00000000
00000110
00000000
00000000
00001001
00000000
00000000
,
00001001
00000000
00010010
00000000
,
00010010
00000000
00010010
00022000
,
00000000
00033000
01100000
00000000
,
01100000
00000000
00000000
01100000
00000000
22000000
00000000
00000000
,
00000000
33000000
00110000
00000000
,
00110000
00000000
00110000
00202000
,
00000000
00303000
00011000
00000000
,
00011000
00000000
00020020
00000000
,
00000000
00000000
00030030
00000000
00000110
00000000
00000100
00000001
,
00000000
00000001
00010000
00000100
00010000
00000000
00010100
00000000
,
00010000
00000000
01001000
00000000
01000000
00000000
00010000
10000000
,
00000000
10000000
00010000
01000000
00010000
10000000
01000000
00100000
,
00010000
01000000
00100000
00000000
10000000
00000000
10000000
00100000
,
00000000
00100000
10000000
01000000
00100000
00000000
00101000
00000000
,
00100000
00000000
00101000
00000000
00001000
00000000
00001000
00010000
,
00000000
00010000
00000010
00000100
00000001
00001000
00000100
00001000
,
00000001
00000000
00000000
00000000
00001001
00000000
00001000
00000100
,
00000000
00000100
00010000
00001000
00100000
01000000
00100000
01000000
,
10000000
00000000
10010000
00000000
10010000
00000000
00010000
00100000
,
00000000
00100000
00001000
00010000
00000010
00000100
00000010
00000100
,
00000001
00000010
00000100
00000000
00010100
00000000
00010000
00001000
,
00000000
00001000
10000000
01000000
00010000
01000000
10000000
00100000
,
01000000
00100000
10000000
00000000
00010000
10000000
00000000
01000000
,
00000000
00100000
00000000
00001000
00010000
00001000
00010000
00000000
,
00000100
00010000
00000100
00000000
00001000
00000010
00000100
00000010
,
00001000
00000001
00000010
00001000
00000010
00000000
00000001
00001000
,
00000010
00001000
00000001
00000000
00000010
00000100
00010000
00001000
,
00100000
01000000
10000000
00100000
00010000
00100000
10000000
01000000
,
00100000
00001000
00010000
00000000
00000100
00001000
00000001
00001000
,
00000100
00010000
00001000
00100000
10000000
00100000
00001000
00010000
,
00000100
00000010
00000001
00000000
00001000
00000100
00000010
00000100
,
00001000
00000000
00000010
00000000
00000100
00000000
00000001
00000000
00010000
00000000
00000000
00010000
00000000
00000000
00010000
00000000
,
00000000
00001000
00001000
00000000
10000000
01000000
00010000
01000000
,
10000000
00010000
00100000
00001000
00020000
00000000
00001000
00000000
,
00001000
00000000
00031000
00000000
00010000
00000100
00000001
00000100
,
00010000
00000010
00000100
00000010
00010000
00000000
00011000
00000000
,
01001000
00000000
01100000
00000000
10000000
00100000
00010000
00100000
,
10000000
01000000
00100000
00001000
00020000
00000000
00001000
00000000
,
00001000
00000000
00031000
00000000
00010000
00000010
00000001
00000010
,
00010000
00000100
00000010
00000100
00010000
00000000
00011000
00000000
,
01001000
01100000
20020000
00000000
,
00000000
00000000
30030000
00000000
10000000
00100000
00010000
00100000
,
10000000
01000000
00100000
00001000
00022000
00000000
00000000
00000000
,
00000000
00000000
00033000
00000000
00001000
00000100
00000001
00000100
,
00001000
00000001
00000100
00010010
00002000
00000000
00000000
00000000
,
01003000
00100000
01000000
00000000
20010000
00000000
00000000
00000000
,
30100000
01000000
00100000
00000000
01100000
00000000
01000000
10000000
,
00100000
01000000
00010000
00100000
00002000
00000000
00000000
00000000
,
00000000
00003000
00010000
00000100
,
00010000
00000100
00001000
00000001
,
00001000
00000001
00000010
00000100
,
00010000
00001000
01000000
00100000
,
10000000
00010000
10000000
01000000
,
10000000
01000000
10000000
00010000
,
10000000
00010000
01000000
00100000
,
10000000
00001000
01000000
00001000
,
00010000
00000000
00000100
00000010
,
00000100
00000010
00000001
00000100
,
00000001
00000100
00000001
00000010
,
00000100
00010000
00001000
01000000
,
00100000
10000000
01000000
10000000
,
01000000
10000000
00001000
01000000
,
00001000
01000000
00100000
10000000
,
00100000
01000000
00002000
00000000
,
00000000
00003000
00010000
00010000
,
00000010
00000010
00000100
00000100
,
00000001
00000000
00000001
00000000
00001000
00000001
00001000
00000000
,
00000100
00000010
00000002
00000000
,
00000000
00000003
00000010
00000010
,
00000100
00000100
00010000
00010000
,
00001000
01000000
01001000
00000000
,
01100000
00000000
10010000
00000000
,
11000000
00000000
10000000
10000000
,
01000000
01000000
00100000
00100000
,
00010000
00010000
10000000
00001000
,
00010000
00001000
00010000
00001000
00020000
00000000
00000000
00000000
,
00000000
00000000
00000000
00000000
00031000
00000000
00010000
00000100
,
00010000
00000000
00000100
00000000
00000010
00000001
00000010
00000000
,
00000001
00000000
00001000
00000000
00000010
00010000
00000010
00010000
,
00000010
00000000
00010000
00000000
00001000
01000000
00001000
01000000
,
00001000
00000000
10002000
00000000
,
00000000
20003000
00000000
00000000
,
31000000
00000000
00200000
00000000
,
00000000
00320000
00000000
00000000
,
00030000
00000000
00100000
00001000
,
00021000
00000000
00000000
00000000
,
00030010
00000000
00000100
00000001
,
00000000
00001000
00000000
00001001
,
00000000
00000000
00000120
00000000
,
00000000
00002030
00000000
00000000
,
00003001
00000000
00001001
00000000
,
00010100
00000000
00000000
00010000
,
00001000
00010000
00011000
00000000
,
00000000
00000000
01100000
00000000
,
00000000
00000000
00000000
00000000
10000000
01000000
10000000
01000000
,
10000000
00000000
00000000
00000000
00100000
01000000
00100000
01000000
,
00100000
00000000
00000000
00000000
10000000
00010000
10000000
00010000
,
10000000
00010000
10000000
00000000
00001000
01000000
00001000
01000000
,
00001000
01000000
00001000
00000000
00010000
00000010
00010000
00000010
,
00010000
00000010
00010000
00000010
00010000
00000000
00000000
00000000
;

//---------------dance-double - ----------------
#NOTES:
     dance-double:
     :
     Challenge:
     18:
     1.000,1.000,0.624,0.225,0.524:
00000000
10010000
00000000
00000000
01010000
00000000
00010000
00000000
,
00010000
00010000
10010000
10000000
,
10000000
00000000
01000000
10000000
01000000
00000000
00100000
00000000
00001000
00000000
00000000
00000000
00001000
00000000
00000000
00000000
,
00011000
00010000
00020020
00000000
,
00000000
00000000
00030030
00000000
00001000
00000001
00001000
00000010
,
00001000
00000000
00000010
00000000
00000100
00000000
00000001
00000100
00000001
00000000
00000010
00000000
00000100
00000000
00010000
00000010
,
00010000
00000000
00001000
00000000
01000000
00100000
01000000
00000000
00010000
00000000
10000000
00000000
00010000
00000000
10000000
00000000
,
01000000
00100000
01000000
00100000
00002000
00010000
00000000
00023000
,
00000010
00000000
00030010
00000100
00000010
00000100
00000001
00000010
,
00000001
00000000
00000010
00000000
00000100
00000000
00010000
00000010
00010000
00000000
00000010
00000000
00010000
00000000
00001000
00010000
,
00001000
00000000
00100000
00000000
01000000
00100000
01000000
00000000
01100000
00000000
00000000
00000000
10000000
00000000
00100000
00000000
,
10100000
00000000
00000000
00000000
01000000
00000000
00100000
00000000
01100000
00000000
00000000
00000000
00001000
00010000
00001000
00010000
,
00002000
00000000
00000000
00000000
00013000
00000001
00000100
00000001
,
00001000
00000000
00000100
00000000
00000001
00000000
00000100
00001000
00000001
00000000
00010000
00000000
00000100
00000000
00010000
00000000
,
00000010
00000000
00000000
00000000
00000000
00000000
00000001
00000000
00000000
00000000
00000000
00000000
00000010
00000000
00000000
00000000
00000000
00000000
00010000
00000000
00000000
00001000
00000000
00000000
00010000
00000000
00000000
00000000
00000000
00000000
00000000
00000000
00011000
00000000
00000000
00000000
00000000
00000000
00000000
00000000
00011000
00000000
00000000
00000000
00000000
00000000
00000000
00000000
,
01001000
00000000
01001000
00000000
10010000
00000000
11000000
00000000
01100000
00000000
00101000
00000000
,
00011000
00000000
00000000
00010001
00000000
00000000
00000001
00000000
00000001
00000000
00000100
00000000
00000001
00001000
00000001
00000000
,
00000010
00000000
00000100
00000000
00000010
00000000
00000100
00010000
00000100
00000000
00010000
00000000
00001000
00000000
01000000
00000000
,
00100000
01000000
00100000
00000000
10000000
00000000
00010000
10000000
00010000
00000000
00000000
00000000
10010000
00000000
00000000
00000000
,
10000000
00000000
01000000
00000000
00100000
00000000
00001000
00010000
00001000
00010000
00000100
00010000
00000100
00010000
00000100
00000000
,
00020000
00000000
00000000
00000000
00030001
00000100
00000010
00000100
,
00000001
00000000
00001000
00000000
00000100
00000000
00010000
00001000
00010000
00000000
00001000
00000000
01000000
00000000
00100000
00000000
,
02000000
00000000
03100000
00000000
10000000
01000000
00100000
01000000
,
10000000
00000000
00010000
00000000
00100000
00000000
00001000
00010000
00001000
00000000
00010000
00000000
00000010
00000000
00000100
00000000
,
00000020
00000000
00000130
00000000
00000001
00000010
00000100
00001000
,
00000010
00010000
00001000
00010000
00001000
00100000
01000000
00000000
01100000
00000000
10010000
00000000
,
20010000
00000000
00000000
00000000
30010000
00000000
00000000
00000000
10000000
00100000
10000000
00100000
10000000
00000000
01000000
00000000
,
00100000
00001000
00100000
00001000
00100000
00000000
00001000
00010000
00002000
00000000
00000000
00000000
00010000
00000000
00000000
00000000
,
00013000
00000000
00000000
00000000
00000010
00001000
00000010
00001000
00000010
00000000
00000000
00000000
00001000
00000000
00000001
00000000
,
00000000
00000100
00000001
00000000
00001000
00000100
00000001
00000100
,
00000001
00000100
00001000
00000000
00000100
00000000
00010000
00001000
,
00000000
00100000
01000000
00000000
00010000
01000000
10000000
01000000
,
00010000
00000000
00100000
00000000
00101000
00000000
00001000
00010000
,
00000000
00000010
00000100
00000000
00000001
00000010
00001000
00000010
,
00001000
00000010
00000001
00010000
00010100
00000000
00000000
00011000
,
00000000
00000000
10001000
00000000
00000000
10100000
00000000
00000000
,
01100000
00000000
10010000
10000000
,
11000000
10000000
10010000
02020000
,
00000000
03030000
00011000
00001000
,
01001000
00000000
00001000
00011000
00000000
00020020
00000000
00000000
,
00000000
00030030
00000110
00000100
,
00000101
00000100
00000110
00002002
,
00000000
00003003
00010100
00010000
,
00011000
00010000
00020200
00000000
,
00000000
00000000
00000000
00000000
00030300
00000000
00000000
00000000
00010000
00000000
00001000
00010000
00000100
00000000
00001000
00000000
,
00000000
00000000
00000001
00000100
00000001
00000000
00000010
00000000
00000100
00000000
00000000
00000100
00010000
00000000
00000000
00010000
,
00001000
00000000
00000000
00001000
01000000
00000000
00000000
00000000
00100000
00000000
10000000
00010000
10000000
00000000
00100000
00000000
,
01000000
00000000
00001000
01000000
00001000
00000000
00010000
00000000
00000100
00000000
00000000
00000100
00001000
00000000
00000000
00001000
,
00000010
00000000
00000000
00000010
00000100
00000000
00000000
00000000
00000010
00000000
00000100
00000001
00000100
00000000
00000010
00000000
,
00000100
00000000
00010000
00000100
00010000
00000000
00001000
00000000
00100000
00000000
00000000
00100000
01000000
00000000
00000000
01000000
,
10000000
00000000
00000000
10000000
00010000
00000000
00000000
00000000
10000000
00010000
01000000
00010000
10000000
00000000
01000000
00000000
,
00100000
00000000
00001000
00100000
00001000
00000000
00010000
00000000
00000100
00001000
00000100
00001000
00000001
00000010
00000001
00000010
,
00000002
00000000
00000000
00000000
00000000
00000000
00000000
00000000
00001003
00000000
00000001
00000010
00000100
00000000
00000010
00000000
,
00000001
00000000
00010000
00000010
00010000
00000000
00001000
00000000
01000000
00010000
01000000
00000000
00010000
10000000
00010000
00000000
,
10000000
01000000
10000000
00000000
10010000
00000000
00000000
00000000
00010000
00000000
10000000
00100000
01000000
00000000
00100000
00000000
,
10000000
00000000
00001000
00100000
00001000
00000000
00010000
00000000
00000010
00000100
00000010
00000000
00001000
00000100
00001000
00000000
,
00000001
00000010
00000001
00000000
00000100
00000000
00000010
00000000
00010000
00000000
00001000
00010000
00001000
00000000
00100000
00000000
,
01000000
00000000
10000000
00010000
10000000
00000000
00010000
00000000
00100000
00001000
00100000
00000000
00001000
00010000
00001000
00000000
,
00010000
00000100
00010000
00000100
00001000
00000000
00000001
00000000
00000100
00000000
00000101
00000000
00000000
00000000
00000110
00000000
,
00000000
00000000
00010010
00000000
00000000
00000000
00010000
00000000
00001000
00010000
00001000
00010000
00001000
00000000
00000000
00000000
,
01000000
00010000
01000000
00010000
01000000
00000000
00000000
00000000
00010000
00000000
10000000
01000000
00100000
00000000
01000000
00000000
,
10000000
00000000
00010000
00000000
01000000
00100000
10000000
00000000
00100000
00000000
01000000
00000000
00010000
00000000
00100000
00000000
,
00001000
00000000
00010000
00000000
00000010
00000000
00000100
00000000
00000001
00000000
00001000
00000100
00000010
00000000
00000100
00000000
,
00001000
00000000
00000001
00000000
00000100
00000001
00000010
00000000
00000001
00000000
00000010
00000000
00000100
00000000
00001000
00000000
,
00010000
00000000
00100000
00000000
01000000
00000000
10000000
00000000
00010000
00000000
00100000
01000000
10000000
00000000
01000000
00000000
,
00100000
00000000
00001000
00000000
01000000
00001000
00010000
00000000
00001000
00000000
10000000
00000000
01000000
00000000
00100000
00000000
,
00001000
00000000
00010000
00000000
00000010
00000000
00000100
00000000
00000001
00000000
00001000
00000010
00000100
00000000
00000010
00000000
,
00001000
00000001
00000010
00000000
00000100
00010000
00001000
00010000
00001000
00000000
00000000
00011000
00000000
00000000
01001000
00000000
,
00000000
00000000
01010000
00000000
10010000
00000000
00000000
00000000
10000000
01000000
10000000
01000000
00100000
00000000
00010000
00000000
,
01000000
00000000
00001000
00010000
00001000
00010000
00000010
00000000
00000100
00000000
00000010
00000000
00001000
00000000
00000100
00000000
,
00001000
00000000
00000001
00000000
00000100
00000000
00000000
00000000
00000001
00000100
00000001
00000100
00000010
00000000
00010000
00000000
,
00001000
00000000
00100000
00010000
00100000
00010000
10000000
00000000
01000000
00000000
10000000
00010000
10000000
00000000
00001000
00100000
,
00001000
00000000
00010000
00001000
00010000
00000000
00000000
00000000
00000001
00000000
00000010
00000100
00001000
00000100
00000010
00000000
,
00010000
00000000
00001000
01000000
00100000
01000000
00001000
00000000
01000000
00000000
00100000
00000000
10000000
00000000
01000000
00000000
,
00010000
00000000
01000000
00000000
10000000
00000000
00000000
00000000
01000000
10000000
01000000
10000000
00100000
01000000
00100000
01000000
,
00001000
01000000
00001000
01000000
00001000
00010000
00001000
00010000
00000010
00000100
00000010
00000100
00000010
00000000
00000000
00000000
,
00001000
00000001
00001000
00000001
00001000
00000000
00000000
00000000
00002002
00000000
00000000
00000000
00000000
00000000
00000000
00000000
,
00000000
00000000
00003003
00000000
00000001
00000100
00001000
00000001
,
00000010
00001000
00000001
00010000
00022000
00000000
00000000
00000000
,
00000000
00000000
00033000
00000000
00010000
01000000
10000000
00010000
,
00100000
00000000
10000000
00000000
00010000
00000000
01000000
00000000
00001000
00010000
00001000
00010000
00001000
00000000
00000000
00000000
,
00010000
00000000
00000100
00000000
00000010
00000000
00000100
00000000
00010000
00001000
00010000
00001000
00010000
00000000
00000000
00000000
,
00000100
00001000
00000010
00000100
00000001
00000000
00000100
00000100
,
00000010
00000000
00000010
00000000
00010000
00000000
00001000
00010000
00002000
00000000
00000000
00000000
00000000
00000000
00000000
00000000
,
00000000
00003000
00011000
00001000
,
00100000
01000000
00001000
01000000
,
10000000
00000000
00010000
01000000
00100000
00000000
10000000
00010000
,
00100000
00000000
00001000
00010000
00001000
00000000
00010000
00000100
,
00000010
00000001
00010000
00000000
00000001
00000000
00000100
00000010
,
00000100
00000000
00000001
00000000
00000100
00000010
00000100
00000000
,
00000001
00000000
00000010
00000100
00010000
00000000
00001000
00100000
,
01000000
00000000
10000000
00010000
10000000
00000000
00010000
00100000
,
00010000
00000000
10000000
00100000
,
01000000
10000000
01000000
00010000
,
10000000
01000000
00100000
00000000
00001000
00010000
00000100
00000000
,
00001000
00000001
00001000
00000000
00000001
00000100
00000001
00000000
,
00001000
00000000
00000010
00000000
00010000
00000000
00001000
01000000
,
00001000
00000000
10000000
00000000
01000000
10000000
01000000
00000000
,
10000000
00000000
00100000
01000000
00001000
00000000
00010000
00000000
,
00000100
00010000
00000010
00000100
00000002
00000000
00000000
00000000
,
00001003
00000000
00000110
00000100
,
00000101
00000001
00010001
00010000
,
00010100
00000000
00010000
00001000
01000000
00000000
00010000
00100000
,
01000000
00000000
10000000
00010000
02000000
00000000
00000000
00000000
,
00000000
03000000
10010000
00010000
,
00110000
00100000
00101000
00001000
,
00010000
00000010
00000100
00000000
00000001
00000010
00000100
00001000
,
00000100
00001000
00000001
00000100
00000010
00010000
00001000
01000000
,
00100000
10000000
01000000
00000000
10010000
00000000
10000000
00000000
,
10100000
00000000
00100000
00000000
01100000
00000000
01000000
10000000
,
01000000
10000000
00001000
01000000
00001000
00010000
00000010
00000100
,
00000001
00000010
00000100
00010000
00002000
00000000
00000000
00000000
,
00000000
00000000
00003000
00000000
00011000
00000000
00010000
00000010
,
00000100
00000000
00000010
00000100
00000001
00000000
00001000
00000001
,
00000010
00000100
00000010
00000001
00010000
00000100
00010000
00001000
,
01000000
00100000
01000000
00100000
10000000
01000000
00100000
00010000
,
01000000
00000000
01100000
00000000
,
00100000
10000000
01000000
10000000
,
00010000
00000000
01000000
00001000
,
00000000
00010000
00001000
00000000
,
00010000
00000001
00000101
00000100
,
00000110
00000010
00000000
00010000
,
00001000
00000000
00100000
01000000
,
10000000
00010000
00100000
00101000
,
00000000
00000000
00011000
00000000
,
00001000
00010000
00000000
00000100
,
00000010
00000000
00000011
00000000
,
00001001
00000000
00000000
00000110
,
00000010
00010000
00011000
00000000
,
00100000
00000000
01100000
00000000
,
10000000
00000000
00000000
00000000
00100000
01000000
00010000
00100000
,
00001000
00000000
00010000
00000000
00000001
00000010
00000100
00001000
,
00000010
00000000
00000100
00000000
00000001
00000100
00000001
00001000
,
00000001
00000100
00001000
00000100
00000001
00010000
00000100
00010000
,
00001000
00100000
10000000
00100000
00001000
00010000
00001000
10000000
,
00100000
01000000
00001000
00010000
00000100
00000000
00000000
00000000
;

//---------------dance-single - ----------------
#NOTES:
     dance-single:
     :
     Beginner:
     5:
     0.214,0.282,0.150,0.000,0.000:
0000
0000
1001
0000
,
0000
0000
0001
0000
,
0000
0000
1001
0000
,
1000
0000
1000
0000
,
0000
0000
0001
0000
,
1000
0000
0001
0000
,
1000
0000
0001
0000
,
1000
0000
0100
0000
,
0000
0000
1000
0000
,
0001
0000
1000
0000
,
0001
0000
0010
0000
,
0010
0000
0010
0000
,
0000
0000
0001
0000
,
1000
0000
0001
0000
,
1000
0000
0100
0000
,
0000
0000
0100
0000
,
0000
0000
1000
0000
,
0010
0000
0100
0000
,
0010
0000
0100
0000
,
0100
0000
0100
0000
,
0000
0000
0001
0000
,
0010
0000
0001
0000
,
0010
0000
0001
0000
,
1000
0000
0001
0000
,
1000
0000
0100
0000
,
0100
0000
1000
0000
,
1000
0000
0010
0000
,
0100
0000
0010
0000
,
0000
0000
0110
0000
,
0000
0000
0000
0000
,
0000
0000
0100
0000
,
0000
0000
0000
0000
,
0000
0000
1001
0000
,
0000
0000
0000
0000
,
0000
0000
0001
0000
,
0000
0000
0000
0000
,
0000
0000
1001
0000
,
0000
0000
1000
0000
,
0000
0000
1001
0000
,
0000
0000
0001
0000
,
0000
0000
0110
0000
,
0000
0000
0100
0000
,
0000
0000
0110
0000
,
0000
0000
0010
0000
,
0000
0000
1000
0000
,
0100
0000
1000
0000
,
0000
0000
0010
0000
,
0100
0000
0010
0000
,
0100
0000
0001
0000
,
1000
0000
0001
0000
,
0000
0000
0010
0000
,
0001
0000
0010
0000
,
0001
0000
0100
0000
,
0100
0000
0100
0000
,
0100
0000
0010
0000
,
0010
0000
0010
0000
,
0010
0000
1000
0000
,
1000
0000
1000
0000
,
1000
0000
0001
0000
,
0001
0000
0001
0000
,
0000
0000
1001
0000
,
0000
0000
1000
0000
,
0001
0000
0010
0000
,
0000
0000
0001
0000
,
0001
0000
0010
0000
,
0000
0000
0100
0000
,
1000
0000
0010
0000
,
0000
0000
0100
0000
,
0100
0000
0010
0000
,
0100
0000
0010
0000
,
0000
0000
1000
0000
,
0001
0000
1000
0000
,
0000
0000
0100
0000
,
1000
0000
0001
0000
,
0000
0000
0010
0000
,
0001
0000
1000
0000
,
0000
0000
1001
0000
,
0000
0000
0001
0000
,
0000
0000
1001
0000
,
0000
0000
0100
0000
,
0000
0000
0110
0000
,
0000
0000
0010
0000
,
0000
0000
0110
0000
,
0000
0000
1001
0000
,
0000
0000
1000
0000
,
0000
0000
0001
0000
,
0000
0000
1000
0000
,
0000
0000
0001
0000
,
0000
0000
1000
0000
,
0000
0000
0100
0000
,
0000
0000
1000
0000
,
0000
0000
0100
0000
,
0000
0000
0010
0000
,
0000
0000
0001
0000
,
0000
0000
0010
0000
,
0000
0000
0001
0000
,
0000
0000
0100
0000
,
0000
0000
0010
0000
,
0000
0000
0100
0000
,
0000
0000
0000
0000
,
0000
0000
0010
0000
,
0000
0000
0010
0000
,
0000
0000
0010
0000
,
0000
0000
0100
0000
,
0000
0000
0010
0000
,
0000
0000
0000
0010
,
0000
0000
0010
0000
,
0000
0000
0100
0000
,
0000
0000
0001
0000
,
0000
0000
0001
0000
,
0000
0000
0001
0000
,
0000
0000
1000
0000
,
0000
0000
0100
0000
,
0000
0000
0100
0000
,
0000
0000
1000
0000
,
0000
0000
0100
0000
,
0000
0000
1001
0000
,
0000
0000
0000
0000
,
0000
0000
0000
0000
,
0000
0000
0000
0000
,
0000
0000
0001
0000
,
0000
0000
0000
0000
,
0000
0000
0000
0000
,
0000
0000
0000
0000
,
0000
0000
1001
0000
,
0000
0000
0000
0000
,
0000
0000
1000
0000
,
0000
0000
0000
0000
,
0000
0000
1001
0000
,
0000
0000
0001
0000
,
0000
0000
0001
0000
,
0000
0000
0000
0000
,
0000
0000
0100
0000
,
0000
0000
0100
0000
,
0000
0000
0100
0000
,
0000
0000
0110
0000
;
