#TITLE:Badboy flygirl;
#SUBTITLE:;
#ARTIST:U.M.E.D.Y;
#TITLETRANSLIT:;
#SUBTITLETRANSLIT:;
#ARTISTTRANSLIT:;
#CREDIT:DigiMindAxel;
#BANNER:Badboy flygirl.png;
#BACKGROUND:Badboy flygirl-bg.png;
#LYRICSPATH:Badboy flygirl.lrc;
#CDTITLE:beatmania III.png;
#MUSIC:Badboy flygirl.ogg;
#METERTYPE:DDR X;
#OFFSET:-14.112;
#SAMPLESTART:59.803;
#SAMPLELENGTH:12.000;
#SELECTABLE:YES;
#BPMS:0.000=105.000;
#STOPS:;
#BGCHANGES:;

//---------------dance-single - ----------------
#NOTES:
     dance-single:
     :
     Easy:
     3:
     0.105,0.171,0.112,0.017,0.000:
0010
0000
0000
0000
,
0010
0000
0000
0000
,
1000
0000
0000
0000
,
1000
0000
0000
0000
,
1001
0000
1000
0000
,
0010
0000
1000
0000
,
0001
0000
0100
0000
,
0001
0000
1000
0000
,
0100
0000
1000
0000
,
0001
0000
0010
0000
,
0001
0000
1000
0000
,
0001
0000
0000
0000
,
1001
0001
0001
0000
,
1000
1000
1000
0000
,
0001
0001
0001
0000
,
0100
0100
0100
0100
,
0110
0010
0010
0000
,
0100
0100
0100
0000
,
0010
0010
0010
0000
,
1000
0001
1000
0000
,
1001
0000
0000
0000
,
0110
0000
0000
0000
,
1001
0000
0000
0000
,
0110
0000
0000
0000
,
1001
0000
0000
0000
,
0110
0000
0000
0000
,
1001
0000
0000
0000
,
1000
0000
0000
0000
,
0010
0000
0000
0000
,
0100
0000
0000
0000
,
0001
0000
0000
0000
,
0010
0000
0000
0000
,
0100
0000
0000
0000
,
1000
0000
0000
0000
,
0001
0000
0001
0000
,
0001
0000
0000
0000
,
1001
0000
0000
0000
,
1000
0000
0000
0000
,
0100
0000
0000
0000
,
0010
0000
0000
0000
,
0001
0000
0000
0000
,
1000
0000
0000
0000
,
0001
0000
0000
0000
,
1001
0000
0220
0000
,
0330
0000
0000
0000
;

//---------------dance-single - ----------------
#NOTES:
     dance-single:
     :
     Beginner:
     1:
     0.054,0.111,0.078,0.000,0.000:
0001
0000
0000
0000
,
0001
0000
0000
0000
,
0001
0000
0000
0000
,
0100
0000
0000
0000
,
0110
0000
0000
0000
,
0001
0000
0000
0000
,
1000
0000
0000
0000
,
0001
0000
0000
0000
,
1000
0000
0000
0000
,
0001
0000
0000
0000
,
1000
0000
0000
0000
,
0010
0000
0000
0000
,
0110
0000
0000
0000
,
0000
0000
0000
0000
,
0001
0000
0000
0000
,
0000
0000
0000
0000
,
1000
0000
0000
0000
,
0001
0000
0000
0000
,
1000
0000
0000
0000
,
1001
0000
0000
0000
,
0010
0000
0000
0000
,
0000
0000
0000
0000
,
0010
0000
0000
0000
,
0000
0000
0000
0000
,
0100
0000
0000
0000
,
0000
0000
0000
0000
,
0100
0000
0000
0000
,
0000
0000
0000
0000
,
1001
0000
0000
0000
,
0000
0000
0000
0000
,
1000
0000
0000
0000
,
0000
0000
0000
0000
,
0001
0000
0000
0000
,
0000
0000
0000
0000
,
1000
0000
0000
0000
,
0010
0000
0000
0000
,
0110
0000
0000
0000
,
0110
0000
0000
0000
,
1001
0000
0000
0000
,
1001
0000
0000
0000
,
1000
0000
0000
0000
,
0010
0000
0000
0000
,
0100
0000
0000
0000
,
0110
0000
0000
0000
;

//---------------dance-single - ----------------
#NOTES:
     dance-single:
     :
     Medium:
     6:
     0.236,0.265,0.267,0.017,0.000:
0100
0010
0100
0000
,
0001
1000
0001
0000
,
1000
0010
0010
0000
,
0220
0000
0000
0330
,
0010
0010
0100
0110
,
0001
0001
1000
1001
,
1000
1000
0010
0110
,
0001
1000
0001
0010
,
0100
0000
0100
0000
1000
0000
1000
0001
,
1000
0010
0100
0001
,
0001
0010
0100
1000
,
0001
1000
0001
1000
,
1001
1001
0010
0100
,
0110
0110
1000
0001
,
1001
1001
0100
0010
,
0110
0110
0001
1000
,
1001
1001
0010
0100
,
1000
1001
0010
0100
,
0001
0001
0010
1001
,
0110
0110
0110
0000
,
0001
1000
0000
0000
0000
0000
0000
0000
,
1000
0001
0000
0000
0000
0000
0000
0000
,
0010
0100
0000
0000
0000
0000
0000
0000
,
0100
0010
0000
0000
0000
0000
0000
0000
,
1000
0001
0000
0000
0000
0000
0000
0000
,
0001
1000
0000
0000
0000
0000
0000
0000
,
0100
0010
0000
0000
0000
0000
0000
0000
,
0010
0000
0000
0000
,
0110
1000
0100
0010
,
0001
1000
0001
0010
,
1001
0010
0100
1000
,
0001
1000
0010
0100
,
1001
0010
0100
1000
,
0010
0000
0100
0000
0010
0000
1000
0001
,
1000
0001
0100
0010
,
0100
0010
0100
0000
0001
1000
0001
0000
,
1001
0010
0100
1000
,
0110
0001
1000
0010
,
1001
0100
1000
0010
,
1001
0100
0010
0001
,
0110
1000
0010
1000
,
0110
0110
0001
0100
,
0110
0110
1000
0001
,
0100
0010
0100
0010
0100
0000
0001
1000
;

//---------------dance-single - ----------------
#NOTES:
     dance-single:
     :
     Hard:
     9:
     0.427,0.359,0.181,0.138,0.254:
1001
0000
2000
0000
0000
0010
0000
3010
0000
0000
0000
0000
0010
0000
0000
0000
,
0210
0000
0000
0000
0000
0001
0000
0301
0000
0000
1000
0000
0000
0100
0000
0000
,
1001
0000
0002
0000
0000
0100
0000
0103
0000
0000
0000
0000
0010
0000
0000
0000
,
0110
0000
0000
0000
0000
0000
0000
0000
0000
0000
0000
0000
0010
0100
0010
0100
,
0010
0000
0100
0000
0001
0000
1000
0100
1000
0000
0001
0000
1000
0000
1000
0000
,
0001
0000
0010
0000
0001
0000
0100
0000
0010
0000
1000
0000
0100
0010
0100
0000
,
1000
0000
0001
0000
0010
0000
1000
0000
0010
0000
0001
0000
0100
0000
0010
0100
,
0010
0000
1000
0000
0010
0000
0001
0000
0010
0000
1000
0001
0000
1000
0001
0000
,
1000
0000
0100
0000
0001
0000
0100
0000
1000
0000
0010
0000
0100
0001
0100
0000
,
0001
0010
1000
0010
0001
1000
0100
0100
,
1000
0010
0100
0001
1000
0000
1001
0001
,
0001
0000
1000
0000
0100
0000
0010
0000
0001
0000
0100
0010
0100
0000
0100
0000
,
0002
0000
1000
0000
1000
1000
1003
0001
,
0020
0000
0100
0100
0100
0000
0130
0000
,
2000
0000
0001
0000
0001
0001
3001
0000
,
1000
0000
1000
0000
0100
0000
0100
0000
0010
0000
0010
0000
0001
1000
0001
1000
,
0001
0000
0100
0000
1000
0000
0100
0000
0001
0000
1000
0000
0010
0100
0010
0000
,
1000
0000
0010
0000
0001
0000
0010
0000
1000
0000
0100
0000
0010
0001
0010
0000
,
1000
0000
0001
0000
0010
0000
0100
1000
0000
0001
1000
0000
0001
0000
0000
0000
,
0010
0000
0010
0000
0100
0000
0100
0000
1001
0000
0000
0000
1000
0001
1000
0001
,
1000
0000
1100
0000
0000
0010
0000
0110
0000
0000
0001
0000
1000
0000
1000
0000
,
0001
0000
0011
0000
0000
0100
0000
0110
0000
0000
1000
0000
0001
0000
0001
0000
,
0100
0000
0110
0000
0000
1000
0000
1100
0000
0000
0010
0000
0001
0000
1000
0000
,
1000
0000
1100
0000
0000
0010
0000
0110
0000
0000
0001
0000
1000
0000
1000
0000
,
0001
0000
0101
0000
0000
0010
0000
0110
0000
0000
1000
0000
0001
0000
0001
0000
,
1000
0000
1010
0000
0000
0100
0000
0110
0000
0000
0001
0000
1000
0000
1000
0000
,
0100
0000
0110
0000
0000
0001
0000
0101
0000
0000
0010
0000
1000
0000
0100
0000
,
0010
0000
0001
0000
0001
0000
0000
0000
0001
0000
0000
0000
1000
0001
1000
0001
,
2000
0010
0000
0010
0000
3010
0100
0000
,
0002
1000
1000
1000
0000
0000
1003
0000
,
0200
1000
1000
1000
0000
0000
1300
0000
,
0020
0100
0000
0100
0000
0130
0001
0000
,
0020
0000
0001
0001
0001
0000
0130
0000
,
2000
0010
0010
3010
,
0200
0010
0000
0010
0010
0310
0000
0000
,
1000
0000
0100
0000
0001
0000
0000
0000
1000
0000
0010
0000
0001
1000
0001
1000
,
0001
0000
1000
0000
0001
0100
0000
0100
0000
0100
0001
0000
0010
0000
0100
0000
,
1000
0000
0001
0000
1000
0010
0000
0010
0000
0010
0100
0000
0001
0000
0010
0000
,
0100
0000
1000
0000
0001
0100
0000
0100
0000
0100
0001
0000
1000
0000
0100
0000
,
0010
0000
0001
0000
1000
0010
0000
0010
0000
0010
1000
0000
0001
0000
0010
0000
,
0200
0000
0000
0000
1000
0000
0000
1000
0000
0000
1000
0000
1300
0000
0000
0000
,
0020
0000
0000
0000
0001
0000
0000
0001
0000
0000
0001
0000
0031
0000
0000
0000
,
0200
0000
0000
0000
0010
0000
0000
0010
0000
0000
0010
0000
0310
0000
0000
0000
,
1000
0000
0010
0000
0001
0000
0100
0000
1100
0000
0000
0000
1000
0100
1000
0001
;

//---------------dance-single - ----------------
#NOTES:
     dance-single:
     :
     Challenge:
     13:
     0.592,0.549,0.465,0.060,0.766:
1001
0000
0001
0000
0000
0100
0000
0010
0000
0000
1000
0000
1000
0000
0000
0000
,
0110
0000
0000
0000
0000
1000
0000
0001
0000
0000
0001
0000
0000
0100
0000
0000
,
1001
0000
1000
0000
0000
0100
0000
0010
0000
0000
0100
0000
0100
0000
0000
0000
,
1001
0000
0001
0000
0001
0000
0000
0000
0001
0000
1000
0001
1000
0001
1000
0001
,
1000
0100
0010
0001
0000
0001
1000
0100
1000
0100
1000
0001
0000
0001
0100
0010
,
0100
0000
0001
1000
0100
0000
1000
0001
0000
0001
1000
0100
1000
0100
0010
0000
,
0001
0100
0001
0100
0010
1000
0010
1000
0001
0010
0100
1000
0001
0000
1000
0001
,
0000
0001
1000
0100
1000
0100
0010
0001
0100
0000
0001
0100
0000
0001
1000
0000
,
0001
1000
0001
1000
0100
0010
0100
1000
0001
0100
0000
0100
0001
0010
0100
1000
,
0000
1000
0001
0010
0000
0001
0010
0001
0010
0001
1000
0010
0100
0001
0100
0000
,
0010
1000
0010
0000
1000
0001
1000
0000
0001
0010
0001
0000
1000
0000
0110
0000
,
0110
0000
0001
0000
0010
0100
0010
0100
1000
0010
0100
0001
0100
0010
0100
0010
,
0100
0000
0000
0000
1001
0000
0000
1000
0000
1000
0000
1000
0001
0100
0010
1000
,
0100
0000
0010
0000
0001
0100
0001
1000
0000
1000
0001
0000
0010
0100
0010
0100
,
0010
0000
0001
1000
0000
0001
1000
0000
0000
0001
0010
0100
1000
0000
0000
0000
,
0001
0000
0001
0000
0010
0000
0010
0000
0100
0000
0100
0000
1000
0001
1000
0001
,
1000
0010
1000
0010
0100
0001
1000
0000
1000
0100
1000
0000
0001
1000
0001
1000
,
0100
0010
0100
0000
1000
0001
0000
0001
0000
0001
1000
0100
0010
0100
1000
0000
,
0001
0100
0001
0100
0010
0000
1000
0001
0000
0001
1000
0100
0010
0000
0000
0000
,
1100
0000
1010
0000
0101
0000
0011
0000
1001
0000
0000
0000
0010
0100
0010
0100
,
0010
0000
0110
0000
0000
1001
0000
0011
0000
0100
1000
0100
0010
0000
0010
0000
,
1001
0000
1001
0000
0000
1100
0000
0110
0000
0001
0010
0001
1000
0000
1000
0000
,
0110
0000
0110
0000
0000
0101
0000
1001
0000
0100
1000
0010
0100
0000
0100
0000
,
1001
0000
1001
0000
0000
0011
0000
0110
0000
1000
0100
1000
0100
0010
0001
0010
,
0100
0000
0110
0000
0000
1010
0000
1001
0000
0100
0010
0001
0100
0000
0100
0000
,
1001
0000
1001
0000
0000
1010
0000
1001
0000
0010
0100
1000
0001
0000
0001
0000
,
0110
0000
0110
0000
0000
1100
0000
1001
0000
0100
1000
0100
0010
0000
0010
0000
,
1001
0000
0001
0000
0001
0000
0000
0000
0001
0000
1000
0001
1000
0001
1000
0100
,
0020
0000
0000
0000
0000
0001
0000
0031
0000
0000
0100
0000
0110
0000
0000
0000
,
2000
0000
0000
0000
0000
0001
0000
3001
0000
0000
0100
0000
0110
0000
0000
0000
,
0020
0000
0000
0000
0000
0001
0000
0031
0000
0000
0100
0000
0110
0000
0000
0000
,
0200
0000
0000
0000
0000
1000
0000
1300
0000
0000
0010
0000
0110
0000
0000
0000
,
0002
0000
0000
0000
0000
0100
0000
0103
0000
0000
0001
0000
1001
0000
0000
0000
,
0200
0000
0000
0000
0000
0001
0000
0301
0000
0000
1000
0000
1001
0000
0000
0000
,
0200
0000
0000
0000
0000
0010
0000
0310
0000
0000
1000
0000
1100
0000
0000
1000
,
0001
1000
0001
1000
0001
0000
0000
0001
1000
0001
1000
0001
1000
0100
0010
0001
,
1000
0000
0001
0100
0010
0000
1010
0000
0000
0000
0001
0100
0010
0000
1010
0000
,
0000
0000
0001
0100
0010
0000
1010
0000
0000
0000
0100
0010
0100
0010
0100
0000
,
0000
1000
0100
0010
0001
1000
0001
0000
0000
1000
0100
0010
0001
1000
0001
0000
,
0000
1000
0100
0010
0001
1000
0001
0000
0100
0010
0100
0000
0001
1000
0001
1000
,
0001
0000
0000
0000
0100
0010
0000
0010
0000
0010
1000
0000
0001
0000
0010
0000
,
0100
0000
0000
0000
0010
0001
0000
0001
0000
0001
1000
0000
0100
0000
0010
0000
,
0100
0000
0000
0000
1000
0100
0000
0100
0000
0100
0010
0000
0001
0000
1000
0000
,
1100
0000
1010
0000
0101
0000
0011
0000
1001
0000
0000
0000
1000
0001
1000
0100
;

//---------------dance-double - ----------------
#NOTES:
     dance-double:
     :
     Easy:
     5:
     0.178,0.208,0.301,0.069,0.000:
10010000
00000000
10000000
00000000
,
01100000
00000000
00000000
00000000
,
10010000
00000000
00010000
00000000
,
01100000
00000000
00000000
00000000
,
00001000
00010000
00001000
00000000
,
00010000
00000100
00010000
00000000
,
00000100
00000010
00000100
00000000
,
00001000
00000001
00000010
00000100
,
00001000
00000010
00010000
00000000
,
00001000
00010000
00001000
00000000
,
00100000
01000000
10000000
01000000
,
00100000
00000000
00000000
00000000
,
00012000
00000000
00010000
00000000
,
00023000
00000000
00000010
00000000
,
00030020
00000000
00000100
00000000
,
00000130
00000010
00000100
00000010
,
00000210
00000000
00000010
00000000
,
00000302
00000000
00001000
00000000
,
00020003
00000000
00001000
00000000
,
00031000
01000000
00100000
10000000
,
01100000
00000000
00000000
00000000
,
10010000
00000000
00000000
00000000
,
01100000
00000000
00000000
00000000
,
00011000
00000000
00000000
00000000
,
00000110
00000000
00000000
00000000
,
00001001
00000000
00000000
00000000
,
00000110
00000000
00000000
00000000
,
00011000
00000000
00000000
00000000
,
01100000
01000000
01000000
00000000
,
10010000
00010000
00010000
00000000
,
00011000
00001000
00001000
00000000
,
00000110
00000100
00000100
00000000
,
00001001
00000001
00000001
00000000
,
00000110
00000100
00000100
00000000
,
00011000
00001000
00001000
00000000
,
01100000
01000000
01000000
01000000
,
01100000
00000000
01100000
00000000
,
10010000
00000000
10010000
00000000
,
00011000
00000000
00011000
00000000
,
00000110
00000000
00000110
00000000
,
00001001
00000000
00001001
00000000
,
00000110
00000010
00000010
00000000
,
00011000
00010000
00010000
00000000
,
00100000
01000000
20020000
00000000
,
30030000
00000000
00000000
00000000
;

//---------------dance-double - ----------------
#NOTES:
     dance-double:
     :
     Medium:
     6:
     0.289,0.283,0.336,0.060,0.000:
10010000
10000000
10000000
00000000
,
01100000
01000000
01000000
00000000
,
00011000
00010000
00010000
00000000
,
00000220
00000000
00000000
00000330
,
00001000
00000100
00001000
00000000
00000010
00000000
00000110
00000000
,
00000001
00000100
00000001
00000000
00010000
00000000
00001000
01000000
,
00001000
00100000
01000000
11000000
,
00100000
00010000
01000000
00000000
00100000
00000000
01100000
00000000
,
10010000
00000000
00010000
00000000
00100000
00000000
00010000
00100000
,
00001000
00000000
00010000
00000000
00000100
00000010
00000001
00000000
,
00000110
00000000
00010000
00000000
00011000
00000000
00001000
01000000
,
01000000
00000000
01100000
00000000
10000000
00010000
00010000
00000000
,
10010000
10010000
01000000
00001000
,
00011000
00011000
00010000
00000010
,
00000110
00000110
00000001
00001000
,
00000001
00001000
00000001
00001000
00000100
00010000
00001000
00000000
,
00011000
00011000
00100000
01000000
,
10010000
10010000
00100000
00001000
,
00011000
00011000
00000010
00000110
,
00001000
00000001
00001000
00000001
00001000
00000000
00000000
00000000
,
00000100
00000110
00000000
00000000
00000100
00000000
00000010
00000000
,
00010000
00011000
00000000
00000000
00100000
00000000
01000000
00000000
,
00100000
01100000
00000000
00000000
00001000
00000000
00010000
00000000
,
00001000
00011000
00000000
00000000
00000100
00000000
00000010
00000000
,
00000100
00000110
00000000
00000000
00001000
00000000
00010000
00000000
,
00001000
00011000
00000000
00000000
01000000
00000000
00100000
00000000
,
01000000
01100000
00000000
00000000
10000000
00000000
00010000
00000000
,
10010000
00000000
00000000
00000000
,
01100000
10000000
01000000
00100000
,
00001000
00010000
00000010
00000100
,
00000110
00000001
00000010
00000100
,
00010000
00001000
00100000
01000000
,
11000000
00010000
00100000
00001000
,
00011000
00000000
00000010
00000000
00000100
00000000
00000001
00000010
,
00000100
00000000
00010000
00000000
00001000
01000000
00100000
00000000
,
10000000
01000000
00100000
00010000
00100000
01000000
10000000
00000000
,
00001000
00010000
00000010
00000000
00000010
00010000
00001000
00000000
,
00010000
00001000
00100000
00000000
00100000
00001000
00010000
00000000
,
00000100
00000010
00000001
00000000
00001000
00000100
00000010
00000000
,
00010000
00001000
01000000
00000000
00100000
00000000
01000000
00000000
,
02200000
00000000
00000000
03300000
,
10010000
20020000
00000000
30030000
,
00001000
00001000
00002000
00000000
00000000
00000000
00013000
00000000
,
00000100
00000010
00000100
00000010
00000001
00000000
00010000
00000001
;

//---------------dance-double - ----------------
#NOTES:
     dance-double:
     :
     Hard:
     9:
     0.424,0.378,0.198,0.138,0.319: // measure 1
01100000
00000000
02000000
00000000
00000000
00010000
00000000
03010000
00000000
00000000
00000000
00000000
00001000
00000000
00000000
00000000
,  // measure 2
00012000
00000000
00000000
00000000
00000000
00010000
00000000
00013000
00000000
00000000
00000010
00000000
00000000
00000100
00000000
00000000
,  // measure 3
00001001
00000000
00002000
00000000
00000000
00000100
00000000
00003100
00000000
00000000
00000000
00000000
00010000
00000000
00000000
00000000
,  // measure 4
00011000
00000000
00000000
00000000
00000000
00000000
00000000
00000000
00000000
00000000
00000000
00000000
01000000
00100000
01000000
00100000
,  // measure 5
01000000
00000000
00010000
00000000
10000000
00000000
00100000
00010000
00100000
00000000
10000000
00000000
00001000
00000000
00011000
00000000
,  // measure 6
00010000
00000000
00000100
00000000
00000010
00000000
00000001
00000000
00001000
00000000
00000010
00000000
00010000
00001000
00010000
00000000
,  // measure 7
00001000
00000000
00100000
00000000
10000000
00000000
00100000
00000000
00001000
00000000
01000000
00000000
00100000
00000000
10000000
00010000
,  // measure 8
10000000
00000000
01000000
00000000
00010000
00000000
01000000
00000000
10000000
00000000
00001000
00010000
00000000
00001000
00010000
00000000
,  // measure 9
00000010
00000000
00000100
00000000
00000001
00000000
00000100
00000000
00000010
00000000
00010000
00000000
00001000
00010000
00001000
00000000
,  // measure 10
00100000
01000000
10000000
01000000
00100000
00010000
01000000
01100000
,  // measure 11
00100000
01000000
00001000
00010000
00000010
00000000
00000110
00000010
,  // measure 12
00000010
00000000
00001000
00000000
00000100
00000000
00000010
00000000
00000001
00000000
00001000
00000001
00001000
00000001
00001000
00000000
,  // measure 13
00000020
00000000
00001000
00000000
00001000
00001000
00001030
00000001
,  // measure 14
00020000
00000000
00001000
00001000
00001000
00000000
00031000
00000000
,  // measure 15
02000000
00000000
00100000
00000000
00100000
00100000
03100000
00000000
,  // measure 16
10000000
00000000
10000000
00000000
00100000
00000000
00100000
00000000
01000000
00000000
01000000
00000000
00001000
00010000
00001000
00010000
,  // measure 17
00001000
00000000
00010000
00000000
00000010
00000000
00000100
00000000
00000001
00000000
00000100
00000000
00001000
00000100
00001000
00000000
,  // measure 18
00000100
00000000
00000001
00000000
00000010
00000000
00000100
00000000
00010000
00000000
00001000
00000000
00100000
01000000
00100000
00000000
,  // measure 19
00010000
00000000
01000000
00000000
00100000
00000000
10000000
00010000
00000000
10000000
00010000
00000000
00100000
00000000
00000000
00000000
,  // measure 20
00001000
00000000
00001000
00000000
00001000
00000000
00001000
00000000
00011000
00000000
00000000
00000000
00000010
00000100
00000010
00000100
,  // measure 21
00000010
00000000
00000110
00000000
00000000
00001000
00000000
00001001
00000000
00000000
00000001
00000000
00000010
00000000
00001000
00000000
,  // measure 22
00000010
00000000
00000110
00000000
00000000
00001000
00000000
00001001
00000000
00000000
00000001
00000000
00000100
00000000
00000010
00000000
,  // measure 23
00010000
00000000
00011000
00000000
00000000
00100000
00000000
01100000
00000000
00000000
10000000
00000000
01000000
00000000
00100000
00000000
,  // measure 24
00010000
00000000
00011000
00000000
00000000
00100000
00000000
01100000
00000000
00000000
10000000
00000000
01000000
00000000
00100000
00000000
,  // measure 25
00010000
00000000
00011000
00000000
00000000
00100000
00000000
01100000
00000000
00000000
10000000
00000000
00100000
00000000
01000000
00000000
,  // measure 26
00001000
00000000
00011000
00000000
00000000
00000010
00000000
00000110
00000000
00000000
00000001
00000000
00000100
00000000
00000010
00000000
,  // measure 27
00010000
00000000
00011000
00000000
00000000
00000010
00000000
00000110
00000000
00000000
00000001
00000000
00000010
00000000
00000100
00000000
,  // measure 28
00010000
00000000
00001000
00000000
00001000
00000000
00000000
00000000
00001000
00000000
00000000
00000000
01000000
00100000
01000000
00100000
,  // measure 29
02000000
00000000
00000000
00000000
00000000
00010000
00000000
00010000
00000000
00000000
00000000
00000000
03010000
00000000
00000000
00000000
,  // measure 30
00020000
00000000
00000000
00000000
00000000
10000000
00000000
10000000
00000000
00000000
00000000
00000000
10030000
00000000
00000000
00000000
,  // measure 31
00002000
00000000
00000000
00000000
00000000
00010000
00000000
00010000
00000000
00000000
00000000
00000000
00013000
00000000
00000000
00000000
,  // measure 32
00000200
00000000
00000000
00000000
00000000
00000010
00000000
00000010
00000000
00000000
00000000
00000000
00000310
00000000
00000000
00000000
,  // measure 33
00000002
00000000
00000000
00000000
00000000
00001000
00000000
00001000
00000000
00000000
00000000
00000000
00001003
00000000
00000000
00000000
,  // measure 34
00000020
00000000
00000000
00000000
00000000
00010000
00000000
00010000
00000000
00000000
00000000
00000000
00010030
00000000
00000000
00000000
,  // measure 35
00002000
00000000
00000000
00000000
00000000
00010000
00000000
00010000
00000000
00000000
00000000
00000000
00013000
00000000
00000000
00000000
,  // measure 36
00001000
00000000
01000000
00000000
00100000
00000000
10000000
00000000
00001000
00000000
01000000
00000000
00100000
10000000
00100000
10000000
,  // measure 37
00100000
00000000
01000000
00000000
00001000
00010000
00000000
00010000
00000000
00010000
00000010
00000000
00000100
00000000
00000001
00000000
,  // measure 38
00000010
00000000
00000100
00000000
00010000
00001000
00000000
00001000
00000000
00001000
01000000
00000000
00100000
00000000
10000000
00000000
,  // measure 39
00100000
00000000
01000000
00000000
00001000
00010000
00000000
00010000
00000000
00010000
00000100
00000000
00000010
00000000
00000001
00000000
,  // measure 40
00000010
00000000
00000100
00000000
00010000
00001000
00000000
00001000
00000000
00001000
00100000
00000000
01000000
00000000
10000000
00000000
,  // measure 41
00002000
00000000
00000000
00000000
00010000
00000000
00000000
00010000
00000000
00000000
00010000
00000000
00013000
00000000
00000000
00000000
,  // measure 42
00000200
00000000
00000000
00000000
00000010
00000000
00000000
00000010
00000000
00000000
00000010
00000000
00000310
00000000
00000000
00000000
,  // measure 43
00002000
00000000
00000000
00000000
00000100
00000000
00000000
00000100
00000000
00000000
00000100
00000000
00003100
00000000
00000000
00000000
,  // measure 44
00010000
00000000
00001000
00000000
01000000
00000000
00100000
00000000
10100000
00000000
00000000
00000000
10000000
01000000
00100000
00010000
;

//---------------dance-double - ----------------
#NOTES:
     dance-double:
     :
     Challenge:
     13:
     0.592,0.549,0.474,0.060,0.766: // measure 1
10010000
00000000
00010000
00000000
00000000
01000000
00000000
00100000
00000000
00000000
10000000
00000000
10000000
00000000
00000000
00000000
,  // measure 2
00011000
00000000
00000000
00000000
00000000
00010000
00000000
00001000
00000000
00000000
00010000
00000000
00000000
00000100
00000000
00000000
,  // measure 3
00001001
00000000
00000001
00000000
00000000
00000010
00000000
00000100
00000000
00000000
00010000
00000000
00011000
00000000
00000000
00000000
,  // measure 4
01100000
00000000
01000000
00000000
01000000
00000000
00000000
00000000
00010000
00000000
10000000
00010000
10000000
00010000
10000000
00010000
,  // measure 5
01000000
00100000
00001000
00010000
00000000
00010000
00000010
00000100
00000010
00000100
00000010
00001000
00000000
00001000
00000001
00000010
,  // measure 6
00000001
00000000
00000010
00000100
00001000
00000000
00010000
00001000
00000000
00001000
01000000
00100000
01000000
00100000
10000000
00000000
,  // measure 7
00100000
10000000
00100000
10000000
00010000
00100000
00010000
00100000
00001000
00010000
00001000
00010000
00001000
00000000
00010000
00000010
,  // measure 8
00000000
00000010
00010000
00001000
00010000
00001000
01000000
00100000
01000000
00000000
00100000
10000000
00000000
00010000
00100000
00000000
,  // measure 9
00001000
00010000
00001000
00010000
00000100
00000010
00000001
00000010
00000100
00010000
00000000
00010000
00001000
00100000
01000000
10000000
,  // measure 10
00000000
10000000
01000000
10000000
00000000
00100000
01000000
00100000
01000000
00100000
10000000
01000000
00100000
00001000
00100000
00000000
,  // measure 11
00001000
00010000
00001000
00000000
00010000
00000100
00010000
00000000
00000100
00000010
00000100
00000000
00001000
00000000
00001001
00000000
,  // measure 12
00001001
00000000
00000001
00000000
00000010
00000100
00000010
00000100
00010000
00001000
00010000
00001000
00100000
01000000
10000000
01000000
,  // measure 13
00100000
00000000
00000000
00000000
10010000
00000000
00000000
00010000
00000000
00010000
00000000
00010000
10000000
01000000
00100000
00001000
,  // measure 14
00010000
00000000
00000010
00000000
00001000
00000010
00001000
00000001
00000000
00000001
00000010
00000000
00000100
00001000
00000100
00001000
,  // measure 15
00000100
00000000
00000010
00000001
00000000
00010000
00000010
00000000
00000000
00010000
00001000
00010000
00001000
00000000
00000000
00000000
,  // measure 16
00100000
00000000
00100000
00000000
01000000
00000000
01000000
00000000
10000000
00000000
10000000
00000000
00010000
00100000
00010000
00100000
,  // measure 17
00001000
00010000
00001000
00010000
00000100
00000010
00000001
00000000
00001000
00000100
00001000
00000000
00000001
00001000
00000001
00001000
,  // measure 18
00000100
00000010
00000100
00000000
00010000
00001000
00000000
00001000
00000000
00001000
00100000
01000000
10000000
01000000
00100000
00000000
,  // measure 19
00001000
01000000
00001000
01000000
00100000
00000000
10000000
01000000
00000000
01000000
10000000
00100000
01000000
00000000
00000000
00000000
,  // measure 20
01001000
00000000
00011000
00000000
00010010
00000000
00000110
00000000
00001001
00000000
00000000
00000000
00000010
00000100
00000010
00000100
,  // measure 21
00000010
00000000
00000110
00000000
00000000
00000101
00000000
00000110
00000000
00000001
00000010
00000100
00010000
00000000
00010000
00000000
,  // measure 22
00011000
00000000
00011000
00000000
00000000
01001000
00000000
01100000
00000000
01000000
00100000
10000000
01000000
00000000
01000000
00000000
,  // measure 23
10010000
00000000
10010000
00000000
00000000
01001000
00000000
00011000
00000000
00001000
00010000
00000100
00000010
00000000
00000010
00000000
,  // measure 24
00001001
00000000
00001001
00000000
00000000
00000110
00000000
00010100
00000000
00010000
00001000
00010000
00000000
00100000
01000000
00100000
,  // measure 25
00010000
00000000
10010000
00000000
00000000
10100000
00000000
01100000
00000000
01000000
00100000
00001000
00010000
00000000
00010000
00000000
,  // measure 26
00000110
00000000
00000110
00000000
00000000
00000101
00000000
00001001
00000000
00001000
00000100
00010000
00001000
00000000
00001000
00000000
,  // measure 27
01100000
00000000
01100000
00000000
00000000
10100000
00000000
10010000
00000000
00010000
00100000
00001000
00010000
00000000
00010000
00000000
,  // measure 28
00000110
00000000
00000100
00000000
00000100
00000000
00000000
00000000
00000100
00000000
00000001
00001000
00000001
00001000
00000001
00001000
,  // measure 29
00000002
00000000
00000000
00000000
00000000
00001000
00000000
00001003
00000000
00000000
00010000
00000000
00011000
00000000
00000000
00000000
,  // measure 30
02000000
00000000
00000000
00000000
00000000
00100000
00000000
03100000
00000000
00000000
00001000
00000000
00011000
00000000
00000000
00000000
,  // measure 31
00000020
00000000
00000000
00000000
00000000
00001000
00000000
00001000
00000030
00000000
00010000
00000000
00011000
00000000
00000000
00000000
,  // measure 32
00200000
00000000
00000000
00000000
00000000
01000000
00000000
01300000
00000000
00000000
00010000
00000000
00011000
00000000
00000000
00000000
,  // measure 33
00000020
00000000
00000000
00000000
00000000
00000100
00000000
00000130
00000000
00000000
00010000
00000000
00011000
00000000
00000000
00000000
,  // measure 34
20000000
00000000
00000000
00000000
00000000
01000000
00000000
31000000
00000000
00000000
00001000
00000000
00011000
00000000
00000000
00000000
,  // measure 35
00000020
00000000
00000000
00000000
00000000
00000100
00000000
00000130
00000000
00000000
00010000
00000000
00011000
00000000
00000000
00001000
,  // measure 36
00100000
01000000
00100000
01000000
10000000
00000000
00000000
00001000
00100000
01000000
00100000
01000000
10000000
00100000
01000000
00001000
,  // measure 37
00010000
00000000
00000010
00000100
00000010
00000000
00001001
00000000
00000000
00000000
00000010
00000100
00000010
00000000
00001001
00000000
,  // measure 38
00000000
00000000
00000010
00000100
00000010
00000000
00001001
00000000
00000000
00000000
00000010
00000100
00000010
00010000
00001000
00000000
,  // measure 39
00000000
10000000
01000000
00100000
00010000
01000000
00010000
00000000
00000000
10000000
01000000
00100000
00010000
01000000
00010000
00000000
,  // measure 40
00000000
10000000
01000000
00100000
00010000
01000000
00010000
00000000
10000000
00001000
10000000
00000000
00001000
00010000
00001000
00010000
,  // measure 41
00000010
00000000
00000000
00000000
00000100
00000001
00000000
00000001
00000000
00000001
00010000
00000000
00001000
00000000
00100000
00000000
,  // measure 42
01000000
00000000
00000000
00000000
10000000
00010000
00000000
00010000
00000000
00010000
00100000
00000000
00000100
00000000
00000010
00000000
,  // measure 43
00000100
00000000
00000000
00000000
00001000
00000010
00000000
00000010
00000000
00000010
00000100
00000000
00000001
00000000
00010000
00000000
,  // measure 44
00010010
00000000
00011000
00000000
01001000
00000000
01100000
00000000
10010000
00000000
00000000
00000000
00100000
01000000
00001000
00010000
;
