#TITLE:BUBBLE RAVER;
#SUBTITLE:;
#ARTIST:P*Light;
#TITLETRANSLIT:;
#SUBTITLETRANSLIT:;
#ARTISTTRANSLIT:;
#CREDIT:DigiMindAxel;
#BANNER:BUBBLE RAVER.png;
#BACKGROUND:BUBBLE RAVER-bg.png;
#LYRICSPATH:;
#CDTITLE:SOUND VOLTEX.png;
#MUSIC:BUBBLE RAVER.ogg;
#METERTYPE:DDR X;
#OFFSET:-5.949;
#SAMPLESTART:11.442;
#SAMPLELENGTH:12.000;
#SELECTABLE:YES;
#BPMS:0.000=174.000;
#STOPS:208.500=0.345
,209.500=0.345
,289.500=0.345
;
#BGCHANGES:;

//---------------dance-single - ----------------
#NOTES:
     dance-single:
     :
     Easy:
     6:
     0.298,0.419,0.261,0.183,0.000:
1001
0000
0001
0000
,
1001
0000
1000
0000
,
1002
0000
0000
0000
,
2003
0000
0000
3001
,
1000
1000
1000
0000
,
0100
0100
0100
0000
,
0010
0010
0010
0000
,
0100
0100
0100
0000
,
0010
0010
0010
0000
,
0001
0001
0001
0000
,
1000
1000
1000
1000
,
2002
0000
3003
0000
,
0001
1000
0001
0000
,
0010
0001
0100
0000
,
0010
0010
0010
0000
,
0100
0100
0100
0000
,
0001
1000
0100
0000
,
0010
0001
1000
0000
,
0001
0001
0001
0001
,
2002
0000
3003
0000
,
0210
0000
0000
0000
,
0000
0000
0000
0000
,
0320
0000
0000
0000
,
0000
0000
0000
0030
,
1001
0000
1000
0000
,
1001
0000
0001
0000
,
0010
0100
0010
0100
,
0220
0000
0000
0330
,
1000
0100
1000
0100
,
1000
0001
1000
0001
,
0010
0000
0010
0000
,
0110
0000
0110
0000
,
0001
0100
0001
0100
,
0001
1000
0001
1000
,
1001
0000
1001
0000
,
0010
0010
0010
0010
,
0110
0000
0100
0000
,
0010
1000
0100
0010
,
0001
0000
0001
0000
,
0010
0100
1000
0100
,
0010
0000
0010
0000
,
1001
0000
0001
0000
,
0110
0000
0100
0000
,
0110
0000
0000
0000
,
1001
0000
0000
0000
,
0000
0000
0000
0000
,
1001
0000
0000
0000
,
0000
0000
0000
0000
,
1001
0000
0001
0000
,
1001
0000
1000
0000
,
2002
0000
0000
3003
,
1000
0000
1000
0000
,
0110
0110
0110
0110
,
0110
0000
0010
0100
,
0010
0100
0002
0000
,
0000
0000
0013
0100
,
0010
0100
2000
0000
,
3002
0000
1003
1000
,
1000
1000
0001
0001
,
0001
0001
0010
0100
,
0010
0100
1000
0010
,
0100
0001
1000
1000
,
1000
1000
2002
0000
,
3003
0000
0010
0100
,
0010
0100
0001
0001
,
1000
1000
0100
0010
,
0001
0010
0100
1000
,
0010
0010
0100
0001
,
0010
0100
1000
1000
,
0001
0001
0100
0010
,
0100
0001
2002
0000
,
3003
0000
0001
0010
,
0100
1000
0220
0000
,
0000
0000
0000
0000
,
0000
0330
0000
0000
0000
0000
0000
0000
;

//---------------dance-single - ----------------
#NOTES:
     dance-single:
     :
     Medium:
     10:
     0.478,0.548,0.322,0.157,0.000:
1100
1000
1000
1000
,
0110
0010
0010
0010
,
0001
0010
0100
1000
0001
0000
0000
0000
,
2000
0001
3001
1001
,
1000
0100
1000
0000
0010
0000
0100
0000
,
0001
1000
0001
0000
0010
0000
0100
0000
,
1000
0010
1000
0010
0100
0000
0100
0000
,
0001
0010
0001
0010
0100
0000
0100
0000
,
1000
0001
0010
0000
0001
0000
1000
0000
,
0001
1000
0010
0000
1000
0000
0001
0000
,
0100
0010
0100
0010
1000
0000
1000
0000
,
1001
0000
0000
1001
0000
0000
0000
0000
,
0001
0010
0001
0010
0100
0000
1000
0000
,
0010
1000
0010
1000
0001
0000
0010
0000
,
0100
1000
0100
1000
0010
0000
0010
0000
,
0100
0001
0100
0001
1000
0000
1000
0000
,
0100
0010
0100
0010
0001
0010
0001
0000
,
0010
0100
0010
0100
1000
0100
1000
0000
,
0010
0100
0010
0100
0001
0000
0001
0000
,
1001
0000
0000
1001
0000
0000
0000
0000
,
2002
0000
0000
0000
,
0000
0000
0000
3003
,
0200
0000
0000
0000
,
0000
0000
0000
0300
,
1001
1000
1001
1000
,
1001
0010
0110
0010
,
0110
0000
0100
0000
0001
1000
0100
0010
,
0002
0000
0000
1003
,
0001
0010
0001
0000
0110
0000
1000
0000
,
0100
0010
0100
0000
1001
0000
0001
0000
,
2000
0100
3100
1100
,
0020
0001
0031
0011
,
0100
0010
0100
0000
1001
0000
0010
0000
,
1000
0100
0010
0000
0101
0000
0001
0000
,
0200
0001
0301
0101
,
2000
0010
3010
1010
,
0100
0010
0100
0000
0001
1000
0100
0000
,
1000
0100
0010
0000
0001
1000
0001
0000
,
0010
0100
0010
0100
1000
0000
1000
0000
,
0010
0100
0010
0100
0001
0000
0001
0000
,
1000
0001
0000
1000
0001
1000
0000
0000
,
0010
0100
0000
0010
0100
0010
0000
0000
,
1000
0001
1000
0001
1000
0001
1000
0001
,
2000
0000
0000
3000
,
0220
0000
0000
0000
,
0000
0000
0000
0330
,
0002
0000
0000
0000
,
0000
0000
0000
0003
,
1001
0001
0011
0001
,
1001
0001
0011
0001
,
1000
0010
0100
0001
2000
0000
0000
0000
,
3010
0100
0010
0000
,
1001
1001
1001
1001
,
1000
0100
0010
0001
1000
0100
0010
0100
,
1000
0001
0220
0000
,
0000
0000
0330
0000
0001
0100
0010
0100
,
0001
0000
1000
0000
0100
0010
0100
1000
,
0010
0000
0100
0000
0001
1000
0001
1000
,
0100
0000
0100
0000
0010
0001
0010
0001
,
1000
0000
1000
0000
0100
0010
0100
0010
,
0001
0000
0001
0000
0100
0010
0100
0010
,
1000
0000
1000
0000
0100
1000
0100
1000
,
0001
0000
0001
0000
1001
0000
0000
1001
,
0000
0000
0000
0000
0100
0001
0100
0010
,
1000
0000
1000
0000
0100
0010
0100
0010
,
0001
0010
0001
0000
0100
0001
0010
0100
,
1000
0000
1000
0000
0100
1000
0010
0100
,
0001
0000
0001
0000
0010
0100
0010
0001
,
0100
0000
0100
0000
0010
1000
0010
1000
,
0100
0010
0100
0000
1000
0001
0010
0001
,
1000
0000
1000
0000
1001
0000
0000
1001
,
0000
0000
0000
0000
0010
0100
0010
1000
,
0100
0000
0000
1100
2002
0000
0000
0000
,
0000
0000
0000
0000
,
0000
3003
0000
0000
0000
0000
0000
0000
;

//---------------dance-single - ----------------
#NOTES:
     dance-single:
     :
     Hard:
     13:
     0.613,0.548,0.331,0.157,0.165:
1000
0001
0000
0001
0100
0001
0000
1000
,
0100
1000
0000
1000
0001
0010
0000
0100
,
1000
0001
0010
0100
2000
0000
3001
0000
,
1000
0001
1000
0010
0100
0000
1001
0000
,
1000
0010
1000
0100
1000
0010
1000
0000
,
0100
0010
0001
0100
0001
0010
0100
0000
,
1000
0000
1000
0000
0100
0000
0100
0000
0010
0000
0000
0010
0000
0000
0001
0000
,
1000
0000
1000
0000
0010
0000
0010
0000
0100
0000
0000
0100
0000
0000
0001
0000
,
1000
0100
1000
0010
1000
0100
1000
0000
,
0010
0100
0001
0010
0001
0100
0010
0000
,
1000
0000
1000
0000
0100
0000
0100
0000
0010
0000
0000
0010
0000
0000
0001
0000
,
1001
0000
0000
1001
0000
0000
2002
0000
0000
0000
0000
0000
3003
0000
0000
0000
,
0010
0100
1000
0010
0001
0010
1000
0000
,
0100
0010
0100
0010
0001
0100
0010
1000
,
0001
0000
0001
0000
0010
0000
0010
0000
0100
0000
0000
0100
0000
0000
1000
0000
,
0001
0000
0001
0000
0100
0000
0100
0000
0010
0000
0000
0010
0000
0000
1000
0000
,
0001
0100
0010
1000
0010
0001
0010
0000
,
1000
0010
0100
0010
1000
0010
0001
0010
,
1000
0000
1000
0000
0100
0000
0100
0000
0010
0000
0000
0010
0000
0000
0001
0000
,
1001
0000
0000
1001
0000
0000
2002
0000
0000
0000
0000
0000
3003
0000
0000
0000
,
1000
0000
0001
0000
0000
0100
0000
0000
0001
0000
0000
1000
0000
0000
0100
0000
,
1000
0000
0000
0010
0000
0000
0100
0000
0000
0010
0000
0000
1000
0000
0000
0000
,
0000
0000
0100
0000
0000
0010
0000
0000
0100
0000
0000
0010
0000
0000
0001
0000
,
1000
0000
0000
0010
0000
0000
0100
0000
0000
0010
0000
0000
1000
0000
0000
0000
,
1001
0000
0000
1000
0000
0000
0010
0000
0100
0000
0000
0100
0000
0000
0001
0000
,
1000
0000
0000
1000
0000
0000
0100
0000
0010
0000
0000
0010
0000
0000
0001
0000
,
0100
0010
0100
0001
1000
0001
0010
0100
,
2000
0001
3001
1001
,
0100
1000
0100
1000
0010
0100
0001
0000
,
0010
0100
0010
0100
1000
0001
0100
0000
,
0101
0110
0101
0110
,
1001
1100
1001
1100
,
0010
0001
0010
0001
1000
0010
0100
0000
,
0001
1000
0001
1000
0100
0001
0100
0000
,
1100
1001
0011
1001
,
0201
0000
0000
0310
,
1000
0100
1000
0100
0010
0001
0100
0001
,
0010
0100
0010
0100
1000
0010
0100
0010
,
1000
1000
0100
0100
1000
1000
0001
0000
,
0010
0100
1000
0100
0010
0010
0100
0000
,
1000
0001
0000
0001
0100
0000
0110
0000
,
0100
1000
0000
1000
0001
0000
1001
0000
,
1000
0100
0010
0001
0010
0100
1000
0100
,
0020
0000
0000
0031
,
0210
0010
0000
0001
,
0000
0010
0000
0301
,
2000
0100
0000
0010
,
0000
0100
0000
3010
,
1000
1000
0001
0001
0010
0100
1000
1000
,
0001
0001
0001
1000
0100
0010
0001
1000
,
0001
0100
0010
1000
0200
0000
2300
0000
,
3001
0000
0010
0000
0100
1000
0001
0000
,
1001
1001
1001
1001
,
0001
0010
0100
1000
0001
0001
0100
0010
,
1000
0000
0000
1000
0000
0000
0100
0000
0000
0000
0000
0000
0000
0000
0000
0000
,
1000
0001
1000
0001
1000
0000
0000
0000
0001
0000
0001
0000
0100
0000
0010
0000
,
1000
0000
0000
1000
0000
0000
0100
0000
0010
0000
0010
0000
0100
0000
1000
0000
,
0001
0000
0000
0001
0000
0000
0100
0000
0010
0000
0010
0000
1000
0000
1000
0000
,
0100
0000
0000
0100
0000
0000
0100
0000
1000
0000
1000
0000
0001
0000
0001
0000
,
0100
0000
0000
0100
0000
0000
0100
0000
0001
0000
0010
0000
0001
0000
1000
0000
,
0010
0000
0000
0010
0000
0000
0010
0000
1000
0000
0100
0000
0010
0000
0100
0000
,
1000
0000
0000
1000
0000
0000
1000
0000
0010
0000
0100
0000
0010
0000
0100
0000
,
0001
0000
0000
0001
0000
0000
0001
0000
1001
0000
0000
1001
0000
0000
2002
0000
,
0000
0000
3003
0000
1000
0010
0001
0010
,
1000
0000
0000
0100
0000
0000
0010
0000
0001
0000
1000
0000
0100
0000
0001
0000
,
0100
1000
0001
0000
1000
1000
0010
0010
,
0100
0000
0000
0100
0000
0000
0001
0000
1000
0000
1000
0000
0100
0000
0100
0000
,
0010
0000
0000
0010
0000
0000
0001
0000
1000
0000
0010
0000
0001
0000
0010
0000
,
1000
0100
0010
0000
0001
1000
0100
0001
,
0100
1000
0001
0000
0010
0010
0100
0100
,
1000
0000
0000
1000
0000
0000
1000
0000
1001
0000
0000
1001
0000
0000
2002
0000
,
0000
0000
0000
0000
3003
0000
0000
0000
0010
0000
0100
0000
1000
0001
1000
0000
,
0100
0000
0000
1100
0000
0000
0110
0000
2002
0000
0000
0000
0000
0000
0000
0000
,
0000
0000
0000
0000
,
0000
3003
0000
0000
0000
0000
0000
0000
;

//---------------dance-single - ----------------
#NOTES:
     dance-single:
     :
     Challenge:
     16:
     0.913,0.870,0.261,0.226,0.892:
1000
0000
0001
0000
1000
0000
0001
0000
1000
0001
1000
0000
0000
0000
0001
0000
,
0010
0000
0100
0000
0010
0000
0100
0000
0010
0100
0010
0000
0100
0000
1000
0000
,
0001
0001
0100
0100
0002
0000
1003
0000
,
0010
0000
0100
0000
0001
0000
1000
0000
0100
1000
0100
1000
0100
0000
0000
0000
,
1000
0000
1000
0000
0001
0100
0001
0100
0001
0000
0000
1000
0000
0000
0100
0000
,
0010
0000
0010
0000
0001
1000
0001
1000
0001
0000
0000
0100
0000
0000
0010
0000
,
1000
0000
1000
0000
0001
0000
0001
0000
0100
0000
0000
0101
0000
0000
0010
0100
,
0010
0000
0010
0000
1000
0000
1000
0000
0001
0000
0000
1001
0000
0000
1000
0000
,
0001
0000
0001
0000
1000
0100
1000
0100
1000
0000
0000
0010
0000
0000
0100
0000
,
0001
0000
0001
0000
1000
0010
1000
0010
1000
0000
0000
0100
0000
0000
0010
0000
,
0100
0000
1000
0010
1000
0000
0001
0010
0001
0000
1000
0001
1000
0001
1000
0000
,
0100
0010
0000
0100
0010
0000
0100
0010
0001
1000
0001
1000
0001
0000
0000
0000
,
1000
0000
0100
0000
0010
0001
0010
0000
0001
0000
1000
0010
0000
1000
0001
0000
,
0010
0100
0010
0000
0001
1000
0001
0000
1000
0010
1000
0010
1000
0000
0100
0000
,
0010
0000
0010
0000
0001
0000
0001
0000
0100
0000
0000
0110
0000
0000
0010
1000
,
0010
0000
0010
0000
0100
0000
0100
0000
0001
0000
0000
1001
0000
0000
1000
0000
,
0010
0000
0100
0000
0001
0100
0010
0000
1000
0000
0001
0010
0000
0001
1000
0000
,
0100
0010
0100
0000
1000
0010
1000
0000
0001
1000
0001
1000
0001
0000
1000
0000
,
0100
0000
0100
0000
0010
0000
0010
0000
0001
0000
0000
1001
0000
0000
1000
0000
,
0100
0010
0000
0100
0010
0000
0100
0010
0001
1000
0001
1000
0001
0000
0000
0000
,
1000
0000
0002
0000
0000
0023
0000
0000
0230
0000
0000
2300
0000
0000
3001
0000
,
2000
0000
0000
3020
0000
0000
0230
0000
0000
0302
0000
0000
2003
0000
0000
3000
,
0000
0000
0020
0000
0000
2030
0000
0000
3002
0000
0000
0023
0000
0000
0130
0000
,
2000
0000
0000
3020
0000
0000
0230
0000
0000
0320
0000
0000
1030
0001
1000
0001
,
1000
0000
0000
1001
0000
0000
1001
0000
0101
0000
0000
0101
0000
0000
0101
0000
,
0110
0000
0000
0110
0000
0000
0110
0000
1010
0000
0000
1010
0000
0000
0010
0000
,
1000
0001
1000
0001
0100
0001
0100
0001
1000
0100
1000
0100
1000
0001
1000
0001
,
2000
0000
0000
0000
0100
0000
0000
0000
3100
0010
0100
0010
0100
0000
0000
0000
,
1000
0000
0001
0000
0100
0001
0100
0000
0001
1000
0001
0000
1000
0000
0001
0000
,
0010
0100
0010
0000
0001
0000
0100
0000
0010
1000
0010
0000
1000
0001
1000
0000
,
0100
0000
0010
0001
0010
0000
0001
0010
0001
0000
1000
0001
1000
0000
0010
0000
,
0100
0001
0100
0001
0100
0001
0100
0000
0010
0100
0010
0100
0010
0100
0010
0000
,
1000
0000
0100
0000
0010
0001
0010
0000
0001
1000
0001
0000
1000
0000
0010
0000
,
1000
0001
1000
0000
0100
0000
0010
0000
0001
0100
0001
0000
0100
0000
0010
0000
,
1000
0000
0100
1000
0100
0000
1000
0100
1000
0000
0010
0100
0010
0000
0100
0000
,
0002
0000
0000
1003
,
1000
0000
0001
0000
0010
0100
1000
0000
0010
0100
0010
0100
0010
0000
1000
0000
,
0001
0010
0001
0010
0001
0000
1000
0000
0100
0010
0100
0010
0100
0000
1000
0000
,
0001
0000
0100
0001
0100
0000
0001
1000
0001
0000
1000
0100
1000
0000
0001
0000
,
0010
0001
0010
0001
0010
0001
0010
0000
0001
1000
0001
1000
0001
1000
0001
0000
,
1000
0000
0100
1000
0100
0000
0010
0000
0001
0100
0001
0000
1001
0000
0000
0000
,
0001
0000
0010
0001
0010
0000
0100
0000
1000
0010
1000
0000
1001
0000
0000
0000
,
0001
0000
0010
0100
1000
0000
0001
0010
0100
1000
0100
1000
0010
0100
0010
0100
,
0020
0000
0000
0130
,
0001
0000
0001
0000
1000
0000
1000
0000
0100
0000
0000
0100
0000
0000
1000
0001
,
1000
0000
1000
0000
0100
0000
0100
0000
0010
0000
0000
0010
0000
0000
0001
0000
,
1000
0000
1000
0000
0010
0000
0010
0000
0100
0000
0000
0100
0000
0000
0001
1000
,
0001
0000
0001
0000
0010
0000
0010
0000
0100
0000
0000
0100
0000
0000
1000
0000
,
0001
0001
1000
1000
0001
0001
1000
1000
,
0010
0000
0010
0000
0010
0000
0010
0000
0100
0010
0100
0010
0100
0010
0100
0010
,
0100
0001
1000
0100
0020
0000
0031
0000
,
0100
0000
0010
0000
0100
0000
0001
0000
1000
0100
1000
0100
1000
0000
0000
0000
,
0110
0010
0110
0010
0110
0010
0100
0100
,
0001
0000
0010
0000
0100
0000
1000
0000
0001
0000
0001
0000
0100
0001
0100
0001
,
1000
0000
0000
1001
0000
0000
0002
0000
0000
0000
0000
0000
0003
0000
0000
0000
,
0100
0010
0100
0010
0100
0000
0000
0000
0001
0000
0001
0000
0100
0001
0100
0001
,
1000
0000
0100
1000
0000
0010
0100
0000
0001
0000
0001
0000
0010
0001
0010
0001
,
1000
0000
0010
0100
0000
0010
0100
0000
0001
0000
0001
0000
0010
0000
0010
0000
,
0100
0000
0000
1100
0000
0000
1000
0001
0100
0000
0100
0000
0010
0000
0010
0000
,
1000
0000
0000
1001
0000
0000
0001
0000
0100
0000
0100
0000
0001
1000
0001
1000
,
0100
0000
1000
0100
0000
1000
0001
0000
0010
0000
0010
0000
0100
1000
0100
1000
,
0010
0000
0100
0001
0000
1000
0001
0000
1000
0000
0100
0010
0001
0000
0100
0010
,
1000
0010
1000
0001
0010
0001
0010
0000
0100
0010
0000
0100
0010
0000
0100
0010
,
0001
1000
0001
1000
0001
0000
0000
0000
0010
0000
0100
0000
1000
0010
0100
0010
,
1000
0000
0000
0001
1000
0000
0100
0000
0010
0001
0010
0001
0100
0010
0100
0010
,
1000
0100
0010
0001
1000
0000
0001
0000
0100
0000
0100
0000
0010
0000
0010
0000
,
1010
0000
0000
1001
0000
0000
0001
0100
0010
0000
0010
0000
1000
0000
1000
0000
,
1001
0000
0000
0011
0000
0000
0010
0000
0100
1000
0100
0000
1000
0001
0100
0001
,
1000
0000
0000
1000
0100
0000
0010
0000
0001
0010
0001
0010
0001
1000
0001
1000
,
0010
0100
0001
0100
0010
0000
1000
0000
0100
0000
1000
0100
0010
0000
0001
0010
,
0100
1000
0100
1000
0010
0100
0010
0100
0001
1000
0000
0001
1000
0000
0001
1000
,
0100
0010
0100
0010
0200
0000
0000
0000
1300
0000
1000
0000
0100
0010
0001
0010
,
0100
0000
0000
1100
0000
0000
1001
0000
0220
0000
0000
0000
0000
0000
0000
0000
,
0000
0000
0000
0030
,
0310
1000
0001
0000
0000
0000
0000
0000
0000
0000
0000
0000
0000
0000
0000
0000
;

//---------------dance-double - ----------------
#NOTES:
     dance-double:
     :
     Easy:
     6:
     0.307,0.419,0.278,0.200,0.000:
10010000
10000000
10000000
00000000
,
10010000
00010000
00010000
00000000
,
02200000
00000000
00000000
03300000
,
20020000
00000000
00000000
30030000
,
01000000
10000000
01000000
00000000
,
00100000
01000000
00100000
00000000
,
00001000
00001000
00011000
00000000
,
00010000
00010000
00011000
00000000
,
00010000
00000100
00010000
00000000
,
00000100
00000010
00000100
00000000
,
00010000
00010000
00010000
00010000
,
00022000
00000000
00033000
00000000
,
00000010
00000100
00000010
00000000
,
00000100
00000010
00001000
00000000
,
00000100
00000100
00000110
00000000
,
00010000
00010000
00011000
00000000
,
00001000
01000000
00001000
00000000
,
00100000
01000000
00100000
00000000
,
00010000
00010000
00010000
00010000
,
20020000
00000000
30030000
00000000
,
02100000
00000000
00000000
00000000
,
00000000
00000000
00000000
00000000
,
03200000
00000000
00000000
00000000
,
00000000
00000000
00000000
00300000
,
10000000
00000000
01000000
00000000
,
00100000
00000000
00001000
00000000
,
00010000
00001000
00010000
00001000
,
00022000
00000000
00000000
00033000
,
00010000
00001000
00010000
00001000
,
00010000
00000001
00010000
00000001
,
00010000
00000000
00000010
00000000
,
00000110
00000000
00000110
00000000
,
00000001
00000010
00000001
00000010
,
00000001
00010000
00000001
00010000
,
00000001
00000000
00001001
00000000
,
00000010
00000010
00000010
00000010
,
00000110
00000000
00010000
00000000
,
00001000
10000000
01000000
00100000
,
00010000
00000000
00010000
00000000
,
00010000
00100000
01000000
00100000
,
00001000
00000000
00001000
00000000
,
00010000
00000000
00000010
00000000
,
00000110
00000000
00000110
00000000
,
00000110
00000000
00000000
00000000
,
00001001
00000000
00000000
00000000
,
00000000
00000000
00000000
00000000
,
00001001
00000000
00000000
00000000
,
00000000
00000000
00000000
00000000
,
00001001
00000001
00000001
00000000
,
00001001
00001000
00001000
00000000
,
00002002
00000000
00000000
00003003
,
00000001
00000000
00010000
00000000
,
00011000
00011000
00011000
00011000
,
00011000
00000000
01000000
00100000
,
01000000
00100000
20000000
00000000
,
00000000
00000000
30010000
10000000
,
01000000
00100000
02000000
00000000
,
23000000
00000000
30100000
01000000
,
00100000
01000000
00001000
00100000
,
00001000
00100000
00001000
00010000
,
00010000
00000100
00000010
00000001
,
00001000
00000010
00010000
00010000
,
00010000
00010000
00022000
00000000
,
00033000
00000000
00001000
10000000
,
10000000
01000000
00100000
00100000
,
00010000
00010000
01000000
00100000
,
01000000
00001000
00010000
00001000
,
00010000
00010000
00000100
00000010
,
00000010
00000100
00010000
00010000
,
00001000
00001000
01000000
00100000
,
01000000
00010000
20020000
00000000
,
30030000
00000000
10000000
01000000
,
00100000
00001000
00022000
00000000
,
00000000
00000000
00000000
00000000
,
00000000
00033000
00000000
00000000
00000000
00000000
00000000
00000000
;

//---------------dance-double - ----------------
#NOTES:
     dance-double:
     :
     Medium:
     10:
     0.466,0.548,0.252,0.130,0.000:
01100000
00100000
00100000
00100000
,
10010000
10000000
10000000
10000000
,
00100000
10000000
00001000
01000000
00001000
00000000
00000000
00000000
,
00010000
00001000
00010000
00011000
,
00010000
00000010
00010000
00000000
00000100
00000000
00000010
00000000
,
00000100
00001000
00000100
00000000
00001000
00000000
00000001
00000000
,
00000100
00000001
00000100
00000001
00010000
00000000
00010000
00000000
,
00001000
00100000
00001000
00100000
01000000
00000000
10000000
00000000
,
10000000
00010000
01000000
00000000
00010000
00000000
10000000
00000000
,
01000000
00100000
00001000
00000000
00010000
00000000
00000010
00000000
,
00000100
00000010
00000100
00000010
00001000
00000000
00001000
00000000
,
00001001
00000000
00000000
00001001
00000000
00000000
00000000
00000000
,
00000010
00001000
00000010
00001000
00000001
00000000
00000010
00000000
,
00000100
00010000
00001000
00100000
01000000
00000000
10000000
00000000
,
01000000
00100000
01000000
00100000
00001000
00000000
00001000
00000000
,
01000000
00100000
01000000
00100000
10000000
00000000
10000000
00000000
,
01000000
10000000
01000000
10000000
00001000
01000000
00001000
00000000
,
00010000
00001000
00010000
00000010
00000100
00000001
00000100
00000000
,
00000001
00001000
00000001
00001000
00000010
00000000
00000010
00000000
,
00000110
00000000
00000000
00000110
00000000
00000000
00000000
00000000
,
00020002
00000000
00000000
00000000
,
00000000
00000000
00000000
00030003
,
00002000
00000000
00000000
00000000
,
00000000
00000000
00000000
00003000
,
10000000
01000000
10000000
00010000
,
10000000
00001000
00011000
00010000
,
00001000
00010000
00001000
01000000
00100000
10000000
01000000
00100000
,
00002000
00000000
00000000
00013000
,
00000010
00010000
00000010
00000000
00000010
00000100
00000010
00000000
,
00000010
00000100
00000001
00000000
00000001
00001000
00000001
00000000
,
00001001
00001000
00001001
00001000
,
00010100
00000100
00010100
00010000
,
00001000
00100000
00001000
00000000
00001000
10000000
00001000
00000000
,
00001000
00100000
01000000
00000000
01000000
10000000
00100000
00000000
,
10010000
10000000
10010000
10000000
,
20002000
00000000
00000000
30003000
,
01000000
10000000
01000000
00000000
01000000
00100000
01000000
00000000
,
01000000
10000000
00001000
00000000
00001000
00010000
00001000
00000000
,
00010000
00000010
00000100
00000001
00010000
00000000
00010000
00000000
,
00000001
00000010
00000100
00001000
00000100
00000000
00000100
00000000
,
00010000
00001000
00000000
00001000
00010000
00000000
00000000
00000000
,
00001000
01000000
00000000
01000000
00001000
00000000
00000000
00000000
,
10000000
00010000
10000000
00010000
10000000
00010000
10000000
00010000
,
20000000
00000000
00000000
30000000
,
20002000
00000000
00000000
00000000
,
00000000
00000000
00000000
30003000
,
00020000
00000000
00000000
00000000
,
00000000
00000000
00000000
00030000
,
00000110
00000100
00000001
00001000
,
00000100
00000010
00000100
00010000
,
00001000
00010000
00000001
00000010
00000200
00000000
00000000
00000000
,
00001300
00000001
00001000
00000000
,
00001001
00001001
00001001
00001001
,
00000010
00000100
00000001
00001000
00000001
00000100
00001000
00000100
,
00000001
00001000
00002002
00000000
,
00000000
00000000
00003003
00000000
00001000
00000100
00000001
00000100
,
00001000
00000000
00000010
00000000
00010000
00001000
00100000
01000000
,
10000000
00000000
10000000
00000000
00010000
10000000
00010000
10000000
,
00100000
00000000
00100000
00000000
01000000
00010000
01000000
00010000
,
10000000
00000000
10000000
00000000
00010000
00100000
10000000
00100000
,
00010000
00000000
00010000
00000000
10000000
01000000
00010000
01000000
,
10000000
00000000
10000000
00000000
01000000
00100000
01000000
00100000
,
00001000
00000000
00001000
00000000
00011000
00000000
00000000
00011000
,
00000000
00000000
00000000
00000000
00001000
00010000
00000100
00000010
,
00000001
00000000
00000001
00000000
00000100
00000001
00000100
00000001
,
00010000
00000010
00010000
00000000
00001000
00100000
01000000
10000000
,
01000000
00000000
01000000
00000000
10000000
00100000
01000000
00010000
,
00100000
00000000
00100000
00000000
00001000
00010000
00001000
00010000
,
00000010
00000000
00000010
00000000
00001000
00000001
00001000
00000001
,
00010000
00000100
00010000
00000000
00001000
00100000
01000000
10000000
,
00010000
00000000
00010000
00000000
10010000
00000000
00000000
10010000
,
00000000
00000000
00000000
00000000
10000000
01000000
00010000
01000000
,
10000000
00000000
00000000
10001000
00022000
00000000
00000000
00000000
,
00000000
00000000
00000000
00000000
,
00000000
00033000
00000000
00000000
00000000
00000000
00000000
00000000
;

//---------------dance-double - ----------------
#NOTES:
     dance-double:
     :
     Hard:
     13:
     0.605,0.580,0.313,0.157,0.165: // measure 1
20010000
01000000
00010000
31000000
,  // measure 2
00200000
00010000
01000000
00310000
,  // measure 3
10000000
01000000
00100000
00001000
00010000
00000000
00010000
00000000
,  // measure 4
00000010
00000100
00000010
00000100
00000010
00000000
00000110
00000000
,  // measure 5
00000010
00001000
00000010
00000100
00000010
00001000
00000010
00000000
,  // measure 6
00001000
00000100
00000010
00001000
00000010
00000100
00001000
00000000
,  // measure 7
00000001
00000000
00000001
00000000
00010000
00000000
00010000
00000000
00001000
00000000
00000000
00001000
00000000
00000000
01000000
00000000
,  // measure 8
00100000
00000000
00100000
00000000
10000000
00000000
10000000
00000000
01000000
00000000
00000000
01000000
00000000
00000000
10000000
00000000
,  // measure 9
00001000
00100000
00001000
01000000
00001000
00100000
00001000
00000000
,  // measure 10
00010000
00001000
01000000
00100000
01000000
00001000
00010000
00000000
,  // measure 11
00000100
00000000
00000100
00000000
00001000
00000000
00001000
00000000
00000010
00000000
00000000
00000010
00000000
00000000
00001000
00000000
,  // measure 12
00001001
00000000
00000000
00001001
00000000
00000000
00002002
00000000
00000000
00000000
00000000
00000000
00003003
00000000
00000000
00000000
,  // measure 13
00000010
00000100
00001000
00000010
00000001
00000010
00001000
00000000
,  // measure 14
00000100
00000010
00000100
00000010
00000001
00010000
00000100
00010000
,  // measure 15
00001000
00000000
00001000
00000000
01000000
00000000
01000000
00000000
00100000
00000000
00000000
00100000
00000000
00000000
10000000
00000000
,  // measure 16
00010000
00000000
00010000
00000000
00100000
00000000
00100000
00000000
00001000
00000000
00000000
00001000
00000000
00000000
00010000
00000000
,  // measure 17
00000001
00000100
00000010
00001000
00000010
00000001
00000010
00000000
,  // measure 18
00001000
00000010
00000100
00000010
00001000
00000010
00000001
00000010
,  // measure 19
00010000
00000000
00010000
00000000
00001000
00000000
00001000
00000000
00100000
00000000
00000000
00100000
00000000
00000000
00010000
00000000
,  // measure 20
10010000
00000000
00000000
10010000
00000000
00000000
20020000
00000000
00000000
00000000
00000000
00000000
30030000
00000000
00000000
00000000
,  // measure 21
00100000
00000000
01000000
00000000
00000000
00010000
00000000
00000000
01000000
00000000
00000000
00001000
00000000
00000000
00010000
00000000
,  // measure 22
00000010
00000000
00000000
00000100
00000000
00000000
00000001
00000000
00000000
00000100
00000000
00000000
00000001
00000000
00000000
00000000
,  // measure 23
00000000
00000000
00000010
00000000
00000000
00000100
00000000
00000000
00000010
00000000
00000000
00000100
00000000
00000000
00010000
00000000
,  // measure 24
00001000
00000000
00000000
00100000
00000000
00000000
01000000
00000000
00000000
00100000
00000000
00000000
00010000
00000000
00000000
00000000
,  // measure 25
10010000
00000000
00000000
00010000
00000000
00000000
10000000
00000000
00001000
00000000
00000000
00001000
00000000
00000000
00010000
00000000
,  // measure 26
00000100
00000000
00000000
00000100
00000000
00000000
00000010
00000000
00000001
00000000
00000000
00000001
00000000
00000000
00001000
00000000
,  // measure 27
00000001
00000010
00000100
00001000
00010000
01000000
00100000
10000000
,  // measure 28
02000000
00100000
03100000
01100000
,  // measure 29
00100000
01000000
00100000
01000000
00010000
00100000
00001000
00000000
,  // measure 30
00010000
00000100
00010000
00000100
00001000
00000010
00000100
00000000
,  // measure 31
00001001
00000100
00001001
00000001
,  // measure 32
00000110
00001000
00000110
00000001
,  // measure 33
00000010
00000001
00000010
00000001
00001000
00000010
00000100
00000000
,  // measure 34
00000010
00010000
00000010
00010000
00001000
00100000
01000000
00000000
,  // measure 35
10010000
01000000
10010000
01000000
,  // measure 36
20020000
00000000
30030000
10010000
,  // measure 37
01000000
00100000
01000000
00100000
10000000
00001000
00100000
00001000
,  // measure 38
10000000
00100000
00010000
00100000
01000000
00001000
00010000
00000010
,  // measure 39
00000100
00000100
00000010
00000010
00000100
00000100
00000001
00000000
,  // measure 40
00001000
00000010
00000001
00000010
00000100
00000001
00001000
00000000
,  // measure 41
00000010
00010000
00000000
00010000
00001000
00000000
00011000
00000000
,  // measure 42
00100000
01000000
00000000
01000000
10000000
00000000
11000000
00000000
,  // measure 43
00100000
01000000
00001000
00010000
00000010
00000100
00000001
00000010
,  // measure 44
00000002
00000000
00000000
00001003
,  // measure 45
00002100
00000100
00000000
00000010
,  // measure 46
00000000
00000100
00000000
00003010
,  // measure 47
00020000
00001000
00000000
00000100
,  // measure 48
00000000
00001000
00000000
00030100
,  // measure 49
10000000
10000000
00010000
00010000
10000000
01000000
00100000
00000000
,  // measure 50
00010000
00010000
10000000
10000000
00100000
01000000
00001000
00010000
,  // measure 51
00000010
00000100
00000010
00001000
00000001
00000000
00000001
00000000
,  // measure 52
00000010
00000100
00000010
00000100
00000010
00000000
00000110
00000000
,  // measure 53
00001001
00001001
00001001
00001001
,  // measure 54
00000001
00000010
00000100
00001000
00000010
00000010
00010000
00001000
,  // measure 55
01000000
00000000
00000000
01000000
00000000
00000000
00001000
00000000
00000000
00000000
00000000
00000000
00000000
00000000
00000000
00000000
,  // measure 56
00010000
00001000
00010000
00001000
00010000
00000000
00000000
00000000
00000010
00000000
00000010
00000000
00010000
00000000
00001000
00000000
,  // measure 57
01000000
00000000
00000000
01000000
00000000
00000000
00001000
00000000
10000000
00000000
10000000
00000000
01000000
00000000
00100000
00000000
,  // measure 58
00001000
00000000
00000000
00001000
00000000
00000000
00010000
00000000
00001000
00000000
00001000
00000000
00010000
00000000
00010000
00000000
,  // measure 59
00000010
00000000
00000000
00000010
00000000
00000000
00000100
00000000
00000001
00000000
00000001
00000000
00001000
00000000
00001000
00000000
,  // measure 60
00000100
00000000
00000000
00000100
00000000
00000000
00010000
00000000
00001000
00000000
00100000
00000000
01000000
00000000
00100000
00000000
,  // measure 61
00001000
00000000
00000000
00001000
00000000
00000000
10000000
00000000
00100000
00000000
01000000
00000000
00010000
00000000
10000000
00000000
,  // measure 62
01000000
00000000
00000000
01000000
00000000
00000000
10000000
00000000
01000000
00000000
00100000
00000000
00001000
00000000
00010000
00000000
,  // measure 63
00000010
00000000
00000000
00000010
00000000
00000000
00000010
00000000
00001001
00000000
00000000
00001001
00000000
00000000
00002002
00000000
,  // measure 64
00000000
00000000
00003003
00000000
00000001
00000100
00001000
00000100
,  // measure 65
00000001
00000000
00000000
00000001
00000000
00000000
00000010
00000000
00000100
00000000
00010000
00000000
00001000
00000000
00100000
00000000
,  // measure 66
01000000
10000000
00010000
00000000
10000000
10000000
00100000
00100000
,  // measure 67
01000000
00000000
00000000
01000000
00000000
00000000
00001000
00000000
00010000
00000000
00010000
00000000
00000100
00000000
00000100
00000000
,  // measure 68
00000010
00000000
00000000
00000010
00000000
00000000
00000001
00000000
00001000
00000000
00000010
00000000
00000001
00000000
00000010
00000000
,  // measure 69
00001000
00000100
00010000
00000000
00001000
01000000
00100000
10000000
,  // measure 70
00100000
01000000
00001000
00000000
00100000
00100000
01000000
01000000
,  // measure 71
00001000
00000000
00000000
00001000
00000000
00000000
00001000
00000000
00011000
00000000
00000000
00011000
00000000
00000000
00022000
00000000
,  // measure 72
00000000
00000000
00000000
00000000
00033000
00000000
00000000
00000000
00001000
00000000
00010000
00000000
00000010
00000100
00000010
00000000
,  // measure 73
00000101
00000000
00000000
00000110
00000000
00000000
00010010
00000000
00022000
00000000
00000000
00000000
00000000
00000000
00000000
00000000
,  // measure 74
00000000
00000000
00000000
00000000
,  // measure 75
00000000
00033000
00000000
00000000
00000000
00000000
00000000
00000000
;

//---------------dance-double - ----------------
#NOTES:
     dance-double:
     :
     Challenge:
     16:
     0.906,0.870,0.217,0.226,0.892: // measure 1
10000000
00000000
00010000
00000000
10000000
00000000
00010000
00000000
10000000
00010000
10000000
00000000
00000000
00000000
00001000
00000000
,  // measure 2
00010000
00000000
00001000
00000000
00010000
00000000
00001000
00000000
00010000
00001000
00010000
00000000
00000010
00000000
00000100
00000000
,  // measure 3
00000001
00000001
00000100
00000100
00000020
00000000
00000130
00000000
,  // measure 4
00000001
00000000
00000010
00000000
00000001
00000000
00001000
00000000
00000010
00000100
00000010
00000100
00000010
00000000
00000000
00000000
,  // measure 5
00010000
00000000
00010000
00000000
00001000
00010000
00001000
00010000
00001000
00000000
00000000
01000000
00000000
00000000
00100000
00000000
,  // measure 6
10000000
00000000
10000000
00000000
00010000
01000000
00010000
01000000
00010000
00000000
00000000
10000000
00000000
00000000
01000000
00000000
,  // measure 7
00100000
00000000
00100000
00000000
00001000
00000000
00001000
00000000
00010000
00000000
00000000
00011000
00000000
00000000
00010000
00000001
,  // measure 8
00010000
00000000
00000001
00000000
00000001
00000000
00000001
00000000
00001000
00000000
00000000
00001010
00000000
00000000
00000010
00000000
,  // measure 9
00000100
00000000
00000100
00000000
00000001
00001000
00000001
00001000
00000001
00000000
00000000
00001000
00000000
00000000
00010000
00000000
,  // measure 10
00100000
00000000
00100000
00000000
01000000
10000000
01000000
10000000
01000000
00000000
00000000
10000000
00000000
00000000
00100000
00000000
,  // measure 11
01000000
00000000
00001000
01000000
00001000
00000000
00010000
00001000
00010000
00000000
00000100
00000010
00000100
00000010
00000100
00000000
,  // measure 12
00000001
00001000
00000000
00000001
00001000
00000000
00000001
00001000
00000100
00001000
00000100
00001000
00000100
00000000
00000000
00000000
,  // measure 13
00010000
00000000
00001000
00000000
01000000
00100000
01000000
00000000
00010000
00000000
10000000
01000000
00000000
10000000
00010000
00000000
,  // measure 14
01000000
00100000
01000000
00000000
00001000
00010000
00001000
00000000
00010000
00000100
00010000
00000100
00010000
00000000
00000100
00000000
,  // measure 15
00000010
00000000
00000010
00000000
00000001
00000000
00000001
00000000
00001000
00000000
00000000
00001100
00000000
00000000
00001000
00000001
,  // measure 16
00001000
00000000
00000100
00000000
00010000
00000000
00010000
00000000
00001000
00000000
00000000
00101000
00000000
00000000
00100000
00000000
,  // measure 17
01000000
00000000
10000000
00000000
00010000
01000000
00010000
00000000
10000000
00000000
01000000
00100000
00000000
00001000
00010000
00000000
,  // measure 18
00000100
00000010
00000100
00000000
00001000
00000010
00001000
00000000
00000001
00001000
00000001
00001000
00000001
00000000
00001000
00000000
,  // measure 19
00000100
00000000
00000100
00000000
00010000
00000000
00010000
00000000
00001000
00000000
00000000
01001000
00000000
00000000
01000000
00000000
,  // measure 20
00010000
10000000
00000000
00010000
10000000
00000000
00010000
10000000
00100000
10000000
00100000
10000000
00100000
00000000
00000000
00000000
,  // measure 21
10000000
00000000
02000000
00000000
00000000
03200000
00000000
00000000
00302000
00000000
00000000
00023000
00000000
00000000
00030010
00000000
,  // measure 22
00000200
00000000
00000000
00000302
00000000
00000000
00002003
00000000
00000000
00003020
00000000
00000000
00020030
00000000
00000000
00030000
,  // measure 23
00000000
00000000
00002000
00000000
00000000
00023000
00000000
00000000
00230000
00000000
00000000
02300000
00000000
00000000
13000000
00000000
,  // measure 24
00002000
00000000
00000000
00203000
00000000
00000000
00302000
00000000
00000000
00023000
00000000
00000000
00030010
00000100
00000010
00000100
,  // measure 25
00000010
00000000
00000000
00000010
00000000
00000000
00000010
00000000
00000101
00000000
00000000
00000101
00000000
00000000
00000101
00000000
,  // measure 26
00010001
00000000
00000000
00010001
00000000
00000000
00010001
00000000
00001000
00010000
00000000
00010000
00001000
00000000
00100000
00000000
,  // measure 27
01000000
10000000
01000000
10000000
00010000
10000000
00010000
10000000
01000000
00100000
01000000
00100000
00001000
00010000
00001000
00010000
,  // measure 28
00002000
00000000
00000000
00000000
00010000
00000000
00000000
00000000
00013000
00001000
00010000
00001000
00010000
00000000
00000000
00000000
,  // measure 29
00000100
00000000
00000010
00000000
00000001
00001000
00000001
00000000
00010000
00000100
00010000
00000000
00001000
00000000
00010000
00000000
,  // measure 30
00001000
01000000
00001000
00000000
10000000
00000000
01000000
00000000
10000000
00100000
10000000
00000000
00001000
01000000
00001000
00000000
,  // measure 31
00010000
00000000
00000100
00000010
00000100
00000000
00010000
00000100
00010000
00000000
00000001
00001000
00000001
00000000
00001000
00000000
,  // measure 32
00000100
00001000
00000100
00001000
00000100
00001000
00000100
00000000
00010000
00001000
00010000
00001000
00010000
00001000
00010000
00000000
,  // measure 33
00001000
00000000
01000000
00000000
00100000
10000000
00100000
00000000
01000000
00100000
01000000
00000000
00010000
00000000
10000000
00000000
,  // measure 34
00010000
00100000
00010000
00000000
00100000
00000000
00001000
00000000
00010000
00001000
00010000
00000000
00000100
00000000
00000010
00000000
,  // measure 35
00000001
00000000
00001000
00000010
00001000
00000000
00000010
00001000
00000010
00000000
00010000
00001000
00010000
00000000
00100000
00000000
,  // measure 36
02000000
00000000
00000000
13000000
,  // measure 37
00010000
00000000
10000000
00000000
00010000
00100000
01000000
00000000
00100000
00001000
00100000
00001000
00100000
00000000
00001000
00000000
,  // measure 38
00010000
00000100
00010000
00000100
00010000
00000000
00000100
00000000
00000010
00000001
00000010
00000001
00000010
00000000
00000100
00000000
,  // measure 39
00010000
00000000
00001000
01000000
00001000
00000000
01000000
00100000
01000000
00000000
00100000
10000000
00100000
00000000
10000000
00000000
,  // measure 40
01000000
00100000
01000000
00100000
01000000
00100000
01000000
00000000
10000000
00100000
10000000
00100000
10000000
00100000
10000000
00000000
,  // measure 41
00010000
00000000
00100000
00010000
00100000
00000000
00001000
00000000
00010000
00001000
00010000
00000000
00010010
00000000
00000000
00000000
,  // measure 42
00000100
00000000
00000001
00000100
00000001
00000000
00010000
00000000
00001000
00010000
00001000
00000000
00101000
00000000
00000000
00000000
,  // measure 43
01000000
00000000
10000000
00100000
01000000
00000000
00010000
01000000
00100000
01000000
00100000
01000000
00001000
00010000
00001000
00010000
,  // measure 44
00002000
00000000
00000000
00013000
,  // measure 45
00000010
00000000
00000010
00000000
00000100
00000000
00000100
00000000
00000001
00000000
00000000
00000001
00000000
00000000
00001000
00000100
,  // measure 46
00001000
00000000
00000100
00000000
00010000
00000000
00010000
00000000
00001000
00000000
00000000
00001000
00000000
00000000
00100000
00000000
,  // measure 47
01000000
00000000
01000000
00000000
10000000
00000000
10000000
00000000
00001000
00000000
00000000
00001000
00000000
00000000
00010000
00001000
,  // measure 48
00010000
00000000
00000010
00000000
00000100
00000000
00000100
00000000
00000001
00000000
00000000
00000001
00000000
00000000
00000010
00000000
,  // measure 49
00000100
00000100
00001000
00001000
00010000
00010000
01000000
01000000
,  // measure 50
00100000
00000000
00100000
00000000
00100000
00000000
00100000
00000000
01000000
00100000
01000000
00100000
01000000
00100000
01000000
00100000
,  // measure 51
01000000
00010000
00100000
01000000
20000000
00000000
30010000
00000000
,  // measure 52
01000000
00000000
00100000
00000000
01000000
00000000
00001000
00000000
00010000
00001000
00010000
00001000
00010000
00000000
00000000
00000000
,  // measure 53
00011000
00001000
00011000
00001000
00011000
00001000
00010000
00010000
,  // measure 54
00000010
00000000
00000100
00000000
00000001
00000000
00000010
00000000
00000100
00000000
00000100
00000000
00001000
00000010
00001000
00000010
,  // measure 55
00010000
00000000
00000000
00011000
00000000
00000000
00002000
00000000
00000000
00000000
00000000
00000000
00003000
00000000
00000000
00000000
,  // measure 56
00010000
00001000
00010000
00001000
00010000
00000000
00000000
00000000
00000100
00000000
00000100
00000000
00001000
00000010
00001000
00000010
,  // measure 57
00010000
00000000
00001000
00100000
00000000
01000000
00100000
00000000
00010000
00000000
00010000
00000000
10000000
01000000
10000000
01000000
,  // measure 58
00100000
00000000
00001000
00010000
00000000
00000010
00001000
00000000
00000001
00000000
00000001
00000000
00001000
00000000
00001000
00000000
,  // measure 59
00000010
00000000
00000000
00000110
00000000
00000000
00000100
00000001
00010000
00000000
00010000
00000000
00001000
00000000
00001000
00000000
,  // measure 60
00100000
00000000
00000000
00100000
00000000
00000000
01000000
00000000
10000000
00000000
10000000
00000000
00010000
00100000
00010000
00100000
,  // measure 61
00001000
00000000
00010000
00001000
00000000
00010000
00000010
00000000
00000100
00000000
00000100
00000000
00000001
00000010
00000001
00000010
,  // measure 62
00000100
00000000
00010000
00001000
00000000
00100000
01000000
00000000
10000000
00000000
00010000
00100000
01000000
00000000
00100000
00010000
,  // measure 63
00100000
00010000
01000000
00100000
01000000
00100000
10000000
00000000
00010000
10000000
00000000
00010000
10000000
00000000
00010000
10000000
,  // measure 64
00100000
10000000
00100000
10000000
00100000
00000000
00000000
00000000
10000000
00000000
01000000
00000000
00100000
00001000
00010000
00001000
,  // measure 65
00100000
00000000
00000000
00001000
00010000
00000000
00000100
00000000
00000010
00000001
00000010
00000001
00000100
00000010
00000100
00000010
,  // measure 66
00001000
00000100
00000010
00000001
00010000
00000000
00001000
00000000
01000000
00000000
01000000
00000000
00100000
00000000
00100000
00000000
,  // measure 67
10100000
00000000
00000000
10010000
00000000
00000000
00010000
01000000
00100000
00000000
00100000
00000000
10000000
00000000
10000000
00000000
,  // measure 68
10001000
00000000
00000000
00101000
00000000
00000000
00001000
00000000
00010000
00001000
00010000
00000000
00000100
00000010
00000100
00000010
,  // measure 69
00000001
00000000
00000000
00000001
00000100
00000000
00000010
00000000
00010000
00001000
00010000
00001000
00100000
01000000
00100000
01000000
,  // measure 70
10000000
00100000
10000000
00100000
01000000
00000000
00010000
00000000
00100000
00000000
01000000
00100000
00010000
00000000
01000000
00100000
,  // measure 71
01000000
00001000
00100000
00001000
00100000
00001000
00010000
00001000
00010000
00000010
00000000
00010000
00000010
00000000
00010000
00000010
,  // measure 72
00000100
00000010
00000100
00000010
00000200
00000000
00000000
00000000
00000310
00000000
00000010
00000000
00001000
00000100
00000010
00000100
,  // measure 73
00001000
00000000
00000000
00011000
00000000
00000000
01001000
00000000
02200000
00000000
00000000
00000000
00000000
00000000
00000000
00000000
,  // measure 74
00000000
00000000
00000000
00000000
,  // measure 75
00000000
03300000
00000000
00000000
00000000
00000000
00000000
00000000
;

//---------------dance-single - ----------------
#NOTES:
     dance-single:
     :
     Beginner:
     3:
     0.145,0.189,0.139,0.000,0.000:
1000
0000
0000
0000
,
1000
0000
1000
0000
,
1001
0000
0000
0000
,
0001
0000
0000
0000
,
0100
0000
0010
0000
,
0100
0000
0000
0000
,
0110
0000
0000
0000
,
1001
0000
0000
0000
,
0001
0000
1000
0000
,
0001
0000
0000
0000
,
1001
0000
0000
0000
,
0110
0000
0000
0000
,
0010
0000
0100
0000
,
0010
0000
0000
0000
,
1000
0000
0001
0000
,
1000
0000
0000
0000
,
0001
0000
1000
0000
,
0001
0000
0000
0000
,
0010
0000
0100
0000
,
0010
0000
0000
0000
,
0110
0000
0000
0000
,
0000
0000
0000
0000
,
0010
0000
0000
0000
,
0000
0000
0000
0000
,
0010
0000
0010
0000
,
0010
0000
0010
0000
,
0110
0000
0000
0000
,
1001
0000
0000
0000
,
1000
0000
0000
0000
,
0001
0000
0000
0000
,
1000
0000
1000
0000
,
1000
0000
0000
0000
,
0010
0000
0000
0000
,
0100
0000
0000
0000
,
0010
0000
0010
0000
,
0010
0000
0000
0000
,
1000
0000
0100
0000
,
1000
0000
1000
0000
,
1000
0000
0000
0000
,
0001
0000
0001
0000
,
0001
0000
0000
0000
,
1000
0000
0000
0000
,
0100
0000
0010
0000
,
0100
0000
0000
0000
,
0110
0000
0000
0000
,
0000
0000
0000
0000
,
1001
0000
0000
0000
,
0000
0000
0000
0000
,
0001
0000
0001
0000
,
0001
0000
0000
0000
,
1001
0000
0000
0000
,
0100
0000
0100
0000
,
0000
0000
0000
0000
,
0000
0000
0110
0000
,
0010
0000
0100
0000
,
0000
0000
0110
0000
,
0010
0000
0100
0000
,
0010
0000
1000
0000
,
1000
0000
0001
0000
,
0001
0000
1000
0000
,
0100
0000
0010
0000
,
0100
0000
1000
0000
,
1000
0000
1001
0000
,
0000
0000
0001
0000
,
0100
0000
0010
0000
,
0100
0000
0001
0000
,
0001
0000
1000
0000
,
1000
0000
0001
0000
,
0010
0000
0100
0000
,
0010
0000
0001
0000
,
0001
0000
0001
0000
,
0000
0000
1001
0000
,
0010
0000
0110
0000
;
