#TITLE:BLUST OF WIND;
#SUBTITLE:;
#ARTIST:Anemo=Aspel by MLREC.;
#TITLETRANSLIT:;
#SUBTITLETRANSLIT:;
#ARTISTTRANSLIT:;
#CREDIT:DigiMindAxel;
#BANNER:BLUST OF WIND.png;
#BACKGROUND:BLUST OF WIND-bg.png;
#LYRICSPATH:;
#CDTITLE:beatmania IIDX.png;
#MUSIC:BLUST OF WIND.ogg;
#METERTYPE:DDR X;
#OFFSET:-0.390;
#SAMPLESTART:15.276;
#SAMPLELENGTH:12.000;
#SELECTABLE:YES;
#BPMS:0.000=145.000;
#STOPS:;
#BGCHANGES:-4.000=BLUST OF WIND.avi=1.000=1=1=0,
99999=-nosongbg-=1.000=0=0=0 // don't automatically add -songbackground-
;

//---------------dance-single - ----------------
#NOTES:
     dance-single:
     :
     Easy:
     3:
     0.173,0.205,0.050,0.259,0.000:
0000
0000
0000
0000
,
0000
0000
0000
0000
,
0000
0000
0000
0000
,
0000
0000
0000
0000
,
0000
0000
0000
0000
,
1000
0000
0002
0000
,
0103
0000
0020
0000
,
1030
0000
0001
0000
,
0000
1000
0001
0000
0000
0000
0000
0000
,
0200
0000
0302
0000
,
0203
0000
0301
0000
,
1000
0000
0100
0000
,
2000
0000
0000
3000
,
0020
0000
2030
0000
,
3020
0000
1030
0000
,
0001
0000
0010
0000
,
0002
0000
0000
0000
,
2003
0000
0000
0000
,
3001
0000
1000
0000
,
0001
0000
0100
0000
,
0001
0000
1000
0000
,
0100
0000
1000
0000
,
0001
0000
0010
0000
,
0100
0000
1000
0000
,
0001
0000
1000
0000
,
0002
0000
0000
0000
,
1003
0000
0010
0000
,
1000
0000
0010
0000
,
0100
0000
0001
0000
,
0100
0000
0001
0000
,
1000
0000
0000
0000
,
0000
0000
0000
0000
,
0001
0000
0010
0000
,
0001
0000
0010
0000
,
0100
0000
1000
0000
,
0220
0000
0000
0330
,
1000
0000
0010
0000
,
0100
0000
0001
0000
,
1000
0000
0001
0000
,
0220
0000
0000
0330
,
0001
0000
0100
0000
,
0010
0000
1000
0000
,
0001
0000
1000
0000
,
0020
0000
0000
0000
,
0130
0000
0100
0000
,
0110
0000
0000
0000
,
2002
0000
0000
0000
,
3003
0000
1001
0000
,
0001
0000
0100
0000
,
0001
0000
1000
0000
,
0100
0000
1000
0000
,
0100
0000
0010
0000
,
0001
0000
0010
0000
,
0001
0000
1000
0000
,
0001
0000
0010
0000
,
0200
0000
0000
0000
,
0320
0000
0000
0030
,
0002
0000
2003
0000
,
3002
0000
0000
0000
,
1003
0000
0100
0000
,
0010
0000
0001
0000
,
2000
0000
3002
0000
,
2003
0000
0000
0000
,
3001
0000
0010
0000
,
0200
0000
0000
0000
,
0320
0000
0000
0000
,
0230
0000
0000
0000
,
0300
0000
0000
0000
0000
0000
0000
2000
,
0000
0000
0000
0000
,
0000
3001
0000
0000
0100
0000
0000
0000
,
1001
0000
0000
0000
;

//---------------dance-single - ----------------
#NOTES:
     dance-single:
     :
     Medium:
     7:
     0.417,0.468,0.217,0.376,0.038:
0000
0000
0000
0000
,
0000
0000
0000
0000
,
0000
0000
0000
0000
,
0000
0000
0000
0000
,
0000
0000
0000
0000
,
1001
1000
0010
1000
,
0001
0010
0001
0010
,
0100
0010
0100
1000
,
0000
0000
0001
0000
1000
0000
0000
0000
0010
0000
0000
0010
0000
0000
0000
0000
,
2000
3200
2300
3002
,
0203
0000
0302
0000
1003
0000
0010
1000
,
0010
0000
0100
0001
0100
0000
0001
1000
,
0002
0000
1003
1001
,
0002
0023
0032
2003
,
3020
0000
2030
0000
3001
0000
1000
0100
,
2000
0000
0001
0000
3001
0000
1000
0001
,
2000
0000
3200
0000
,
0302
0000
0203
0000
,
1300
0000
0100
0000
0010
0000
0001
0100
,
0010
0000
1000
0010
1010
0000
1000
0000
,
0001
0000
0010
0000
0100
0000
1000
0010
,
0100
0000
0001
0100
0000
0001
0000
1000
,
0001
0000
0010
0000
0100
0000
1000
0010
,
0100
0000
0001
0100
0101
0000
0001
0000
,
1000
0100
0010
0001
,
2000
0001
0001
3001
,
1001
0000
0100
0000
0100
0010
0100
0000
,
0001
0000
1000
0000
0010
0100
0010
0000
,
1000
0000
0001
0000
0100
0001
1000
0000
,
0001
0000
1000
0000
0010
1000
0001
0000
,
0002
0000
2003
0000
,
3002
0000
0000
0000
0000
1000
0000
0000
,
1003
0000
1100
0000
0001
0100
0001
0000
,
1000
0100
0010
0000
0101
0000
0101
0000
,
1000
0100
1000
0000
0001
0010
0100
0000
,
1000
0000
0000
1001
0000
0000
0000
0000
0000
0000
0000
0000
0001
0000
0100
0000
,
0001
0000
1000
0100
1000
0000
0100
0010
,
0100
1000
0010
0100
,
0001
1000
0001
0000
1000
0100
0010
0000
,
0001
0000
0000
1001
0000
0000
0000
0000
0000
0000
0000
0000
1000
0000
0010
0000
,
1000
0000
0001
0010
0001
0000
0010
0100
,
0010
0001
0100
0010
,
1000
0001
1000
0000
0001
0010
0100
0000
,
2000
0001
0001
3001
,
0101
0000
1100
0000
,
1001
0000
0200
0000
,
0000
0000
0000
0301
0000
0000
0000
0000
0000
0000
0000
0000
0000
0000
0000
1000
0000
0000
0000
0000
0000
0200
0000
0000
0000
0000
0000
0000
0000
0000
0000
0000
0000
0000
0000
0000
0000
0000
0000
0000
0000
0000
0000
0000
1300
0000
0000
0000
,
0000
0000
0000
0000
0001
0000
0000
0000
1001
0000
0000
1001
0000
0000
0000
0000
,
2000
0010
3010
0110
,
0001
0010
0001
0000
0010
0100
1000
0000
,
0010
1010
0001
0011
,
1000
0100
1000
0000
0100
0010
0001
0000
,
0100
0101
1000
1100
,
0001
0100
0001
0000
1000
0010
1000
0000
,
1001
0001
0110
1000
,
0001
1000
0001
1000
0001
0000
0100
0000
,
0020
0000
0000
0030
,
2000
3020
2030
3002
,
0023
0032
0023
0032
,
1003
0000
0001
0100
0001
0000
1000
0100
,
1100
0010
0001
1000
,
0002
0023
0032
2003
,
3020
2030
3020
2030
,
3001
0000
1000
0010
1000
0000
0001
0010
,
0011
0100
1000
0001
,
0100
0010
1000
1001
,
0100
0010
0001
1000
,
0020
0000
0000
0000
0000
0000
0000
0200
,
0000
0000
0000
0330
,
0000
0000
1000
0000
0001
0000
0000
0000
0100
0000
0000
0100
0000
0000
0100
0000
,
1001
0000
0000
0000
;

//---------------dance-single - ----------------
#NOTES:
     dance-single:
     :
     Hard:
     12:
     0.550,0.527,0.209,0.059,0.422:
0000
0000
0000
0000
,
0000
0000
0000
0000
,
0000
0000
0000
0000
,
0000
0000
0000
0000
,
0000
0000
0000
0000
,
1000
0010
0100
0000
0001
0100
1000
0000
,
1000
0100
0001
0000
0100
0001
1000
0000
,
0001
0010
1000
0000
1000
0010
0001
0000
,
0000
0000
1000
0000
1001
0000
0000
0000
0110
0000
0000
0110
0000
0000
0000
0000
,
1001
0000
0000
0001
0100
0000
0000
0000
0100
0000
0000
0100
1000
0000
0000
0000
,
1000
0000
0000
1000
0100
0000
0000
0000
0100
0000
0000
0100
0001
0000
0010
0000
,
0100
0000
0000
1000
0001
0000
0100
0000
0001
0000
0000
1000
0010
0000
0100
0000
,
0010
1000
0100
0000
0010
0000
0001
0000
,
1001
0000
0000
1000
0100
0000
0000
0000
0100
0000
0000
0100
0001
0000
0000
0000
,
0001
0000
0000
0001
0100
0000
0000
0000
0100
0000
0000
0100
1000
0000
0100
0000
,
0010
0000
0000
0001
1000
0000
0100
0000
1000
0000
0000
0001
0010
0000
0100
0000
,
0010
0001
0010
0000
0100
0010
0100
0000
,
1000
0000
0100
0000
1000
0000
0000
0000
0010
0000
0100
0000
0010
0000
0000
1000
,
0001
0000
0100
0000
0001
0000
0000
0100
0001
0000
1000
0000
0100
0000
0000
0000
,
1000
0000
0100
0000
0001
0000
0000
0000
0100
0000
0000
0000
1000
0000
0000
0001
,
1000
0000
0010
0000
1000
0000
0000
0010
1000
0000
0001
0000
0010
0000
0000
0000
,
0001
0100
0010
1000
0001
1000
0001
1000
,
0100
0000
1000
0000
0001
0000
0000
0100
0001
0000
1000
0000
0100
0000
0000
0000
,
1000
0000
0100
0000
0001
0000
0000
0000
0100
0000
0000
0000
1000
0000
0000
0001
,
1000
0000
0010
0000
0100
0000
0000
0010
0100
0000
0001
0000
0010
0000
0100
0000
,
2000
0001
0001
3001
,
0100
0000
0001
0000
1000
0000
0000
0000
0100
0000
0000
1000
0001
0000
1000
0000
,
0010
0000
1000
0000
0001
0000
0000
0000
0010
0000
0000
0001
1000
0000
0001
0000
,
0100
0000
0001
0000
1000
0000
0000
0000
0100
0000
0000
1000
0001
0000
1000
0000
,
0010
0000
1000
0000
0001
0000
0000
0000
0010
0000
0000
0001
1000
0000
0100
0000
,
0010
0010
0100
0100
,
0010
0000
0000
0000
0010
0000
0000
0000
0000
0000
0001
0000
0000
1000
0000
0000
,
1001
0000
0000
0100
0001
0000
1000
0000
0100
0000
0000
0010
0100
0000
1000
0000
,
0001
0000
0001
0000
0100
0000
0010
0000
0100
0000
0000
0010
1000
0000
0001
0000
,
0010
0000
0000
0100
0010
0000
0001
0000
1000
0000
1000
0000
0010
0000
0010
0000
,
0101
0000
0000
0101
0000
0000
1000
0000
0100
0000
0000
1000
0000
0000
0001
0100
,
0000
0001
0000
0000
1001
0000
0000
0000
0100
0000
0000
0000
1001
0000
0000
0000
,
0100
0000
0001
0000
0010
0000
0000
0000
0100
0000
0000
1000
0001
0000
0010
0000
,
0100
0000
0000
1000
0001
0000
0100
0000
0010
0000
0000
0100
0010
0000
1000
0000
,
1010
0000
0000
0000
0000
0000
0000
0000
0000
1000
0000
0000
0000
0000
0000
0001
0000
0000
0000
0000
0000
0010
0000
0000
0000
0000
0000
0000
0000
0000
0000
0000
0001
0000
0000
0000
0010
0000
0000
0000
0100
0000
0000
0000
1000
0000
0000
0000
,
0001
1001
0100
1001
,
0100
0000
1000
0000
0010
0000
0000
0000
0100
0000
0000
0001
1000
0000
0100
0000
,
0010
0000
0000
0001
1000
0000
0010
0000
0100
0000
0000
0010
0100
0000
0001
0000
,
0020
0001
0001
0031
,
0011
0000
0100
0000
1000
0000
0010
0000
0100
0000
0001
0000
,
1001
0000
0000
0000
0000
0000
0100
0000
0100
0000
0100
0000
,
0000
0000
0000
0001
0000
0000
1000
0000
0000
0001
0000
0000
0000
0000
0000
0100
0000
0000
0000
0000
0000
0010
0000
0000
0000
0000
0000
1000
0000
0000
0000
0000
0010
0000
0000
0000
1000
0000
0000
0000
0001
0000
0000
0000
0010
0000
0000
0000
,
0000
0000
0000
0001
0000
0000
0101
0000
0101
0000
1000
0000
,
0010
0000
0100
0000
0010
0000
0000
0000
0100
0001
0000
0001
1000
0000
0100
0000
,
1000
0000
0000
0100
1000
0000
0001
0000
0100
0000
0000
0010
1000
0000
0001
0000
,
0100
0000
0010
0000
0100
0000
0000
0000
0010
1000
0000
1000
0001
0000
0010
0000
,
0001
0000
0000
0010
0001
0000
1000
0000
0010
0000
0000
0100
0001
0000
1000
0000
,
0010
0000
0100
0000
0010
0000
0000
0000
0100
0001
0000
0001
1000
0000
0100
0000
,
1000
0000
0000
0100
1000
0000
0001
0000
0100
0000
0000
0010
1000
0000
0001
0000
,
0010
0000
0100
0000
0010
0000
0000
0001
1000
0000
0100
0000
0010
0000
0100
0000
,
1000
0001
1000
0001
1000
0000
0010
0000
0100
0000
0000
0001
0000
0000
1000
0000
,
0020
0000
0000
0000
0000
0000
0000
0000
0000
0000
0000
0130
0000
0000
0000
0000
,
1001
0000
0000
0001
0100
0000
0000
0000
0100
0000
0000
0100
1000
0000
0000
0000
,
1000
0000
0000
1000
0100
0000
0000
0000
0100
0000
0000
0100
0001
0000
0010
0000
,
0100
0000
0000
1000
0001
0000
0010
0000
0001
0000
0000
1000
0010
0000
0100
0000
,
0020
0000
0000
1000
0000
0000
1030
0000
0002
0000
0000
0100
0000
0000
0103
0000
,
1001
0000
0000
1000
0100
0000
0000
0000
0100
0000
0000
0100
0001
0000
0000
0000
,
0001
0000
0000
0001
0100
0000
0000
0000
0100
0000
0000
0100
1000
0000
0100
0000
,
0010
0000
0000
0001
1000
0000
0100
0000
1000
0000
0000
0001
0100
0000
0010
0000
,
0100
0000
0001
0000
2000
0000
0000
0000
0001
0000
0000
0001
0000
0000
3001
0000
,
0100
0000
0000
0010
0000
0000
1000
0000
0001
0000
0000
0110
0000
0000
1000
0000
,
1001
0000
0000
0001
1000
0000
0010
0000
0100
0000
0000
0010
0100
0000
0001
0000
,
0000
1000
0100
0010
0001
1000
0100
0020
,
0000
0000
0000
0000
0100
0000
0000
0000
0000
0000
0000
0130
0000
0000
0000
0000
,
0000
0000
1000
0001
1000
0001
0000
0000
0101
0000
0000
0101
0000
0000
1100
0000
,
1001
0000
0000
0000
;

//---------------dance-single - ----------------
#NOTES:
     dance-single:
     :
     Beginner:
     2:
     0.093,0.146,0.100,0.000,0.000:
0000
0000
0000
0000
,
0000
0000
0000
0000
,
0000
0000
0000
0000
,
0000
0000
0000
0000
,
0000
0000
0000
0000
,
1000
0000
0000
0000
,
0001
0000
0000
0000
,
1000
0000
0000
0000
,
0000
0000
0000
0000
,
1001
0000
0001
0000
,
0001
0000
0000
0000
,
1000
0000
0001
0000
,
1000
0000
0000
0000
,
1001
0000
1000
0000
,
1000
0000
0000
0000
,
0001
0000
1000
0000
,
0001
0000
0000
0000
,
0000
0000
0000
0000
,
0100
0000
0000
0000
,
0100
0000
0000
0000
,
0010
0000
0000
0000
,
0010
0000
0000
0000
,
0100
0000
0000
0000
,
0100
0000
0000
0000
,
0010
0000
0000
0000
,
0010
0000
0000
0000
,
1000
0000
0000
0000
,
0001
0000
0000
0000
,
1000
0000
0000
0000
,
1000
0000
0000
0000
,
1001
0000
0000
0000
,
0000
0000
0000
0000
,
0001
0000
0000
0000
,
1000
0000
0000
0000
,
0001
0000
0000
0000
,
1001
0000
0000
0000
,
0100
0000
0000
0000
,
0010
0000
0000
0000
,
0100
0000
0000
0000
,
0110
0000
0000
0000
,
1000
0000
0000
0000
,
0001
0000
0000
0000
,
1000
0000
0000
0000
,
1000
0000
0000
0000
,
1001
0000
0000
0000
,
0000
0000
0000
0000
,
0001
0000
0000
0000
,
0000
0000
0000
0000
,
1001
0000
0000
0000
,
0001
0000
0000
0000
,
1000
0000
0000
0000
,
0001
0000
0000
0000
,
0100
0000
0000
0000
,
0010
0000
0000
0000
,
0100
0000
0000
0000
,
0100
0000
0000
0000
,
0000
0000
0000
0000
,
1001
0000
0001
0000
,
0001
0000
0000
0000
,
1000
0000
0001
0000
,
1000
0000
0000
0000
,
1001
0000
1000
0000
,
1000
0000
0000
0000
,
0001
0000
1000
0000
,
0001
0000
0000
0000
,
0000
0000
0000
0000
,
1001
0000
0000
0000
,
0000
0000
0000
0000
0000
0000
0000
1000
,
0000
0000
0000
0000
,
0000
1001
0000
0000
0000
0000
0000
0000
,
1001
0000
0000
0000
;

//---------------dance-single - ----------------
#NOTES:
     dance-single:
     :
     Challenge:
     14:
     0.658,0.732,0.284,0.059,0.661:
0000
0000
0000
0000
,
0000
0000
0000
0000
,
0000
0000
0000
0000
,
0000
0000
0000
0000
,
0000
0000
0000
0000
,
1000
0000
0001
0000
0010
0000
0100
1000
0020
0000
0000
0100
0000
0000
0130
0000
,
0001
0000
1000
0001
1000
0100
0010
0001
,
0200
0000
0000
0310
1000
0100
1000
0010
,
0000
0000
1010
0000
1010
0000
0000
0000
1001
0000
0000
1001
0000
0000
0001
0000
,
0100
0000
0000
0100
0001
0000
1000
0000
0100
0000
0000
0100
0010
0000
0001
0000
,
0100
0000
0010
0100
0000
0010
0000
1000
0000
0000
0000
0001
1000
0000
0100
0000
,
0010
0000
0000
0010
0100
0000
1000
0000
0001
0000
0000
0001
0100
0000
0010
0000
,
1000
0000
0100
0000
1000
0000
0000
0000
0010
0100
0000
0100
0001
0000
0010
0000
,
0100
0000
0000
0100
1000
0000
0100
0000
0010
0000
0000
0010
0001
0000
0100
0000
,
0010
0000
1000
0010
0000
1000
0000
0001
0000
0000
0000
0010
0100
0000
1000
0000
,
0010
0000
0000
0010
0100
0000
0001
0000
0010
0000
0000
0010
0100
0000
1000
0000
,
0001
0010
0001
0010
0001
0000
1000
0000
0010
1000
0010
1000
0010
0000
1000
0000
,
0100
0010
0100
0010
0100
0000
1000
0000
0010
1000
0010
1000
0010
0000
1000
0000
,
0001
0000
0010
0000
0100
0000
0010
0001
0010
0000
0001
0000
1000
0000
0000
0000
,
0100
0000
0010
0000
0001
0000
0100
0010
0100
0000
0001
0000
1000
0000
0000
0000
,
0100
0000
1000
0000
0001
0000
1000
0100
1000
0000
0010
0000
0100
0000
0000
0000
,
0001
1000
0100
0001
0100
1000
0001
0001
,
1000
0000
0100
0000
0010
0000
0001
0100
0001
0000
0010
0000
0100
0000
0000
0000
,
1000
0000
0001
0000
0100
0000
0001
1000
0001
0000
0010
0000
0100
0000
0000
0000
,
0010
0000
0001
0000
0100
0000
0010
0100
0010
0000
1000
0000
0100
0000
0010
0000
,
0001
0100
1000
0100
,
1001
0000
0010
0000
0100
0000
1000
0000
0001
0100
0000
0100
0001
0000
1000
0000
,
0100
0000
0010
0000
0001
0000
0100
0000
0010
1000
0000
1000
0001
0000
0010
0000
,
0100
0000
1000
0000
0010
0000
0100
0000
0001
1000
0000
1000
0001
0000
0010
0000
,
0100
0000
0010
0000
0001
0000
1000
0000
0001
0010
0000
0010
0100
0000
1000
0000
,
1001
0001
1000
1000
,
0001
0000
0000
0000
0001
0000
0000
0000
0000
0000
0011
0000
0000
0011
0000
0000
,
1001
0000
0000
1000
0010
0000
0100
0000
0001
1000
0000
1000
0001
0000
0010
0000
,
0100
1000
0100
1000
0100
1000
0100
1000
0100
0000
0000
1000
0001
0000
0010
0000
,
0100
0000
0000
0100
1000
0000
0010
0000
0100
0001
0000
0001
1000
0000
0100
0000
,
1100
0000
0000
1100
0000
0000
1100
0000
1002
0000
0000
1000
0000
0000
1003
0001
,
0000
0010
0000
0000
0100
1000
0100
0000
0010
0000
0000
0000
0001
0100
0001
0000
,
0010
0000
0100
1000
0010
0000
0000
0000
1000
0010
0000
0010
0100
0000
0001
0000
,
0010
0000
0100
1000
0010
0000
0000
0000
1000
0001
0000
0001
0010
0000
0100
0000
,
0110
0000
0000
0000
0000
0000
0000
0000
0000
1010
0000
0000
0000
0000
0000
0010
0000
0000
0000
0000
0000
1000
0000
0000
0000
0000
0000
0000
0000
0000
0000
0000
0001
0000
0000
0000
0010
0000
0000
0000
0100
0000
0000
0000
1000
0000
0000
0000
,
0010
0000
0000
0000
0100
0001
0100
0000
0010
0000
0000
0000
1000
0100
1000
0000
,
0001
0100
0000
0010
0000
0000
1000
0000
0010
0100
0000
0100
0010
0000
1000
0000
,
0001
1000
0000
0100
0000
0000
0010
0000
0001
1000
0000
1000
0001
0000
0010
0000
,
0100
1000
0010
0001
,
1010
0000
1010
0000
0110
0000
0110
0000
0011
0000
0011
0000
,
2001
0000
0000
0000
0000
0000
0001
0000
3001
0010
0100
1000
,
0000
0000
0000
0010
0000
0000
0100
0000
0000
0001
0000
0000
0000
0000
0000
0001
0000
0000
0000
0000
0000
1000
0000
0000
0000
0000
0000
1000
0000
0000
0000
0000
0100
0000
0000
0000
0001
0000
0000
0000
0100
0000
0000
0000
1000
0000
0000
0000
,
0000
0000
0000
1001
0000
0000
0011
0000
0011
0000
0110
0000
,
0110
0000
0010
0000
1000
0000
0001
0000
0010
0001
0000
0001
1000
0000
0000
0000
,
0010
0000
1000
0000
0100
0000
0010
0000
0001
1000
0000
1000
0100
0000
0000
0000
,
1000
0000
0001
0000
0010
0000
0100
0000
0010
0001
0000
0001
1000
0000
0000
0000
,
0010
0000
1000
0000
0001
0000
0010
0000
0100
1000
0000
1000
0001
0000
0000
0000
,
1000
0001
1000
0000
0001
0010
0001
0000
0100
0010
0000
0010
1000
0000
0000
0000
,
0100
0000
0010
0001
0000
0100
0000
0010
0000
0000
1000
0000
0001
0000
0010
0000
,
0100
1000
0000
1000
0010
0000
0100
0000
0001
1000
0000
1000
0100
0000
0010
0000
,
0001
0100
0001
0100
0001
0100
0001
0100
0001
0000
0000
1000
0001
0000
0010
0000
,
0100
0000
0000
0000
1000
0000
0000
0000
0010
0000
0000
0010
0000
0000
0000
0000
,
1001
0000
0000
0001
0100
0000
0010
0000
0100
0000
0000
0100
0010
0000
1000
0000
,
0100
0000
0010
0001
0000
0100
0000
0001
0000
0000
0000
0100
0010
0000
1000
0000
,
0100
0000
0000
0100
0010
0000
0001
0000
1000
0000
0000
1000
0001
0000
0010
0000
,
0200
0000
0000
1000
0000
0000
1300
0000
0020
0000
0000
0100
0000
0000
0130
0000
,
1001
0000
0000
0001
1000
0000
0100
0000
0010
0000
0000
0010
0001
0000
0100
0000
,
0010
0000
1000
0010
0000
1000
0000
0001
0000
0000
0000
0010
0100
0000
1000
0000
,
0010
0000
0000
0010
0100
0000
0001
0000
0010
0000
0000
0010
0001
0000
1000
0000
,
1001
0010
0100
1000
,
0001
0000
0000
0001
0000
0000
0100
0000
0010
0000
0000
0010
0000
0000
1000
0000
,
0001
0000
0000
0001
1000
0000
0100
0000
0010
0000
0000
0010
0001
0000
0100
0000
,
0000
0000
0001
0100
0001
0100
0001
1000
0001
1000
0100
1000
0100
1000
0100
2000
,
0000
0000
0000
0000
0001
0000
0000
0000
0000
0000
0000
3001
0000
0000
0000
0000
,
0000
0000
1000
0010
0100
0001
0000
0000
0101
0000
0000
0101
0000
0000
1001
0000
,
1100
0000
0000
0000
;

//---------------dance-double - ----------------
#NOTES:
     dance-double:
     :
     Easy:
     5:
     0.206,0.263,0.075,0.251,0.000: // measure 1
00000000
00000000
00000000
00000000
,  // measure 2
00000000
00000000
00000000
00000000
,  // measure 3
00000000
00000000
00000000
00000000
,  // measure 4
00000000
00000000
00000000
00000000
,  // measure 5
00000000
00000000
00000000
00000000
,  // measure 6
10000000
00000000
01000000
00000000
,  // measure 7
00100000
00000000
00010000
00000000
,  // measure 8
01000000
00000000
00100000
00000000
,  // measure 9
00000000
01000000
01100000
00000000
,  // measure 10
02000000
00000000
23000000
00000000
,  // measure 11
30002000
00000000
00013000
00000000
,  // measure 12
00000010
00000100
00000010
00000100
,  // measure 13
00000020
00000000
00000000
00000030
,  // measure 14
00000200
00000000
00000302
00000000
,  // measure 15
00002003
00000000
00013000
00000000
,  // measure 16
00100000
01000000
10000000
00010000
,  // measure 17
20000000
00000000
00000000
00000000
,  // measure 18
32000000
00000000
00000000
00000000
,  // measure 19
03100000
00000000
00001000
00000000
,  // measure 20
00010000
00000000
00000100
00000000
,  // measure 21
00000010
00000000
00000001
00000000
,  // measure 22
00000010
00000000
00000100
00000000
,  // measure 23
00000010
00000000
00000001
00000000
,  // measure 24
00010000
00000000
00001000
00000000
,  // measure 25
00100000
00000000
01000000
00000000
,  // measure 26
20000000
00000000
00000000
00000000
,  // measure 27
30010000
10000000
00010000
00000000
,  // measure 28
10000000
00100000
10000000
00000000
,  // measure 29
00001000
00100000
00001000
00000000
,  // measure 30
00010000
00001000
00010000
00001000
,  // measure 31
00011000
00000000
00000000
00000000
,  // measure 32
00000000
00000000
00000000
00000000
,  // measure 33
00010000
00000000
00000010
00000100
,  // measure 34
00000010
00000000
00001000
00000000
,  // measure 35
00000001
00000000
00000100
00000000
,  // measure 36
00000220
00000000
00000000
00000330
,  // measure 37
00000010
00000000
00000001
00000000
,  // measure 38
00001000
00000100
00010000
00000000
,  // measure 39
00001000
00100000
01000000
00000000
,  // measure 40
02200000
00000000
00000000
03300000
,  // measure 41
01000000
00000000
10000000
00000000
,  // measure 42
00100000
01000000
00001000
00000000
,  // measure 43
00010000
00000000
00000100
00000010
,  // measure 44
00000002
00000000
00000000
00000000
,  // measure 45
00001003
00000000
00001000
00000000
,  // measure 46
00001001
00000000
00000000
00000000
,  // measure 47
00000220
00000000
00000000
00000000
,  // measure 48
00000330
00000000
00000110
00000000
,  // measure 49
00000010
00000000
00000100
00000000
,  // measure 50
00001000
00000000
00010000
00000000
,  // measure 51
01000000
00000000
00100000
00000000
,  // measure 52
01000000
00000000
00010000
10000000
,  // measure 53
00010000
00100000
00010000
00000000
,  // measure 54
00100000
00001000
00100000
00001000
,  // measure 55
00010000
00000000
00000100
00000000
,  // measure 56
00000020
00000000
00000000
00000000
,  // measure 57
00000002
00000000
00000000
00000033
,  // measure 58
00000200
00000000
00000320
00000000
,  // measure 59
00020030
00000000
00000000
00000000
,  // measure 60
00031000
00010000
00001000
01000000
,  // measure 61
00200000
00000000
02300000
00000000
,  // measure 62
03020000
00000000
00230000
00000000
,  // measure 63
02300000
00000000
00000000
00000000
,  // measure 64
13000000
00000000
00010000
10000000
,  // measure 65
00002000
00000000
00000000
00000000
,  // measure 66
00023000
00000000
00000000
00000000
,  // measure 67
00030010
00000100
00000010
00000100
,  // measure 68
00000010
00000000
00000000
00000000
00000000
00000000
00000000
00020000
,  // measure 69
00000000
00000000
00000000
00000000
,  // measure 70
00000000
00031000
00000000
00000000
00011000
00000000
00000000
00000000
,  // measure 71
01100000
00000000
00000000
00000000
;

//---------------dance-double - ----------------
#NOTES:
     dance-double:
     :
     Medium:
     8:
     0.429,0.439,0.201,0.309,0.038: // measure 1
00000000
00000000
00000000
00000000
,  // measure 2
00000000
00000000
00000000
00000000
,  // measure 3
00000000
00000000
00000000
00000000
,  // measure 4
00000000
00000000
00000000
00000000
,  // measure 5
00000000
00000000
00000000
00000000
,  // measure 6
10010000
00000000
10000000
00010000
10000000
00000000
01000000
00000000
,  // measure 7
00100000
00000000
00001000
00010000
00000010
00000000
00000100
00000000
,  // measure 8
00000001
00000010
00000100
00010000
,  // measure 9
00000000
00000000
00001000
00000000
00001000
00000000
00000000
00000000
01000000
00000000
00000000
01100000
00000000
00000000
00000000
00000000
,  // measure 10
20000000
30200000
02300000
03200000
,  // measure 11
20300000
00000000
30002000
00000000
00013000
00000000
00000010
00001000
,  // measure 12
00000010
00000000
00000100
00000001
00000010
00000000
00000100
00001000
,  // measure 13
00000100
00000000
00010000
00000000
00001000
00000000
01000000
00100000
,  // measure 14
20000000
32000000
03200000
02300000
,  // measure 15
23000000
00000000
30020000
00000000
00031000
00000000
00010000
00000010
,  // measure 16
00010000
00000000
00000100
00000000
00000010
00000000
00000001
00001000
,  // measure 17
00000010
00000010
00000010
00000000
00010000
00010000
00010000
00000000
,  // measure 18
00001000
00001000
00001000
00000000
00100000
00100000
00100000
00000000
,  // measure 19
01100000
00000000
01000000
00000000
10000000
00000000
01000000
00100000
,  // measure 20
00010000
00000000
00001000
00010000
00000010
00000000
00000100
00000001
,  // measure 21
00001000
00000000
00000100
00000000
00000010
00000000
00000100
00001000
,  // measure 22
00010000
00000000
01000000
00100000
00000000
10000000
00000000
01000000
,  // measure 23
00100000
00000000
00010000
00000000
01000000
00000000
00001000
00010000
,  // measure 24
00000100
00000000
00000010
00000001
00000100
00000000
00000001
00000010
,  // measure 25
00000100
00010000
00001000
00100000
,  // measure 26
02000000
10000000
10000000
13000000
,  // measure 27
10010000
00000000
00010000
00000000
00010000
10000000
01000000
00100000
,  // measure 28
00001000
00000000
00001000
00000000
00001000
00010000
00000010
00000100
,  // measure 29
00000010
00000000
00000010
00000000
00000010
00000100
00000001
00000000
,  // measure 30
00000001
00000000
00000010
00000000
00000100
00001000
00010000
00000000
,  // measure 31
00002000
00000000
02003000
00000000
,  // measure 32
03200000
00000000
00000000
00000000
00000000
01000000
00000000
00000000
,  // measure 33
01300000
00000000
10010000
00000000
00010000
00100000
00010000
00000000
,  // measure 34
00100000
01000000
10000000
00000000
11000000
00000000
01001000
00000000
,  // measure 35
00001000
00010000
00001000
00000000
00010000
00000010
00000100
00000000
,  // measure 36
00000010
00000000
00000000
00000110
00000000
00000000
00000000
00000000
00000000
00000000
00000000
00000000
00000100
00000000
00000100
00000000
,  // measure 37
00000100
00000000
00000001
00000001
00000001
00000000
00010000
00010000
,  // measure 38
00010000
00000000
00001000
00000000
00100000
01000000
10000000
00000000
,  // measure 39
00100000
01000000
00100000
00000000
01000000
00010000
10000000
00000000
,  // measure 40
00100000
00000000
00000000
01100000
00000000
00000000
00000000
00000000
00000000
00000000
00000000
00000000
01000000
00000000
01000000
00000000
,  // measure 41
01000000
00000000
00100000
00100000
00100000
00000000
00010000
00010000
,  // measure 42
00010000
00000000
00001000
00000000
00000010
00000100
00000001
00000000
,  // measure 43
00000100
00000010
00000100
00000000
00000001
00000010
00000100
00000000
,  // measure 44
00020000
00001000
00001000
00031000
,  // measure 45
01001000
00000000
01100000
00000000
,  // measure 46
11000000
00000000
10010000
00000000
,  // measure 47
00000000
00000000
00000000
00100000
00000000
00000000
00000000
00000000
00000000
00000000
00000000
00000000
00000000
00000000
00000000
01000000
00000000
00000000
00000000
00000000
00000000
00020000
00000000
00000000
00000000
00000000
00000000
00000000
00000000
00000000
00000000
00000000
00000000
00000000
00000000
00000000
00000000
00000000
00000000
00000000
00000000
00000000
00000000
00000000
10030000
00000000
00000000
00000000
,  // measure 48
00000000
00000000
00000000
00000000
00100000
00000000
00000000
00000000
01100000
00000000
00000000
01100000
00000000
00000000
00000000
00000000
,  // measure 49
01000000
00000000
10000000
00000000
00100000
01000000
00001000
00000000
,  // measure 50
00010000
00001000
00010000
00000000
00000100
00000010
00000001
00000000
,  // measure 51
00000100
00000110
00010000
00011000
,  // measure 52
01000000
00010000
01000000
00000000
00010000
10000000
00100000
00000000
,  // measure 53
10000000
10100000
01000000
01100000
,  // measure 54
00001000
00010000
00001000
00010000
00000010
00000100
00000010
00000000
,  // measure 55
00000110
00000100
00000101
00000001
,  // measure 56
00001000
00000100
00001000
00000100
00010000
00000000
00011000
00000000
,  // measure 57
00002000
00000000
00000000
00003000
,  // measure 58
00200000
02300000
03200000
00302000
,  // measure 59
00023000
00030020
00000230
00000320
,  // measure 60
00001030
00000000
00000001
00000010
00000100
00000000
00010000
00001000
,  // measure 61
01000000
00100000
10000000
01000000
,  // measure 62
00200000
00302000
00203000
00320000
,  // measure 63
00032000
00003020
00000230
00000302
,  // measure 64
00000013
00000000
00000100
00000010
00000001
00000000
00000100
00000010
,  // measure 65
00010000
00001000
01000000
00100000
,  // measure 66
10000000
01000000
00100000
01100000
,  // measure 67
01000000
10000000
00100000
01000000
,  // measure 68
00002000
00000000
00000000
00000000
00000000
00000000
00000000
00020000
,  // measure 69
00000000
00000000
00000000
00033000
,  // measure 70
00000000
00000000
00010000
00000000
00010000
00000000
00000000
00000000
00000100
00000000
00000000
00000100
00000000
00000000
00000100
00000000
,  // measure 71
00000110
00000000
00000000
00000000
;

//---------------dance-double - ----------------
#NOTES:
     dance-double:
     :
     Hard:
     12:
     0.558,0.527,0.418,0.100,0.335: // measure 1
00000000
00000000
00000000
00000000
,  // measure 2
00000000
00000000
00000000
00000000
,  // measure 3
00000000
00000000
00000000
00000000
,  // measure 4
00000000
00000000
00000000
00000000
,  // measure 5
00000000
00000000
00000000
00000000
,  // measure 6
10010000
00000000
00010000
00000000
00100000
01000000
10000000
00000000
,  // measure 7
00100000
01000000
00100000
00000000
10000000
00100000
01000000
00000000
,  // measure 8
00001000
00010000
00001000
00000000
00010000
00000010
00000100
00000010
,  // measure 9
00000000
00000000
00001000
00000000
00001001
00000000
00000000
00000000
00000101
00000000
00000000
00000101
00000000
00000000
00000000
00000000
,  // measure 10
00001001
00000000
00000000
00000001
00001000
00000000
00000100
00000000
00010000
00000000
00000000
00010000
00001000
00000000
00100000
00000000
,  // measure 11
01000000
00000000
00000000
01000000
10000000
00000000
00100000
00000000
01000000
00000000
00000000
00010000
00100000
00000000
00001000
00000000
,  // measure 12
00010000
00000000
00000000
00010000
00000100
00000000
00000010
00000000
00000001
00000000
00000000
00000001
00001000
00000000
00000100
00000000
,  // measure 13
00000010
00000001
00001000
00001001
,  // measure 14
00010010
00000000
00000000
00010000
00001000
00000000
00100000
00000000
01000000
00000000
00000000
01000000
10000000
00000000
00100000
00000000
,  // measure 15
01000000
00000000
00000000
01000000
00001000
00000000
00010000
00000000
00000100
00000000
00000000
00000100
00000010
00000000
00000001
00000000
,  // measure 16
00000200
00000000
00000000
00000310
00000010
00000000
00001000
00000100
,  // measure 17
00000010
00000010
00000010
00000000
00000001
00000001
00000001
00000000
,  // measure 18
00010000
00000000
00010000
00000000
00010000
00000000
00000000
00000000
00001000
00000000
00001000
00000000
00001000
00000000
00000000
01000000
,  // measure 19
00100000
00000000
10000000
00000000
01000000
00000000
00000000
00000000
00110000
00000000
00000000
00000000
00101000
00000000
00000000
00001000
,  // measure 20
00010000
00000000
00000100
00000000
00000010
00000000
00000000
00000000
00000011
00000000
00000000
00000000
00001001
00000000
00000000
00001000
,  // measure 21
00000100
00000000
00001000
00000000
00010000
00000000
00000000
00000000
00011000
00000000
00000000
00000000
00101000
00000000
00000000
00100000
,  // measure 22
01000000
20000000
00000000
32000000
00000000
03020000
00000000
01030000
,  // measure 23
10000000
00000000
00100000
00000000
01000000
00000000
00000000
00000000
01001000
00000000
00000000
00000000
00011000
00000000
00000000
00001000
,  // measure 24
00010000
00000000
00000100
00000000
00000010
00000000
00000000
00000000
00000011
00000000
00000000
00000000
00001001
00000000
00000000
00001000
,  // measure 25
00000100
00010000
00001000
00000000
00011000
00000000
01001000
00000000
,  // measure 26
02000000
00100000
00100000
03100000
,  // measure 27
10000000
01000000
10000000
01000000
10000000
00010000
10000000
00000000
,  // measure 28
00100000
01000000
00100000
01000000
00001000
00010000
00001000
00000000
,  // measure 29
00010000
00000010
00010000
00000010
00001000
00000100
00001000
00000000
,  // measure 30
00000001
00000010
00000001
00000010
00000100
00001000
00010000
00000000
,  // measure 31
00012000
00000000
00023000
00000000
,  // measure 32
00032000
00000000
00000000
00000000
00000000
00000000
00000000
00000000
00003000
00000000
00100000
00000000
00000000
01000000
00000000
00000000
,  // measure 33
01100000
00000000
00000000
00100000
01000000
00000000
10000000
00000000
00010000
00000000
00000000
10000000
00010000
00000000
01000000
00000000
,  // measure 34
00001000
00000000
00001000
00000000
00001000
00000000
00001000
00000000
00010000
00000000
00000000
00000100
00000010
00000000
00000001
00000000
,  // measure 35
00000010
00000000
00000000
00000100
00000000
00000000
00010000
00000000
00001000
00000000
00001000
00000000
00100000
00000000
00100000
00000000
,  // measure 36
01100000
00000000
00000000
01100000
00000000
00000000
01000000
00000000
00010000
00000000
00000000
00010000
00000000
00000000
10000000
00010000
,  // measure 37
00000000
00100000
00000000
00000000
01100000
00000000
00000000
00000000
10000000
00000000
00000000
00000000
01100000
00000000
00000000
00000000
,  // measure 38
00010000
00000000
00001000
00000000
00000010
00000000
00000000
00000000
00000100
00000000
00000000
00000001
00001000
00000000
00000100
00000000
,  // measure 39
00000010
00000000
00000000
00000100
00010000
00000000
00001000
00000000
00100000
00000000
00000000
01000000
10000000
00000000
00100000
00000000
,  // measure 40
01100000
00000000
00000000
00000000
00000000
00000000
00000000
00000000
00000000
01000000
00000000
00000000
00000000
00000000
00000000
00100000
00000000
00000000
00000000
00000000
00000000
01000000
00000000
00000000
00000000
00000000
00000000
00000000
00000000
00000000
00000000
00000000
00001000
00000000
00000000
00000000
01000000
00000000
00000000
00000000
00001000
00000000
00000000
00000000
00010000
00000000
00000000
00000000
,  // measure 41
00001000
00000110
00000001
00000110
,  // measure 42
00001000
00000000
00010000
00000000
01000000
00000000
00000000
00000000
00100000
00000000
00000000
10000000
00010000
00000000
00100000
00000000
,  // measure 43
01000000
00000000
00000000
00100000
00010000
00000000
10000000
00000000
00100000
00000000
00000000
01000000
00010000
00000000
00100000
00000000
,  // measure 44
01000000
10000000
00100000
01000000
,  // measure 45
01001000
00000000
00001000
00000000
00010000
00000000
00000100
00000000
00000010
00000000
00000001
00000000
,  // measure 46
00001001
00000000
00000000
00000000
00000000
00000000
00000001
00000000
00000001
00000000
00000001
00000000
,  // measure 47
00000000
00000000
00000000
00000100
00000000
00000000
00000010
00000000
00000000
00000100
00000000
00000000
00000000
00000000
00000000
00000010
00000000
00000000
00000000
00000000
00000000
00010000
00000000
00000000
00000000
00000000
00000000
00001000
00000000
00000000
00000000
00000000
00100000
00000000
00000000
00000000
01000000
00000000
00000000
00000000
10000000
00000000
00000000
00000000
00100000
00000000
00000000
00000000
,  // measure 48
00000000
00000000
00000000
01000000
00000000
00000000
01100000
00000000
01100000
00000000
01000000
00000000
,  // measure 49
00010000
00100000
00001000
00000000
00011000
00000000
00010010
00000010
,  // measure 50
00000100
00000000
00000000
00000001
00000100
00000000
00000001
00000000
00000010
00000000
00000000
00000000
00000011
00000000
00000000
00000000
,  // measure 51
00010001
00000000
00010000
00000000
00001000
00000000
00000000
00100000
01000000
00000000
10000000
00000000
00100000
00000000
00000000
00000000
,  // measure 52
01100000
00000000
00000000
00000000
01001000
00000000
00001000
00000000
00010000
00000000
00000000
00000100
00000010
00000000
00000001
00000000
,  // measure 53
00000100
00000100
00000010
00000010
00010000
00000000
00001000
00100000
,  // measure 54
01000000
00000000
10000000
00100000
00010000
00100000
10000000
00000000
,  // measure 55
10100000
01100000
01001000
00011000
,  // measure 56
00010000
00000000
00010000
00000000
00010000
00000000
00001000
00000000
00010000
00000000
00000000
00000010
00000000
00000000
00000100
00000000
,  // measure 57
00000002
00000000
00000000
00000000
00000000
00000000
00000000
00000000
00000000
00000000
00000000
00001003
00000000
00000000
00000000
00000000
,  // measure 58
00001001
00000000
00000000
00000001
00001000
00000000
00000100
00000000
00010000
00000000
00000000
00010000
00001000
00000000
00100000
00000000
,  // measure 59
01000000
00000000
00000000
01000000
10000000
00000000
00100000
00000000
01000000
00000000
00000000
01000000
00001000
00000000
00010000
00000000
,  // measure 60
00000100
00000000
00000000
00000100
00000010
00000000
00000001
00000000
00000010
00000000
00000000
00000010
00000100
00000000
00010000
00000000
,  // measure 61
00002000
00000000
00000000
00010000
00000000
00000000
00013000
00000000
00200000
00000000
00000000
01000000
00000000
00000000
01300000
00000000
,  // measure 62
10010000
00000000
00000000
10000000
00010000
00000000
00100000
00000000
01000000
00000000
00000000
01000000
10000000
00000000
00100000
00000000
,  // measure 63
01000000
00000000
00000000
01000000
00010000
00000000
00001000
00000000
00000100
00000000
00000000
00000100
00000010
00000000
00000001
00000000
,  // measure 64
00000100
00000000
00000000
00000100
00000010
00000000
00001000
00000000
00010000
00000000
00000000
00010000
00100000
00000000
01000000
00000000
,  // measure 65
10000000
01000000
00100000
00001000
,  // measure 66
00010000
00000000
00000000
00000000
00000100
00000000
00000000
00000000
00000010
00000000
00000000
00000011
00000000
00000000
00000001
00000000
,  // measure 67
00001001
00000000
00000000
00001000
00000100
00000000
00010000
00000000
00001000
00000000
00000000
00100000
01000000
00000000
10000000
00000000
,  // measure 68
00000000
00010000
00100000
01000000
10000000
00001000
01000000
00020000
,  // measure 69
00000000
00000000
00000000
00000000
10000000
00000000
00000000
00000000
00000000
00000000
00000000
10030000
00000000
00000000
00000000
00000000
,  // measure 70
00000000
00000000
00001000
00010000
00001000
00010000
00000000
00000000
00010010
00000000
00000000
00010010
00000000
00000000
00000110
00000000
,  // measure 71
00000011
00000000
00000000
00000000
;

//---------------dance-double - ----------------
#NOTES:
     dance-double:
     :
     Challenge:
     14:
     0.640,0.732,0.259,0.084,0.619: // measure 1
00000000
00000000
00000000
00000000
,  // measure 2
00000000
00000000
00000000
00000000
,  // measure 3
00000000
00000000
00000000
00000000
,  // measure 4
00000000
00000000
00000000
00000000
,  // measure 5
00000000
00000000
00000000
00000000
,  // measure 6
10000000
00000000
01000000
00000000
10000000
00000000
00010000
01000000
00002000
00000000
00000000
00010000
00000000
00000000
00013000
00000000
,  // measure 7
00000100
00000000
00000010
00000001
00000010
00000001
00001000
00000100
,  // measure 8
00020000
00000000
00000000
00031000
01000000
00100000
01000000
00010000
,  // measure 9
00000000
00000000
10010000
00000000
10010000
00000000
00000000
00000000
11000000
00000000
00000000
11000000
00000000
00000000
00000000
00000000
,  // measure 10
10010000
00000000
00000000
00010000
00100000
00000000
00001000
00000000
00010000
00000000
00000000
00010000
00000100
00000000
00000010
00000000
,  // measure 11
00000001
00000000
00001000
00000001
00000000
00001000
00000000
00000100
00000000
00000000
00000000
00001000
00010000
00000000
00001000
00000000
,  // measure 12
01000000
00000000
00000000
01000000
00010000
00000000
00100000
00000000
01000000
00000000
00000000
01000000
10000000
00000000
00100000
00000000
,  // measure 13
01000000
00000000
00010000
00000000
00100000
00000000
00000000
00000000
00001000
00010000
00000000
00010000
00001000
00000000
00010000
00000000
,  // measure 14
00000010
00000000
00000000
00000010
00000100
00000000
00000001
00000000
00000010
00000000
00000000
00000010
00000001
00000000
00000010
00000000
,  // measure 15
00000100
00000000
00001000
00000001
00000000
00001000
00000000
00000010
00000000
00000000
00000000
00010000
00001000
00000000
00100000
00000000
,  // measure 16
01000000
00000000
00000000
01000000
10000000
00000000
00100000
00000000
01000000
00000000
00000000
01000000
00001000
00000000
00010000
00000000
,  // measure 17
00000010
00010000
00000010
00010000
00000010
00000000
00010000
00000000
00000100
00000010
00000100
00000010
00000100
00000000
00000010
00000000
,  // measure 18
00000001
00000100
00000001
00000100
00000001
00000000
00000100
00000000
00000001
00001000
00000001
00001000
00000001
00000000
00001000
00000000
,  // measure 19
00000100
00000000
00010000
00000000
00001000
00000000
01000000
00100000
01000000
00000000
00100000
00000000
01000000
00000000
00000000
00000000
,  // measure 20
00010000
01000000
00100000
01000000
00010000
00100000
01000000
10000000
,  // measure 21
00010000
01000000
00001000
00010000
00001000
00010000
00000100
00000000
,  // measure 22
00000010
00000001
00000010
00000100
00000010
00000001
00000100
00000010
,  // measure 23
00001010
00000000
00001000
00000100
00010000
00001000
00100000
01000000
,  // measure 24
00100000
00001000
01000000
00100000
01000000
00001000
00010000
00000000
,  // measure 25
00100000
01000000
10000000
00010000
10000000
01000000
00100000
01000000
,  // measure 26
10000000
10000000
00010000
00010000
,  // measure 27
01000000
00000000
00010000
00000000
10000000
00000000
01000000
00000000
00100000
00010000
00000000
00010000
00100000
00000000
00001000
00000000
,  // measure 28
00010000
00000000
00000100
00000000
00000010
00000000
00000001
00000000
00001000
00000010
00000000
00000010
00001000
00000000
00000001
00000000
,  // measure 29
00010000
00000000
00001000
00010000
00001000
00000000
01000000
00001000
01000000
00000000
00100000
01000000
00100000
00000000
10000000
01000000
,  // measure 30
10000000
00000000
00010000
00000000
00000000
01000000
00000000
00000000
00100000
00000000
00000000
10000000
00000000
00000000
01000000
00000000
,  // measure 31
21000000
00010000
00000000
00010000
,  // measure 32
00000000
00000000
00000000
00000000
30010000
00000000
00000000
00000000
00000000
00000000
00100000
00000000
00000000
00100000
00000000
00000000
,  // measure 33
10010000
00000000
00000000
10000000
00010000
00000000
00100000
00000000
00001000
00010000
00000000
00010000
00001000
00000000
00010000
00000000
,  // measure 34
00000010
00000100
00000010
00000100
00000010
00000100
00000010
00000100
00000010
00000000
00000000
00000100
00000001
00000000
00000010
00000000
,  // measure 35
00000100
00000000
00000000
00010000
00000000
00000000
00001000
00000000
01000000
00000000
00000000
00100000
00000000
00000000
10000000
00000000
,  // measure 36
10010000
00000000
00000000
10010000
00000000
00000000
10000000
00000000
00020000
00000000
00000000
01000000
00000000
00000000
01030000
00001000
,  // measure 37
00000000
01000000
00000000
00000000
00001000
00010000
00001000
00000000
00010000
00000000
00000000
00000000
00000010
00000100
00000010
00000000
,  // measure 38
00000100
00000001
00000010
00000001
00000100
00000010
00000100
00000001
,  // measure 39
00000010
00000100
00010000
00001000
01000000
00100000
10000000
00010000
,  // measure 40
10010000
00000000
00000000
00000000
00000000
00000000
00000000
00000000
00000000
10010000
00000000
00000000
00000000
00000000
00000000
00010000
00000000
00000000
00000000
00000000
00000000
10000000
00000000
00000000
00000000
00000000
00000000
00000000
00000000
00000000
00000000
00000000
01000000
00000000
00000000
00000000
00100000
00000000
00000000
00000000
00010000
00000000
00000000
00000000
00001000
00000000
00000000
00000000
,  // measure 41
00010000
00000000
00000000
00000000
00000010
00001000
00000010
00000000
00001000
00000000
00000000
00000000
00000001
00000010
00000001
00000000
,  // measure 42
00001000
00000001
00000000
00001000
00000000
00000000
00000001
00000000
00000100
00000001
00000000
00000001
00000100
00000000
00000010
00000000
,  // measure 43
00010000
00001000
00000000
00010000
00000000
00000000
00001000
00000000
00100000
01000000
00000000
01000000
00100000
00000000
00010000
00000000
,  // measure 44
20000000
01000000
00010000
31000000
,  // measure 45
11000000
00000000
11000000
00000000
01001000
00000000
01001000
00000000
00011000
00000000
00011000
00000000
,  // measure 46
00010020
00000000
00000000
00000000
00000000
00000000
00000100
00000000
00000130
00000001
00000010
00000100
,  // measure 47
00000000
00000000
00000000
00010000
00000000
00000000
00001000
00000000
00000000
00100000
00000000
00000000
00000000
00000000
00000000
00100000
00000000
00000000
00000000
00000000
00000000
01000000
00000000
00000000
00000000
00000000
00000000
01000000
00000000
00000000
00000000
00000000
10000000
00000000
00000000
00000000
01000000
00000000
00000000
00000000
00010000
00000000
00000000
00000000
01000000
00000000
00000000
00000000
,  // measure 48
00000000
00000000
00000000
11000000
00000000
00000000
10010000
00000000
10010000
00000000
01010000
00000000
,  // measure 49
01010000
00000000
01000000
00000000
00001000
00000000
00000000
00000000
00010000
00001000
00000000
00001000
00010000
00000000
00000100
00000000
,  // measure 50
00000010
00000000
00000001
00000000
00000100
00000000
00000000
00000000
00000001
00001000
00000000
00001000
00000001
00000000
00000010
00000000
,  // measure 51
00000100
00000000
00010000
00000000
00001000
00000000
00000000
00000000
01000000
00100000
00000000
00100000
01000000
00000000
00010000
00000000
,  // measure 52
10000000
00000000
01000000
00000000
00100000
00000000
00000000
00000000
00001000
01000000
00000000
01000000
00001000
00000000
00000000
00000000
,  // measure 53
00010000
00001000
00010000
00000000
00000010
00010000
00000010
00000000
00000100
00000010
00000000
00000010
00000100
00000000
00000000
00000000
,  // measure 54
00000001
00000000
00001000
00000001
00000000
00001000
00000000
00000100
00000000
00000000
00001000
00000000
00010000
00000000
01000000
00000000
,  // measure 55
00100000
01000000
00000000
01000000
00010000
00000000
00010000
00000000
10000000
01000000
00000000
01000000
00100000
00000000
00100000
00000000
,  // measure 56
00001000
00010000
00001000
00010000
00001000
00010000
00001000
00010000
00001000
00000000
00000000
00010000
00001000
00000000
00010000
00000000
,  // measure 57
00000020
00000000
00000000
00000000
00000000
00000000
00000000
00000000
00000000
00000000
00000000
00000130
00000000
00000000
00000000
00000000
,  // measure 58
00001001
00000000
00000000
00000001
00001000
00000000
00000100
00000000
00000010
00000000
00000000
00000010
00000001
00000000
00001000
00000000
,  // measure 59
00000100
00000000
00010000
00001000
00000000
00100000
00000000
01000000
00000000
00000000
00000000
10000000
00100000
00000000
01000000
00000000
,  // measure 60
00010000
00000000
00000000
00010000
10000000
00000000
01000000
00000000
00100000
00000000
00000000
00100000
00001000
00000000
00010000
00000000
,  // measure 61
00000020
00000000
00000000
00010000
00000000
00000000
00010030
00000000
00000002
00000000
00000000
00000010
00000000
00000000
00000013
00000000
,  // measure 62
00001001
00000000
00000000
00001000
00000010
00000000
00010000
00000000
00001000
00000000
00000000
00001000
00100000
00000000
01000000
00000000
,  // measure 63
10000000
00000000
00100000
01000000
00000000
00001000
00000000
00100000
00000000
00000000
00000000
00001000
00010000
00000000
00000100
00000000
,  // measure 64
00000010
00000000
00000000
00000010
00000001
00000000
00000100
00000000
00000010
00000000
00000000
00000010
00010000
00000000
00001000
00000000
,  // measure 65
00011000
00010000
00001000
00001000
,  // measure 66
01000000
00000000
00000000
00100000
00000000
00000000
10000000
00000000
00010000
00000000
00000000
00100000
00000000
00000000
01000000
00000000
,  // measure 67
00100000
00000000
00000000
00100000
00001000
00000000
00010000
00000000
00000100
00000000
00000000
00000100
00000010
00000000
00000001
00000000
,  // measure 68
00000000
00000000
00000100
00000001
00000100
00000001
00000100
00000001
00010000
00001000
00010000
00001000
00010000
00001000
00010000
00002000
,  // measure 69
00000000
00000000
00000000
00000000
00010000
00000000
00000000
00000000
00000000
00000000
00000000
00013000
00000000
00000000
00000000
00000000
,  // measure 70
00000000
00000000
00001000
01000000
00001000
01000000
00000000
00000000
01100000
00000000
00000000
11000000
00000000
00000000
01100000
00000000
,  // measure 71
01010000
00000000
00000000
00000000
;
