#TITLE:バトル XIII;
#SUBTITLE:;
#ARTIST:伊藤賢治;
#TITLETRANSLIT:BATTLE XIII;
#SUBTITLETRANSLIT:;
#ARTISTTRANSLIT:KENJI ITO;
#CREDIT:DigiMindAxel;
#BANNER:BATTLE XIII.png;
#BACKGROUND:BATTLE XIII-bg.png;
#LYRICSPATH:;
#CDTITLE:pop'n music.png;
#MUSIC:BATTLE XIII.ogg;
#METERTYPE:DDR X;
#OFFSET:-11.207;
#SAMPLESTART:51.437;
#SAMPLELENGTH:12.000;
#SELECTABLE:YES;
#BPMS:0.000=143.000,128.000=142.000,172.000=143.000,240.000=142.000,248.000=140.000;
#STOPS:;
#BGCHANGES:;

//---------------dance-single - ----------------
#NOTES:
     dance-single:
     :
     Easy:
     5:
     0.256,0.255,0.187,0.324,0.000:
2000
0000
3100
0000
,
2000
0000
3001
0000
,
1000
1001
0000
0000
,
0001
1001
0000
0000
,
0020
0000
0130
0000
,
0002
0000
0103
0000
,
0001
1001
0000
0000
,
1000
1001
0000
0000
,
0020
0000
0130
0010
,
0200
0000
0310
0100
,
0002
0000
2003
0000
,
0000
0000
3001
1000
,
0200
0000
1300
0001
,
0020
0000
0032
0000
,
0203
0000
0320
0000
,
1030
0000
1001
0000
,
1001
0001
0001
0001
,
1000
1000
1000
1000
,
0001
0001
0001
0001
,
1000
1000
1000
1000
,
0100
0010
0100
0000
,
1000
0010
0100
0000
,
0002
0000
2003
0000
,
3001
0000
1001
0000
,
1001
0001
0001
0001
,
1000
1000
1000
1000
,
0001
0001
0001
0001
,
1000
1000
1000
1000
,
0020
0000
0130
0000
,
0020
0000
0130
0000
,
1001
0000
1001
0000
,
1001
0000
1001
0000
,
0120
0000
0000
0000
,
0000
0000
0230
0000
,
0302
0000
0000
0000
,
2003
0000
3200
0000
,
2300
0000
0000
0000
,
3200
0000
0320
0000
,
0032
0000
0000
0000
,
2003
0000
3200
0000
,
2300
0000
0000
0000
,
3002
0000
0000
0000
,
1003
1000
1000
1000
,
0001
0010
0100
0000
,
1001
1000
1000
1000
,
0100
0100
0100
0100
,
0010
0010
0010
0010
,
0001
0001
0001
0001
,
1000
0100
0020
0000
,
0130
1000
0002
0000
,
0023
0000
0230
0000
,
0310
0000
0110
0000
,
1001
0001
0001
0001
,
0100
0100
0100
0100
,
0010
0010
0010
0010
,
1000
1000
1000
1000
,
1002
0000
2003
0000
,
3200
0000
0320
0000
,
0031
0000
1001
0000
,
1001
0000
1001
0000
,
0000
0110
0000
0110
,
0000
2002
0000
0000
,
0000
0000
0000
0000
,
3003
0000
0000
0000
;

//---------------dance-single - ----------------
#NOTES:
     dance-single:
     :
     Medium:
     10:
     0.408,0.409,0.195,0.308,0.162:
1000
0000
0100
0000
0010
0100
0010
0100
,
1000
0000
0001
0000
0100
0001
0100
0001
,
1001
0000
1001
0000
0000
0110
0000
0001
,
1001
0000
1001
0000
0000
0110
0000
1000
,
1001
0000
0001
0000
0100
0010
0100
0010
,
1000
0000
0100
0000
0010
0001
0010
0001
,
1001
0000
1001
0000
0000
0110
0000
1000
,
1001
0000
1001
0000
0000
0110
0000
0001
,
2001
0000
0000
0000
3100
0010
0100
0010
,
0002
0000
0000
0000
0103
0010
0100
0010
,
2000
0000
0000
3001
0020
0000
0000
0000
,
0000
0000
0000
0000
0031
1000
0001
1000
,
0200
0000
0000
0000
0310
0001
0010
0001
,
0200
0320
2030
3002
,
2003
0000
0000
3100
0020
0000
0000
0031
,
0100
0000
0000
0100
0000
0000
0100
0000
0010
0000
0000
0010
0000
0000
0010
0000
,
1001
0000
0000
1000
0000
0000
0010
0000
0100
0000
0000
0100
0000
0000
0001
0000
,
1000
0000
0000
0100
0000
0000
0010
0000
0001
0000
1000
0000
1000
0000
1000
0000
,
0001
0000
0000
0001
0000
0000
0010
0000
0100
0000
0000
0100
0000
0000
1000
0000
,
0001
0000
0000
0100
0000
0000
0010
0000
1000
0000
0001
0000
0001
0000
0001
0000
,
0020
0100
0130
1000
,
0200
0010
0310
0001
,
2000
0000
0002
3003
,
0001
0000
0000
0001
0000
0000
0010
0000
0100
0000
0000
0100
0000
0000
1000
0000
,
0001
0000
0000
0001
0000
0000
0100
0000
0010
0000
0000
0010
0000
0000
1000
0000
,
0001
0000
0000
0010
0000
0000
0100
0000
1000
0000
0001
0000
0001
0000
0001
0000
,
1000
0000
0000
1000
0000
0000
0100
0000
0010
0000
0000
0010
0000
0000
0001
0000
,
1000
0000
0000
0010
0000
0000
0100
0000
0001
0000
1000
0000
1000
0000
0000
0000
,
0010
0000
0000
0010
0000
0000
0010
0000
0110
0000
0000
0000
0000
0000
0000
0000
,
0001
0000
0000
0001
0000
0000
0001
0000
1001
0000
0000
0000
0000
0000
0000
0000
,
1000
0000
0000
1000
0000
0000
1000
0000
0001
0000
0000
0001
0000
0000
0001
0000
,
0100
0000
0000
0100
0000
0000
0100
0000
0110
0000
0000
0000
0000
0000
0000
0000
,
2001
0000
3200
0000
,
0302
0000
0203
0000
,
2300
0000
3002
0000
,
2003
0000
3020
0000
,
0230
0000
0302
0000
,
0023
0000
0230
0000
,
2300
0000
3002
0000
,
2003
0000
3100
0010
,
0002
0000
0013
0100
,
2000
0000
3010
0100
,
0001
1000
0001
0000
1000
0001
1000
0000
,
0100
1000
0100
1000
0010
0000
0000
0000
,
1000
0000
0000
1000
0000
0000
0001
0000
0010
0000
0000
0010
0000
0000
0010
0000
,
0100
0000
0000
1000
0000
0000
0001
0000
0010
0000
0001
0000
0001
0000
0001
0000
,
0100
0000
0000
0100
0000
0000
0001
0000
1000
0000
0000
1000
0000
0000
0100
0000
,
0010
0000
0000
0001
0000
0000
1000
0000
0001
0000
0100
0000
0100
0000
0100
0000
,
0002
0010
0013
0100
,
2000
0010
3010
0100
,
0002
0000
2003
0000
,
3100
0000
0000
0100
0000
0000
0100
0000
0010
0000
0000
0010
0000
0000
0010
0000
,
0001
0000
0000
0001
0000
0000
1000
0000
0010
0000
0000
0010
0000
0000
0100
0000
,
0001
0000
0000
0100
0000
0000
0001
0000
1000
0000
0100
0000
0100
0000
0100
0000
,
1000
0000
0000
1000
0000
0000
0001
0000
0010
0000
0000
0010
0000
0000
0100
0000
,
1000
0000
0000
0010
0000
0000
0100
0000
0001
0000
0010
0000
0010
0000
0000
0000
,
0100
0000
0000
0100
0000
0000
0100
0000
0110
0000
0000
0000
0000
0000
0000
0000
,
1000
0000
0000
1000
0000
0000
1000
0000
1001
0000
0000
0000
0000
0000
0000
0000
,
0001
0000
0000
0001
0000
0000
0001
0000
0100
0000
0000
0100
0000
0000
0100
0000
,
0010
0000
0000
0010
0000
0000
0010
0000
1000
0000
0000
0000
0000
0000
0100
0000
,
0100
0100
1001
0000
0100
0100
1001
0000
,
0100
0100
2002
0000
0000
0000
0000
0000
,
0000
0000
0000
0000
,
3003
0000
0000
0000
;

//---------------dance-single - ----------------
#NOTES:
     dance-single:
     :
     Hard:
     13:
     0.637,0.613,0.503,0.454,0.612:
1002
0000
0000
0000
0000
0000
1003
0010
1000
0000
0000
0100
0000
0000
0010
0001
,
0010
0000
0000
0001
0000
0000
0100
0000
0020
0000
0000
0000
1030
0000
0000
0000
,
1001
0000
0000
0000
1001
0000
0000
0000
0000
0000
0110
0000
0000
0000
0001
1000
,
0001
0000
0000
0000
1001
0000
0000
0000
0000
0000
0110
0000
0000
0000
1000
0001
,
2000
0000
0000
0000
0000
0000
3001
0010
0001
0000
0000
0100
0000
0000
0010
1000
,
0010
0000
0000
0100
0000
0000
0001
0000
0020
0000
0000
0000
0130
0000
0000
0000
,
1001
0000
0000
0000
1001
0000
0000
0000
0000
0000
0110
0000
0000
0000
1000
0001
,
1000
0000
0000
0000
1001
0000
0000
0000
0000
0000
0110
0000
0000
0000
0001
1000
,
0001
0000
0010
0000
0100
0000
0000
0000
1000
0000
0001
0010
0001
0000
1000
0010
,
1000
0000
0100
0000
0010
0000
0000
0000
0001
0000
1000
0010
1000
0000
0001
0010
,
0002
0000
0000
0000
0000
0000
1003
0000
0010
0000
0100
0010
0100
0000
0001
1000
,
0002
0000
0000
0000
0000
0000
0000
0000
1003
0000
0100
0010
0100
0000
1000
0001
,
2000
0000
0000
0000
0000
0000
0000
0000
3001
0000
0010
0100
0010
0000
0001
1000
,
0001
0000
0000
0100
0000
0000
0010
0000
1000
0000
0100
0010
0100
0000
1000
0010
,
2000
0000
0000
3002
0000
0000
0013
0000
0200
0000
0000
2300
0000
0000
3010
0000
,
0110
0000
0000
0110
0000
0000
0110
0000
1010
0000
0000
1010
0000
0000
1010
0000
,
1001
0000
0000
0001
0100
0000
0000
0100
0001
0000
0000
0001
1000
0000
0000
1000
,
0100
0000
0000
0100
0010
0000
0000
0010
0100
0000
1000
0001
1000
0001
1000
0000
,
0001
0000
0000
0001
0100
0000
0000
0100
0010
0000
0000
0010
1000
0000
0000
1000
,
0001
0000
0000
0001
0010
0000
0000
0010
0001
0000
1000
0010
1000
0010
1000
0000
,
0002
0000
0000
0100
0000
0000
0103
0000
0020
0000
0000
0000
0130
0000
0000
0000
,
0002
0000
0000
0010
0000
0000
0013
0000
0200
0000
0000
0000
1300
0000
0000
0000
,
0010
0000
0000
0100
0000
0000
0001
0000
2000
0000
0000
0000
3001
0000
0000
0000
,
0011
0000
0000
0011
0000
0000
0011
0000
1001
0000
0000
1001
0000
0000
1001
0000
,
1100
0000
0000
0100
0010
0000
0000
0010
0001
0000
0000
0001
1000
0000
0000
1000
,
0010
0000
0000
0010
0100
0000
0000
0100
0001
0000
1000
0100
1000
0100
1000
0000
,
0001
0000
0000
0001
1000
0000
0000
1000
0010
0000
0000
0010
0100
0000
0000
0100
,
0002
0000
0000
1000
0000
0000
1003
0000
0200
0000
0000
0020
0000
0000
0330
0000
,
1020
0000
0000
0100
0000
0000
0130
0000
1002
0000
0000
0000
1003
0000
0000
0000
,
0021
0000
0000
0001
0000
0000
0031
0000
2001
0000
0000
0000
3001
0000
0000
0000
,
1100
0000
0000
1100
0000
0000
1100
0000
1001
0000
0000
1001
0000
0000
1001
0000
,
0101
0000
0000
0101
0000
0000
0100
0010
0100
0000
0000
0000
0000
0000
1000
0001
,
2000
0000
0000
0000
0000
0000
3100
0010
0002
0000
0000
0203
0000
0000
0301
0000
,
2000
0000
0000
0000
0000
0000
0000
0000
0000
3200
0000
0000
0000
0000
0000
0000
0000
0000
1300
0000
0000
0000
0000
0000
0010
0000
0000
0000
0100
0000
0000
0000
0001
0000
0000
0000
0010
0000
0000
0000
0100
0000
0000
0000
1000
0000
0000
0000
,
0002
0000
0000
0203
0000
0000
0301
0000
2000
0000
0000
3200
0000
0000
0310
0000
,
0002
0000
0000
0000
0000
0000
0000
0000
0000
2003
0000
0000
0000
0000
0000
0000
0000
0000
3010
0000
0000
0000
0000
0000
0100
0000
0000
0000
0001
0000
0000
0000
0010
0000
0000
0000
0100
0000
0000
0000
1000
0000
0000
0000
0001
0000
0000
0000
,
0020
0000
0000
0000
0000
0000
0031
1000
0200
0000
0000
2300
0000
0000
3010
0000
,
0200
0000
0000
0000
0000
0000
0000
0000
0000
0302
0000
0000
0000
0000
0000
0000
0000
0000
0013
0000
0000
0000
0000
0000
0100
0000
0000
0000
1000
0000
0000
0000
0010
0000
0000
0000
0100
0000
0000
0000
0001
0000
0000
0000
0010
0000
0000
0000
,
0002
0000
0000
2003
0000
0000
3100
0000
0020
0000
0000
0032
0000
0000
1003
0000
,
0020
0000
0000
0000
0000
0000
0000
0000
0000
0230
0000
0000
0000
0000
0000
0000
0000
0000
0301
0000
0000
0000
0000
0000
1000
0000
0000
0000
0010
0000
0000
0000
0100
0000
0000
0000
0001
0000
0000
0000
1000
0000
0000
0000
0100
0000
0000
0000
,
2000
0000
0000
0000
3100
0010
0100
0010
,
0002
0000
0000
0000
0103
0010
0100
0010
,
1000
0000
1000
0000
0001
0000
0010
0000
0100
0000
1000
0010
1000
0000
0001
0100
,
0001
1000
0100
1000
0001
0000
0001
0000
,
1001
0000
0000
1000
0010
0000
0000
0010
0100
0000
0000
0100
0001
0000
0000
0001
,
1000
0000
0000
1000
0100
0000
0000
0100
0010
0000
0001
0100
0001
0100
0001
0000
,
0100
0000
0000
0100
0010
0000
0000
0010
1000
0000
0000
1000
0001
0000
0000
0001
,
0010
0000
0000
0010
0100
0000
0000
0100
0010
0000
0001
0100
0001
0100
0001
0000
,
1000
0000
0000
1000
0010
0000
0000
0010
0100
0000
0000
0100
0001
0000
0000
0001
,
1000
0000
0000
1000
0100
0000
0000
0100
0010
0000
0000
0010
0100
0000
0000
0100
,
2000
0000
0000
0010
0000
0000
3010
0000
2000
0000
0000
0000
3001
0000
0000
0000
,
0011
0000
0000
0011
0000
0000
0011
0000
1001
0000
0000
1001
0000
0000
1001
0000
,
1010
0000
0000
0010
0100
0000
0000
0100
0001
0000
0000
0001
1000
0000
0000
1000
,
0100
0000
0000
0100
0010
0000
0000
0010
0100
0000
1000
0010
1000
0010
1000
0000
,
0001
0000
0000
0001
0010
0000
0000
0010
0100
0000
0000
0100
0010
0000
0000
0010
,
0002
0000
0000
1000
0000
0000
1003
0000
0020
0000
0000
0200
0000
0000
0330
0000
,
0101
0000
0000
0101
0000
0000
0101
0000
2001
0000
0000
0000
3001
0000
0000
0000
,
1100
0000
0000
1100
0000
0000
1100
0000
1002
0000
0000
0000
1003
0000
0000
0000
,
0011
0000
0000
0011
0000
0000
0011
0000
1001
0000
0000
1001
0000
0000
1001
0000
,
1010
0000
0000
1010
0000
0000
0010
0100
0010
0000
0000
0000
0000
0000
0100
0010
,
1000
0000
1000
0000
0100
0010
0001
0000
1000
0000
1000
0000
0100
0010
0001
0000
,
1000
1000
0220
0000
0000
0000
0000
0000
,
0000
0000
0000
0000
,
0330
0000
0000
0000
;

//---------------dance-double - ----------------
#NOTES:
     dance-double:
     :
     Easy:
     5:
     0.253,0.255,0.178,0.292,0.000:
10000000
00010000
10000000
00000000
,
00001000
01000000
00001000
00000000
,
00010000
00011000
00000000
00000000
,
00001000
00011000
00000000
00000000
,
00000100
00000010
00000100
00000000
,
00010000
00000010
00010000
00000000
,
00001000
00011000
00000000
00000000
,
00010000
00011000
00000000
00000000
,
00200000
00000000
01300000
10000000
,
00020000
00000000
00130000
00001000
,
00020000
00000000
00030002
00000000
,
00000000
00000003
00000010
00000100
,
00020000
00000000
00031000
01000000
,
00200000
00000000
02300000
00000000
,
03002000
00000000
00023000
00000000
,
00031000
00000000
00011000
00000000
,
00011000
00010000
00001000
00010000
,
00001000
00010000
00000010
00010000
,
00000010
00000100
00000001
00000100
,
00000001
00000010
00000100
00000010
,
00000100
00010000
00002000
00000000
,
00103000
01000000
20000000
00000000
,
32000000
00000000
03200000
00000000
,
01300000
00000000
01100000
00000000
,
00001000
00010000
00001000
00010000
,
00000100
00000010
00000100
00000010
,
00000001
00000100
00000001
00000100
,
00000001
00010000
00000001
00010000
,
00002000
00000000
10003000
00000000
,
00200000
00000000
01300000
00000000
,
01100000
00000000
01100000
00000000
,
01100000
00000000
01100000
00000000
,
20010000
00000000
00000000
00000000
,
00000000
00000000
30002000
00000000
,
00023000
00000000
00000000
00000000
,
00030200
00000000
00000320
00000000
,
00000000
00000000
00000000
00000000
,
00000032
00000000
00020003
00000000
,
00032000
00000000
00000000
00000000
,
02003000
00000000
03200000
00000000
,
00000000
00000000
00000000
00000000
,
02300000
00000000
00000000
00000000
,
03100000
00100000
00100000
00100000
,
10000000
00010000
10000000
00000000
,
00011000
00010000
00001000
00010000
,
00001000
01000000
00001000
01000000
,
00001000
00010000
00001000
00010000
,
00000100
00000010
00000100
00000010
,
00000001
00000010
00000200
00000000
,
00001300
00000100
00020000
00000000
,
00032000
00000000
00203000
00000000
,
01300000
00000000
01100000
00000000
,
10010000
10000000
00010000
10000000
,
00010000
01000000
00001000
01000000
,
00001000
00010000
00001000
00010000
,
00000100
00000010
00000100
00000010
,
00001002
00000000
00000203
00000000
,
00000320
00000000
00020030
00000000
,
00031000
00000000
00011000
00000000
,
00011000
00000000
00011000
00000000
,
00000000
01100000
00000000
01100000
,
00000000
20020000
00000000
00000000
,
00000000
00000000
00000000
00000000
,
30030000
00000000
00000000
00000000
;

//---------------dance-double - ----------------
#NOTES:
     dance-double:
     :
     Medium:
     10:
     0.417,0.409,0.243,0.292,0.178:
00011000
00000000
00001000
00000000
00010000
00001000
00100000
01000000
,
10000000
00000000
01000000
00000000
10000000
00100000
01000000
00001000
,
00011000
00000000
00011000
00000000
00000000
00000110
00000000
00010000
,
00011000
00000000
00011000
00000000
00000000
01100000
00000000
00001000
,
00011000
00000000
00010000
00000000
00000010
00000100
00000001
00000100
,
00010010
00000000
00001000
00000000
00100000
01000000
00100000
01000000
,
11000000
00000000
11000000
00000000
00000000
00011000
00000000
00000010
,
00000110
00000000
00000110
00000000
00000000
00011000
00000000
00100000
,
02000000
00000000
00000000
00000000
13000000
00100000
10000000
00100000
,
02000000
00000000
00000000
00000000
03001000
00010000
00001000
00010000
,
00000020
00000000
00000000
00000130
00000002
00000000
00000000
00000000
,
00000000
00000000
00000000
00000000
00000013
00000100
00000010
00000100
,
00020000
00000000
00000000
00000000
00031000
00010000
00001000
00010000
,
00100000
00000000
00000000
01000000
00000000
00000000
10000000
00000000
00100000
00000000
00000000
01000000
00000000
00000000
00100000
00000000
,
10000000
00000000
00000000
01000000
00000000
00000000
00100000
00000000
00001000
00000000
00000000
00010000
00000000
00000000
00000100
00000000
,
00000010
00000000
00000000
00000010
00000000
00000000
00000010
00000000
00000100
00000000
00000000
00000100
00000000
00000000
00000100
00000000
,
00001001
00000000
00000000
00001000
00000000
00000000
00000010
00000000
00010000
00000000
00000000
00010000
00000000
00000000
00001000
00000000
,
02000000
00000000
00000000
00100000
00000000
00000000
03100000
00000000
10000000
00000000
00001000
00000000
00001000
00000000
00001000
00000000
,
00010000
00000000
00000000
00010000
00000000
00000000
00000010
00000000
00000100
00000000
00000000
00000100
00000000
00000000
00000001
00000000
,
00020000
00000000
00000000
00001000
00000000
00000000
00031000
00000000
01000000
00000000
00100000
00000000
00100000
00000000
00100000
00000000
,
20000000
00010000
30010000
00100000
,
00002000
00010000
00013000
00000010
,
00000200
00000000
00000020
00000330
,
00000001
00000000
00000000
00000001
00000000
00000000
00000001
00000000
00001000
00000000
00000000
00001000
00000000
00000000
00001000
00000000
,
00000100
00000000
00000000
00000100
00000000
00000000
00010000
00000000
00001000
00000000
00000000
00001000
00000000
00000000
00100000
00000000
,
02000000
00000000
00000000
10000000
00000000
00000000
13000000
00000000
00010000
00000000
00100000
00000000
00100000
00000000
00100000
00000000
,
00001000
00000000
00000000
00001000
00000000
00000000
00010000
00000000
00000010
00000000
00000000
00000010
00000000
00000000
00000100
00000000
,
00000002
00000000
00000000
00001000
00000000
00000000
00001003
00000000
00000001
00000000
00000100
00000000
00000100
00000000
00000000
00000000
,
00000110
00000000
00000000
00000010
00000000
00000000
00000010
00000000
00000110
00000000
00000000
00000000
00000000
00000000
00000000
00000000
,
00011000
00000000
00000000
00010000
00000000
00000000
00010000
00000000
00011000
00000000
00000000
00000000
00000000
00000000
00000000
00000000
,
01000000
00000000
00000000
01000000
00000000
00000000
01000000
00000000
00100000
00000000
00000000
00100000
00000000
00000000
00100000
00000000
,
10000000
00000000
00000000
10000000
00000000
00000000
10000000
00000000
10010000
00000000
00000000
00000000
00000000
00000000
00000000
00000000
,
20010000
00000000
32000000
00000000
,
03020000
00000000
02030000
00000000
,
23000000
00000000
30002000
00000000
,
00203000
00000000
00302000
00000000
,
00023000
00000000
00030020
00000000
,
00000032
00000000
00000023
00000000
,
00020030
00000000
00030200
00000000
,
00020300
00000000
00031000
00010000
,
00002000
00000000
00103000
01000000
,
00200000
00000000
00301000
10000000
,
01000000
00100000
01000000
00000000
00100000
01000000
00100000
00000000
,
00001000
00100000
00010000
00100000
00001000
00000000
00000000
00000000
,
00010000
00000000
00000000
00010000
00000000
00000000
00000010
00000000
00000100
00000000
00000000
00000100
00000000
00000000
00000100
00000000
,
00000001
00000000
00000000
00001000
00000000
00000000
00000100
00000000
00010000
00000000
00001000
00000000
00001000
00000000
00001000
00000000
,
00100000
00000000
00000000
00100000
00000000
00000000
01000000
00000000
10000000
00000000
00000000
10000000
00000000
00000000
00010000
00000000
,
01000000
00000000
00000000
00100000
00000000
00000000
01000000
00000000
00001000
00000000
00010000
00000000
00010000
00000000
00010000
00000000
,
00000200
00000010
00000310
00000001
,
00002000
00000010
00003010
00000100
,
00000002
00000000
00002003
00000000
,
00003100
00000000
00000000
00000100
00000000
00000000
00000100
00000000
00000010
00000000
00000000
00000010
00000000
00000000
00000010
00000000
,
00000001
00000000
00000000
00000001
00000000
00000000
00010000
00000000
00001000
00000000
00000000
00001000
00000000
00000000
01000000
00000000
,
00100000
00000000
00000000
10000000
00000000
00000000
01000000
00000000
00100000
00000000
00001000
00000000
00001000
00000000
00001000
00000000
,
00010000
00000000
00000000
00010000
00000000
00000000
00000010
00000000
00000100
00000000
00000000
00000100
00000000
00000000
00000001
00000000
,
00000010
00000000
00000000
00000100
00000000
00000000
00001000
00000000
00000010
00000000
00010000
00000000
00010000
00000000
00000000
00000000
,
01100000
00000000
00000000
01000000
00000000
00000000
01000000
00000000
01100000
00000000
00000000
00000000
00000000
00000000
00000000
00000000
,
01100000
00000000
00000000
00100000
00000000
00000000
00100000
00000000
01100000
00000000
00000000
00000000
00000000
00000000
00000000
00000000
,
10000000
00000000
00000000
10000000
00000000
00000000
10000000
00000000
00010000
00000000
00000000
00010000
00000000
00000000
00010000
00000000
,
00100000
00000000
00000000
00100000
00000000
00000000
00100000
00000000
00101000
00000000
00000000
00000000
00000000
00000000
00001000
00000000
,
00000100
00000100
00000110
00000000
00000100
00000100
00000110
00000000
,
00000100
00000100
00002002
00000000
00000000
00000000
00000000
00000000
,
00000000
00000000
00000000
00000000
,
00003003
00000000
00000000
00000000
;

//---------------dance-double - ----------------
#NOTES:
     dance-double:
     :
     Hard:
     13:
     0.641,0.613,0.568,0.414,0.612:
00012000
00000000
00000000
00000000
00000000
00000000
10003000
00100000
10000000
00000000
00000000
01000000
00000000
00000000
00100000
00010000
,
00100000
00000000
00000000
00001000
00000000
00000000
00010000
00000000
00000020
00000000
00000000
00000000
00000130
00000000
00000000
00000000
,
00000110
00000000
00000000
00000000
00000110
00000000
00000000
00000000
00000000
00000000
00001001
00000000
00000000
00000000
00000100
00000010
,
00000100
00000000
00000000
00000000
00000110
00000000
00000000
00000000
00000000
00000000
00001001
00000000
00000000
00000000
00000001
00000100
,
00000020
00000000
00000000
00000000
00000000
00000000
00010030
00001000
00010000
00000000
00000000
00001000
00000000
00000000
00100000
01000000
,
00100000
00000000
00000000
00010000
00000000
00000000
10000000
00000000
00200000
00000000
00000000
00000000
01300000
00000000
00000000
00000000
,
01100000
00000000
00000000
00000000
01100000
00000000
00000000
00000000
00000000
00000000
10010000
00000000
00000000
00000000
00100000
01000000
,
00100000
00000000
00000000
00000000
01100000
00000000
00000000
00000000
00000000
00000000
10010000
00000000
00000000
00000000
10000000
01000000
,
00100000
00000000
01000000
00000000
10000000
00000000
00000000
00000000
00001000
00000000
00100000
00001000
00100000
00000000
00001000
00010000
,
00001000
00000000
00010000
00000000
00000010
00000000
00000000
00000000
00000100
00000000
00000001
00001000
00000001
00000000
00000100
00000010
,
00000200
00000000
00000000
00000000
00000000
00000000
00000310
00000000
00010000
00000000
00001000
00010000
00001000
00000000
00100000
01000000
,
00200000
00000000
00000000
00000000
00000000
00000000
00000000
00000000
01300000
00000000
00001000
00010000
00001000
00000000
10000000
00100000
,
20000000
00000000
00000000
00000000
00000000
00000000
00000000
00000000
30010000
00000000
00100000
00010000
00100000
00000000
00001000
00010000
,
00001000
00000000
00000000
00010000
00000000
00000000
00000010
00000000
00000100
00000000
00000001
00000100
00000001
00000000
00001000
00000100
,
00002000
00000000
00000000
00003200
00000000
00000000
00010300
00000000
00002000
00000000
00000000
02003000
00000000
00000000
03100000
00000000
,
01100000
00000000
00000000
01100000
00000000
00000000
01100000
00000000
01010000
00000000
00000000
01010000
00000000
00000000
01010000
00000000
,
10010000
00000000
00000000
10000000
00100000
00000000
00000000
00100000
10000000
00000000
00000000
10000000
00001000
00000000
00000000
00001000
,
00010000
00000000
00000000
00010000
00000010
00000000
00000000
00000010
00000100
00000000
00000001
00001000
00000001
00001000
00000001
00000000
,
00000010
00000000
00000000
00000010
00000001
00000000
00000000
00000001
00010000
00000000
00000000
00010000
00001000
00000000
00000000
00001000
,
00100000
00000000
00000000
00100000
01000000
00000000
00000000
01000000
10000000
00000000
00010000
10000000
00010000
10000000
00010000
00000000
,
02000000
00000000
00000000
00001000
00000000
00000000
03001000
00000000
00020000
00000000
00000000
00000000
00031000
00000000
00000000
00000000
,
00000020
00000000
00000000
00000100
00000000
00000000
00000130
00000000
00000002
00000000
00000000
00000000
00001003
00000000
00000000
00000000
,
00000010
00000000
00000000
00010000
00000000
00000000
00001000
00000000
02000000
00000000
00000000
00000000
03100000
00000000
00000000
00000000
,
01100000
00000000
00000000
01100000
00000000
00000000
01100000
00000000
11000000
00000000
00000000
11000000
00000000
00000000
11000000
00000000
,
10010000
00000000
00000000
00010000
01000000
00000000
00000000
01000000
00100000
00000000
00000000
00100000
10000000
00000000
00000000
10000000
,
00001000
00000000
00000000
00001000
00010000
00000000
00000000
00010000
00000010
00000000
00000100
00000010
00000100
00000010
00000100
00000000
,
00000001
00000000
00000000
00000100
00000010
00000000
00000000
00000010
00010000
00000000
00000000
00010000
00001000
00000000
00000000
00001000
,
02000000
00000000
00000000
00100000
00000000
00000000
03100000
00000000
20000000
00000000
00000000
02000000
00000000
00000000
33000000
00000000
,
10010000
00000000
00000000
10010000
00000000
00000000
10010000
00000000
00110000
00000000
00000000
00000000
00110000
00000000
00000000
00000000
,
00011000
00000000
00000000
00011000
00000000
00000000
00011000
00000000
00010010
00000000
00000000
00000000
00010010
00000000
00000000
00000000
,
00000110
00000000
00000000
00000110
00000000
00000000
00000110
00000000
00000011
00000000
00000000
00000011
00000000
00000000
00000011
00000000
,
00001001
00000000
00000000
00001010
00000000
00000000
00000010
00000100
00000010
00000000
00000000
00000000
00000000
00000000
00000100
00000001
,
00002000
00000000
00000000
00000000
00000000
00000000
00003100
00000010
00000002
00000000
00000000
00020003
00000000
00000000
00031000
00000000
,
00020000
00000000
00000000
00000000
00000000
00000000
00000000
00000000
00000000
00030020
00000000
00000000
00000000
00000000
00000000
00000000
00000000
00000000
00000130
00000000
00000000
00000000
00000000
00000000
00000001
00000000
00000000
00000000
00000010
00000000
00000000
00000000
00000100
00000000
00000000
00000000
00010000
00000000
00000000
00000000
00001000
00000000
00000000
00000000
00100000
00000000
00000000
00000000
,
02000000
00000000
00000000
23000000
00000000
00000000
30010000
00000000
00200000
00000000
00000000
00320000
00000000
00000000
01030000
00000000
,
00200000
00000000
00000000
00000000
00000000
00000000
00000000
00000000
00000000
02300000
00000000
00000000
00000000
00000000
00000000
00000000
00000000
00000000
03010000
00000000
00000000
00000000
00000000
00000000
10000000
00000000
00000000
00000000
00100000
00000000
00000000
00000000
01000000
00000000
00000000
00000000
00001000
00000000
00000000
00000000
00010000
00000000
00000000
00000000
00000010
00000000
00000000
00000000
,
00000200
00000000
00000000
00000000
00000000
00000000
00000301
00000010
00000200
00000000
00000000
00020300
00000000
00000000
00031000
00000000
,
00200000
00000000
00000000
00000000
00000000
00000000
00000000
00000000
00000000
02300000
00000000
00000000
00000000
00000000
00000000
00000000
00000000
00000000
13000000
00000000
00000000
00000000
00000000
00000000
00100000
00000000
00000000
00000000
01000000
00000000
00000000
00000000
00010000
00000000
00000000
00000000
00100000
00000000
00000000
00000000
00001000
00000000
00000000
00000000
00010000
00000000
00000000
00000000
,
00002000
00000000
00000000
00023000
00000000
00000000
00030010
00000000
00000200
00000000
00000000
00000302
00000000
00000000
00000013
00000000
,
00000200
00000000
00000000
00000000
00000000
00000000
00000000
00000000
00000000
00020300
00000000
00000000
00000000
00000000
00000000
00000000
00000000
00000000
00031000
00000000
00000000
00000000
00000000
00000000
00010000
00000000
00000000
00000000
00001000
00000000
00000000
00000000
00100000
00000000
00000000
00000000
01000000
00000000
00000000
00000000
10000000
00000000
00000000
00000000
01000000
00000000
00000000
00000000
,
00200000
00000000
00000000
00000000
00310000
10000000
01000000
10000000
,
00020000
00000000
00000000
00000000
00130000
00001000
00010000
00001000
,
10000000
00000000
10000000
00000000
01000000
00000000
00100000
00000000
00001000
00000000
00010000
00001000
00010000
00000000
00000010
00000100
,
00000010
00000100
00000010
00000100
00000010
00000000
00000010
00000000
,
00001001
00000000
00000000
00001000
00000010
00000000
00000000
00000010
00000100
00000000
00000000
00000100
00000001
00000000
00000000
00000001
,
00010000
00000000
00000000
00010000
00001000
00000000
00000000
00001000
10000000
00000000
01000000
00100000
01000000
00100000
01000000
00000000
,
10000000
00000000
00000000
10000000
01000000
00000000
00000000
01000000
00100000
00000000
00000000
00100000
00001000
00000000
00000000
00001000
,
00010000
00000000
00000000
00010000
00000010
00000000
00000000
00000010
00000100
00000000
00000001
00001000
00000001
00001000
00000001
00000000
,
00000010
00000000
00000000
00000010
00000100
00000000
00000000
00000100
00010000
00000000
00000000
00010000
00001000
00000000
00000000
00001000
,
01000000
00000000
00000000
01000000
00100000
00000000
00000000
00100000
10000000
00000000
00000000
10000000
00010000
00000000
00000000
00010000
,
02000000
00000000
00000000
03200000
00000000
00000000
10300000
00000000
00020000
00000000
00000000
00000000
10030000
00000000
00000000
00000000
,
01001000
00000000
00000000
01001000
00000000
00000000
01001000
00000000
00011000
00000000
00000000
00011000
00000000
00000000
00011000
00000000
,
00010001
00000000
00000000
00000001
00000010
00000000
00000000
00000010
00000100
00000000
00000000
00000100
00010000
00000000
00000000
00010000
,
00001000
00000000
00000000
00001000
01000000
00000000
00000000
01000000
00100000
00000000
10000000
00010000
10000000
00010000
10000000
00000000
,
01000000
00000000
00000000
01000000
00100000
00000000
00000000
00100000
00001000
00000000
00000000
00001000
00010000
00000000
00000000
00010000
,
00000020
00000000
00000000
00000100
00000000
00000000
00000130
00000000
00000002
00000000
00000000
00000020
00000000
00000000
00000033
00000000
,
00001001
00000000
00000000
00001001
00000000
00000000
00001001
00000000
00001100
00000000
00000000
00000000
00001100
00000000
00000000
00000000
,
00011000
00000000
00000000
00011000
00000000
00000000
00011000
00000000
01001000
00000000
00000000
00000000
01001000
00000000
00000000
00000000
,
01100000
00000000
00000000
01100000
00000000
00000000
01100000
00000000
01010000
00000000
00000000
01010000
00000000
00000000
01010000
00000000
,
10010000
00000000
00000000
10010000
00000000
00000000
10000000
00010000
10000000
00000000
00000000
00000000
00000000
00000000
00001000
00010000
,
00001000
00000000
00001000
00000000
00100000
01000000
00100000
00000000
00001000
00000000
00001000
00000000
00100000
01000000
00100000
00000000
,
00001000
00001000
00020200
00000000
00000000
00000000
00000000
00000000
,
00000000
00000000
00000000
00000000
,
00030300
00000000
00000000
00000000
;

//---------------dance-single - ----------------
#NOTES:
     dance-single:
     :
     Beginner:
     2:
     0.095,0.149,0.154,0.000,0.000: // measure 1
1000
0000
0000
0000
,  // measure 2
1000
0000
0000
0000
,  // measure 3
1001
0000
0000
0000
,  // measure 4
0010
0000
0000
0000
,  // measure 5
0110
0000
0000
0000
,  // measure 6
0100
0000
0000
0000
,  // measure 7
1001
0000
0000
0000
,  // measure 8
0001
0000
0000
0000
,  // measure 9
1001
0000
0000
0000
,  // measure 10
0010
0000
0000
0000
,  // measure 11
0100
0000
0000
0000
,  // measure 12
0010
0000
0000
0000
,  // measure 13
0100
0000
0000
0000
,  // measure 14
1000
0000
0000
0000
,  // measure 15
0100
0000
0000
0000
,  // measure 16
1001
0000
0000
0000
,  // measure 17
0001
0000
0001
0000
,  // measure 18
0001
0000
0000
0000
,  // measure 19
1000
0000
1000
0000
,  // measure 20
1000
0000
0000
0000
,  // measure 21
0010
0000
0000
0000
,  // measure 22
0100
0000
0000
0000
,  // measure 23
0001
0000
0000
0000
,  // measure 24
1001
0000
0000
0000
,  // measure 25
0001
0000
0001
0000
,  // measure 26
0001
0000
0000
0000
,  // measure 27
1000
0000
1000
0000
,  // measure 28
1000
0000
0000
0000
,  // measure 29
0110
0000
0000
0000
,  // measure 30
0110
0000
0000
0000
,  // measure 31
0110
0000
0000
0000
,  // measure 32
0000
0000
0000
0000
,  // measure 33
1001
0000
0000
0000
,  // measure 34
0000
0000
0000
0000
,  // measure 35
0000
0000
0000
0000
,  // measure 36
0000
0000
0000
0000
,  // measure 37
1001
0000
0000
0000
,  // measure 38
0000
0000
0000
0000
,  // measure 39
0000
0000
0000
0000
,  // measure 40
0000
0000
0000
0000
,  // measure 41
0010
0000
0000
0000
,  // measure 42
0100
0000
0000
0000
,  // measure 43
0010
0000
0000
0000
,  // measure 44
0010
0000
0000
0000
,  // measure 45
1001
0000
0001
0000
,  // measure 46
0001
0000
0000
0000
,  // measure 47
1000
0000
1000
0000
,  // measure 48
1000
0000
0000
0000
,  // measure 49
0100
0000
0000
0000
,  // measure 50
0010
0000
0000
0000
,  // measure 51
0100
0000
0000
0000
,  // measure 52
1001
0000
0000
0000
,  // measure 53
0001
0000
0001
0000
,  // measure 54
0001
0000
0000
0000
,  // measure 55
1000
0000
1000
0000
,  // measure 56
1000
0000
0000
0000
,  // measure 57
0110
0000
0000
0000
,  // measure 58
0110
0000
0000
0000
,  // measure 59
1001
0000
0000
0000
,  // measure 60
0000
0000
0000
0000
,  // measure 61
0000
1001
0000
1001
,  // measure 62
0000
0110
0000
0000
;
