#TITLE:Aqualight;
#SUBTITLE:;
#ARTIST:MAYA AKAI;
#TITLETRANSLIT:;
#SUBTITLETRANSLIT:;
#ARTISTTRANSLIT:;
#CREDIT:DigiMindAxel;
#BANNER:Aqualight.png;
#BACKGROUND:Aqualight-bg.png;
#LYRICSPATH:;
#CDTITLE:CROSSxBEATS.png;
#MUSIC:Aqualight.ogg;
#METERTYPE:DDR X;
#OFFSET:-8.779;
#SAMPLESTART:86.420;
#SAMPLELENGTH:12.000;
#SELECTABLE:YES;
#BPMS:0.000=136.000,112.000=68.000,128.000=136.000;
#STOPS:;
#BGCHANGES:;

//---------------dance-single - ----------------
#NOTES:
     dance-single:
     :
     Easy:
     5:
     0.184,0.240,0.041,0.248,0.000:
0001
0000
0000
0000
,
0010
0000
0000
0000
,
0001
0000
0000
0000
,
0100
0000
0000
0000
,
0020
0000
0000
0000
,
0230
0000
0000
0000
,
0320
0000
0000
0000
,
0230
0000
0000
0000
,
0310
0010
0010
0000
,
1000
1000
1000
0000
,
0001
0001
0001
0000
,
1000
1000
1000
0000
,
1002
0000
0023
0000
,
0032
0000
0203
0000
,
0320
0000
2030
0000
,
3002
0000
2003
0000
,
3200
0000
0320
0000
,
0230
0000
2300
0000
,
3002
0000
0023
0000
,
0230
0000
0320
0000
,
0032
0000
1000
0000
,
2003
0000
0001
0000
,
3002
0000
1000
0000
,
2003
0000
0001
0000
,
3002
0000
0010
0000
,
0023
0000
0100
0000
,
0230
0000
1000
0000
,
2300
0000
0001
0000
,
3001
0000
0010
0000
,
0100
0000
0010
0000
,
1000
0000
0001
0000
,
1000
0000
0100
0000
,
0110
0000
0000
0000
,
0010
0000
0000
0000
,
0100
0000
0000
0000
,
0001
0000
0000
0000
,
1001
0000
0000
0000
,
1000
0000
0000
0000
,
0001
0000
1000
0000
,
0001
0000
0000
0000
,
1001
0001
0001
0000
,
0010
0010
0010
0000
,
0100
0100
0100
0000
,
1000
1000
1000
0000
,
0001
0001
0001
0000
,
0100
0100
0100
0000
,
0010
0010
0010
0000
,
0100
0100
0100
0000
,
0001
1000
0001
1000
,
0100
1000
0100
1000
,
0001
1000
0001
1000
,
0010
1000
0010
1000
,
0010
0010
0010
0000
,
0100
0100
0100
0000
,
0010
0010
0010
0010
,
0100
0000
0000
0000
,
2002
0000
0000
0000
,
0000
0000
0000
0000
,
3003
0000
0000
0000
;

//---------------dance-single - ----------------
#NOTES:
     dance-single:
     :
     Medium:
     8:
     0.326,0.336,0.166,0.265,0.000:
0001
1001
0001
1001
,
1000
1100
1000
1100
,
1000
1001
1000
1001
,
0001
0101
0100
0110
,
0002
1000
0000
1003
,
0200
1000
0000
1300
,
0020
0100
0000
0130
,
0002
0100
0000
0103
,
0001
0110
0001
0110
,
1000
0101
1000
0101
,
0010
1001
0010
1001
,
0001
1100
0001
1100
,
2000
0000
0000
3200
0000
0000
0000
0000
,
2300
0000
0000
3020
0000
0000
0000
0000
,
0230
0000
0000
0302
0000
0000
0000
0000
,
0023
0000
0000
0230
0000
0000
0000
0000
,
2300
0000
0000
3002
0000
0000
0000
0000
,
0203
0000
0000
0302
0000
0000
2003
0000
,
3002
0000
0000
0023
0000
0000
0000
0000
,
0032
0000
0000
0203
0000
0000
0310
0000
,
1001
0000
1000
1000
1000
0000
0000
0000
,
0001
0000
0010
0010
0010
0000
0000
0000
,
0001
0000
0100
0100
0100
0000
0000
0000
,
0010
0000
0100
0100
0100
0000
0000
0000
,
0001
0000
0010
0010
0010
0000
0000
0000
,
0001
0000
1000
1000
1000
0000
0000
0000
,
0100
0000
0010
0010
0010
0000
0000
0000
,
0001
0000
0100
0100
0100
0000
0000
0000
,
1002
0000
0023
0000
,
0032
0000
0203
0000
,
0320
0000
0230
0000
,
0320
0000
2030
0000
,
3001
0001
1000
1000
,
0100
0100
0010
0010
,
0001
0001
0100
0100
,
0010
0010
1000
1000
,
0100
0010
0100
0000
1000
0001
1000
0000
,
0001
1000
0001
0000
0100
0010
0100
0000
,
0001
1000
0001
0000
1000
0001
1000
0000
,
0002
0000
0000
0000
,
1003
0000
0001
0100
0001
0000
1000
0000
,
0100
0000
1000
0001
1000
0000
0100
0000
,
1000
0000
0001
0100
0001
0000
1000
0000
,
0010
0000
0100
0010
0100
0000
0001
0000
,
0010
0000
0100
0010
0100
0000
1000
0000
,
0010
0000
0100
0010
0100
0000
0001
0000
,
1000
0000
0100
1000
0100
0000
0010
0000
,
0001
0000
0010
0001
0010
0000
0100
0000
,
1001
0000
0001
0010
0001
0010
0001
0000
,
0010
0000
0100
1000
0100
1000
0100
0000
,
1000
0000
0001
0100
0001
0100
0001
0000
,
1000
0000
0100
0010
0100
0010
0100
0000
,
1000
0000
0001
0100
0010
0100
0001
0000
,
1000
0000
0001
0010
0100
0010
0001
0000
,
1000
0000
0010
0100
0010
1000
0100
0000
,
0010
0010
0010
0010
,
2002
0000
0000
0000
,
0000
0000
0000
0000
,
3003
0000
0000
0000
;

//---------------dance-single - ----------------
#NOTES:
     dance-single:
     :
     Hard:
     10:
     0.440,0.408,0.083,0.373,0.327:
0001
0000
0000
1000
0000
0000
0100
0000
0000
1000
0000
1000
0000
0000
0000
0000
,
0100
0000
0000
0010
0000
0000
0001
0000
0000
0100
0000
0100
0000
0000
0000
0000
,
0010
0000
0000
1000
0000
0000
0100
0000
0000
1000
0000
1000
0000
0000
0000
0000
,
0010
0000
0000
0100
0000
0000
0001
0000
0000
1000
0000
1000
0000
0000
0000
0000
,
2001
0100
0001
3100
,
0020
0001
0100
0031
,
0200
1000
0010
1300
,
0002
0100
0010
0103
,
1001
0000
0000
1000
0100
0000
0000
0000
1000
0000
0000
0010
0100
0000
0000
0000
,
0001
0000
0000
0100
0001
0000
0000
0000
1000
0000
0000
0100
0010
0000
0000
0000
,
0001
0000
0000
1000
0100
0000
0000
0000
1000
0000
0000
0001
0100
0000
0000
0000
,
0001
0000
0000
0010
0100
0000
0000
0000
0000
1000
0000
1000
0000
0000
0000
0000
,
1001
0000
0000
0001
0100
0000
0010
0000
0100
0000
0000
0001
1000
0000
0000
0000
,
0100
0000
0000
1000
0010
0000
0100
0000
0001
0000
0000
1000
0100
0000
0000
0000
,
1000
0000
0000
0010
0100
0000
0001
0000
1000
0000
0000
0100
1000
0000
0000
0000
,
0001
0000
0000
1000
0001
0000
0010
0000
0100
0000
0000
0010
0001
0000
0000
0000
,
1000
0000
0000
0010
0100
0000
0001
0000
1000
0000
0000
0100
1000
0000
0000
0000
,
0001
0000
0000
0010
0001
0000
0010
0000
0100
0000
0000
1000
0010
0000
0000
0000
,
0100
0000
0000
0001
1000
0000
0100
0000
0010
0000
0000
0100
1000
0000
0000
0000
,
0010
0000
0000
0100
0001
0000
1000
0000
0010
0000
0000
1000
0001
0000
0000
0000
,
0012
0000
0100
0203
0000
0000
0000
0000
,
0320
0000
1000
2030
0000
0000
3002
0000
,
0023
0000
0100
0230
0000
0000
0000
0000
,
0320
0000
0001
0032
0000
0000
2003
0000
,
3020
0000
0100
0230
0000
0000
0000
0000
,
0302
0000
1000
2003
0000
0000
3200
0000
,
2300
0000
0001
3002
0000
0000
0023
0000
,
0230
0000
1000
2300
0000
0000
3001
0000
,
0101
0000
0000
0100
0000
0000
0010
0000
1000
0000
0000
1000
0000
0000
0100
0000
,
0010
0000
0000
0010
0000
0000
0001
0000
0010
0000
0000
0010
0000
0000
0001
0000
,
1000
0000
0000
1000
0000
0000
0010
0000
0100
0000
0000
0100
0000
0000
0001
0000
,
0100
0000
0000
0100
0000
0000
0001
0000
1000
0000
0000
1000
0000
0000
0100
0000
,
1200
0000
1300
0000
0020
0000
1030
0001
,
0020
0000
0130
0000
2000
0000
3001
1000
,
0200
0000
0310
0000
0002
0000
0103
0010
,
2000
0000
3100
0000
0020
0000
0130
1000
,
0001
0010
0001
0010
0100
1000
0001
0000
,
0100
0001
0100
0001
1000
0100
1000
0000
,
0010
0100
0010
0100
0001
0010
0001
1000
,
0020
0000
0000
0100
0000
0000
0130
0000
,
0110
0000
0000
0010
0100
0000
0002
0000
0000
1000
0000
1003
0000
0000
0000
0000
,
0001
0000
0000
1000
0100
0000
2000
0000
0000
0001
0000
3001
0000
0000
0000
0000
,
0100
0000
0000
0010
1000
0000
0200
0000
0000
1000
0000
1300
0000
0000
0000
0000
,
0010
0000
0000
0100
0001
0000
2000
0000
0000
0100
0000
3100
0000
0000
1000
0001
,
1000
0000
0000
0001
0010
0000
0200
0000
0000
0010
0000
0310
0000
0000
0000
0000
,
0001
0000
0000
1000
0001
0000
0020
0000
0000
0100
0000
0130
0000
0000
0000
0000
,
1000
0000
0000
0001
0100
0000
0020
0000
0000
1000
0000
1030
0000
0000
0000
0000
,
0001
0000
0000
1000
0001
0000
0020
0000
0000
0100
0000
0130
0000
0000
0000
0000
,
1001
0000
0000
0001
0100
0000
0010
0000
1000
0000
0010
0000
0001
0000
0000
0000
,
0010
0000
0000
1000
0001
0000
0010
0000
0001
0000
0100
0000
1000
0000
0000
0000
,
0100
0000
0000
0001
1000
0000
0010
0000
1000
0000
0100
0000
0001
0000
0000
0000
,
0100
0000
0000
1000
0001
0000
0020
0000
0000
0001
0000
0031
0000
0000
1000
0000
,
1001
0000
0000
0001
1000
0000
0100
0000
0001
0000
0100
0000
1000
0000
0000
0000
,
0001
0000
0000
1000
0001
0000
0010
0000
1000
0000
0010
0000
0001
0000
0000
0000
,
1000
0000
0000
0001
1000
0000
0010
0000
0001
0000
0010
0000
1000
0000
0000
0000
,
0020
0100
0100
0130
,
2002
0000
0000
0000
,
0000
0000
0000
0000
,
3003
0000
0000
0000
;

//---------------dance-single - ----------------
#NOTES:
     dance-single:
     :
     Challenge:
     12:
     0.504,0.528,0.091,0.364,0.646:
1000
0000
0000
0001
0100
0000
0002
0000
0000
1000
0000
1003
0000
0000
0000
0000
,
0001
0000
0000
1000
0100
0000
2000
0000
0000
0001
0000
3001
0000
0000
0000
0000
,
0100
0000
0000
0001
1000
0000
0020
0000
0000
0100
0000
0130
0000
0000
0000
0000
,
0001
0000
0000
0010
0100
0000
2000
0000
0000
0001
0000
3001
0000
0000
0000
0000
,
1001
0000
0000
0001
0000
0000
0010
0000
0000
0001
0000
1000
0000
0000
0000
0000
,
0001
0000
0000
0100
0000
0000
0001
0000
0000
1000
0000
0001
0000
0000
0000
0000
,
0010
0000
0000
0100
0000
0000
0010
0000
0000
0001
0000
1000
0000
0000
0000
0000
,
0100
0000
0000
1000
0000
0000
0100
0000
0000
1000
0000
0001
0000
0000
0100
0000
,
0110
0000
0000
0010
1000
0000
0100
0000
0000
1000
0000
0001
0000
0000
0000
0000
,
0100
0000
0000
0010
0100
0000
0001
0000
0000
1000
0000
0010
0000
0000
0000
0000
,
1000
0000
0000
0001
0010
0000
0001
0000
0000
0010
0000
0100
0000
0000
0000
0000
,
1000
0000
0000
0100
1000
0000
0001
0000
0000
0100
0000
0010
0000
1000
0001
0000
,
1002
0000
0000
1003
0010
1000
0010
1000
0000
0001
0000
1000
0000
0000
0000
0000
,
0002
0000
0000
0103
0001
0100
0001
0100
0000
0001
0000
1000
0000
0000
0000
0000
,
0200
0000
0000
0310
0001
0010
0001
0010
0000
0001
0000
1000
0000
0000
0000
0000
,
0200
0000
0000
1300
0001
1000
0001
1000
0000
0010
0000
0100
0000
0000
0000
0000
,
0002
0000
0000
1003
0100
1000
0100
1000
0000
0010
0000
0100
0000
0000
0000
0000
,
0002
0000
0000
0103
0001
0100
0001
0100
0000
0001
0000
1000
0000
0000
0000
0000
,
0200
0000
0000
0310
0001
0010
0001
0010
0000
0001
0000
1000
0000
0000
0000
0000
,
0002
0000
0000
1003
0010
1000
0010
1000
0000
0001
0000
1000
0000
0000
0000
0000
,
1001
0000
0001
0200
0000
0000
0310
0000
,
1000
0000
0100
0020
0000
0000
0032
0000
,
1003
0000
0100
2000
0000
0000
3001
0000
,
0200
0000
0310
2000
0000
0000
3002
0000
,
0013
0000
0100
2000
0000
0000
3001
0000
,
0200
0000
0301
2000
0000
0000
3200
0000
,
0310
0000
0001
0200
0000
0000
0310
0000
,
2000
0000
3001
0020
0000
0000
0031
0000
,
1001
0000
1000
0010
0000
0000
1000
0000
0001
0000
0010
0001
0000
0000
1000
0000
,
0010
0000
0100
0010
0000
0000
1000
0000
0001
0000
0010
0001
0000
0000
1000
0000
,
0001
0010
0100
1000
0000
0000
1000
0000
0001
0100
0010
1000
0000
0000
1000
0000
,
0100
0010
0001
0100
0000
0000
0100
0000
0010
1000
0001
0010
0000
0000
0010
0000
,
1002
0000
0000
0100
0000
0000
1000
0000
0000
0100
0000
0103
0000
0000
0000
0000
,
0020
0000
0000
1000
0000
0000
0100
0000
0000
1000
0000
1030
0000
0000
0000
0000
,
0002
0000
0000
1000
0000
0000
0100
0000
0000
1000
0000
1003
0000
0000
0000
0000
,
0020
0000
0000
0100
0000
0000
1000
0000
0000
0100
0000
0130
0000
0000
0000
0000
,
0101
0000
0000
0100
0000
0000
0001
0000
0000
1000
0000
0100
0000
0000
0000
0000
,
1000
0000
0000
0010
0000
0000
1000
0000
0000
0001
0000
0010
0000
0000
0000
0000
,
0001
0010
0100
0010
0001
0100
1000
0100
,
0002
0000
0000
2003
0000
0000
3001
0000
,
0101
0000
0000
0100
0001
0000
1000
0000
0200
1000
0000
1300
0000
0000
0000
0000
,
0010
0000
0000
0010
0100
0000
0001
0000
0020
0100
0000
0130
0000
0000
0000
0000
,
1000
0000
0000
1000
0001
0000
0010
0000
0200
0010
0000
0310
0000
0000
0000
0000
,
0001
0000
0000
0001
1000
0000
0010
0000
0200
0010
0000
0310
0000
0000
1000
0001
,
0100
0000
0000
0100
0001
0000
0010
0000
0200
1000
0000
1300
0000
0000
0000
0000
,
0001
0000
0000
0001
1000
0000
0010
0000
0200
0010
0000
0310
0000
0000
0000
0000
,
1000
0000
0000
1000
0010
0000
0100
0000
0002
1000
0000
1003
0000
0000
0000
0000
,
0001
0000
0000
0001
0010
0000
0100
0000
2000
0001
0000
3001
0000
0000
0000
0000
,
1001
0000
1000
0100
1000
0000
0001
0000
0100
0010
0000
0010
1000
0000
0000
0000
,
0001
0000
0010
0001
0010
0000
0001
0000
1000
0010
0000
0010
0100
0000
0000
0000
,
0001
0000
1000
0010
1000
0000
0100
0000
0010
0001
0000
0001
0100
0000
0000
0000
,
0010
0000
1000
0001
1000
0000
0010
0000
0100
0001
0000
0001
1000
0000
0100
0000
,
1100
0000
1000
0001
0100
0000
0001
0100
0001
1000
0000
0100
0000
0000
0000
0000
,
1000
0000
0001
0010
0100
0000
1000
0001
1000
0010
0000
0100
0000
0000
0000
0000
,
0001
0000
1000
0100
0010
0000
0001
1000
0001
0100
0000
0010
0000
0000
0000
0000
,
0200
0010
0302
1003
,
2002
0000
0000
0000
,
0000
0000
0000
0000
,
3003
0000
0000
0000
;

//---------------dance-double - ----------------
#NOTES:
     dance-double:
     :
     Easy:
     5:
     0.190,0.240,0.033,0.290,0.000:
10000000
00000000
00000000
00000000
,
01000000
00000000
00000000
00000000
,
00100000
00000000
00000000
00000000
,
00010000
00000000
00000000
00000000
,
20000000
00000000
00000000
00000000
,
30200000
00000000
00000000
00000000
,
02300000
00000000
00000000
00000000
,
03002000
00000000
00000000
00000000
,
00013000
00010000
00010000
00000000
,
00000100
00000100
00000100
00000000
,
00001000
00001000
00001000
00000000
,
00000001
00000001
00000001
00000000
,
00001002
00000000
00000203
00000000
,
00000320
00000000
00020030
00000000
,
00032000
00000000
00203000
00000000
,
02300000
00000000
23000000
00000000
,
30200000
00000000
02300000
00000000
,
03002000
00000000
00023000
00000000
,
00030200
00000000
00000320
00000000
,
00000032
00000000
00020003
00000000
,
00030200
00000000
00001000
00000000
,
00002300
00000000
00000010
00000000
,
00003002
00000000
00010000
00000000
,
00020003
00000000
00000010
00000000
,
00032000
00000000
00100000
00000000
,
00203000
00000000
01000000
00000000
,
02300000
00000000
10000000
00000000
,
23000000
00000000
00010000
00000000
,
30010000
00000000
10000000
00000000
,
01000000
00000000
00100000
00000000
,
00001000
00000000
00010000
00000000
,
00000100
00000000
00000010
00000000
,
00000110
00000000
00000000
00000000
,
00000100
00000000
00000000
00000000
,
00000010
00000000
00000000
00000000
,
00001000
00000000
00000000
00000000
,
00001002
00000000
00000000
00000000
,
00002003
00000000
00000000
00000000
,
00003002
00000000
00002003
00000000
,
00003001
00000000
00000000
00000000
,
00001000
00000100
00001000
00000000
,
00000001
00001000
00000001
00000000
,
00010000
00000010
00010000
00000000
,
00001000
00010000
00001000
00000000
,
01000000
00100000
01000000
00000000
,
00010000
10000000
00010000
00000000
,
10000000
01000000
10000000
00000000
,
01000000
00100000
01000000
00000000
,
10000000
00010000
10000000
00010000
,
00100000
00010000
00100000
00010000
,
10000000
00010000
10000000
00010000
,
01000000
00001000
01000000
00001000
,
00010000
00010000
00010000
00000000
,
00000100
00000100
00000100
00000000
,
00000010
00000010
00000010
00000010
,
00000020
00000000
00000031
00000000
,
00002002
00000000
00000000
00000000
,
00000000
00000000
00000000
00000000
,
00003003
00000000
00000000
00000000
;

//---------------dance-double - ----------------
#NOTES:
     dance-double:
     :
     Medium:
     8:
     0.331,0.408,0.108,0.315,0.000:
00020000
10000000
01000000
10030000
,
02000000
10000000
00100000
13000000
,
00200000
00010000
01000000
00310000
,
20000000
00100000
01000000
30100000
,
10010000
01000000
00100000
00010000
,
00100000
01000000
10000000
00001000
,
00010000
00001000
00010000
00001000
,
00010000
00000010
00000100
00000001
,
00000100
00001001
00000100
00001001
,
00010000
00010100
00010000
00010100
,
00001000
00101000
00001000
00101000
,
01000000
10010000
01000000
10010000
,
00020000
00000000
00000000
02030000
00000000
00000000
00000000
00000000
,
03002000
00000000
00000000
00203000
00000000
00000000
00000000
00000000
,
00320000
00000000
00000000
02030000
00000000
00000000
00000000
00000000
,
03200000
00000000
00000000
02300000
00000000
00000000
00000000
00000000
,
03002000
00000000
00000000
00023000
00000000
00000000
00000000
00000000
,
00030200
00000000
00000000
00000320
00000000
00000000
00000032
00000000
,
00002003
00000000
00000000
00003200
00000000
00000000
00000000
00000000
,
00020300
00000000
00000000
00032000
00000000
00000000
10003000
00000000
,
10001000
00000000
01000000
01000000
01000000
00000000
00000000
00000000
,
00100000
00000000
10000000
10000000
10000000
00000000
00000000
00000000
,
00001000
00000000
00100000
00100000
00100000
00000000
00000000
00000000
,
00001000
00000000
00010000
00010000
00010000
00000000
00000000
00000000
,
00000100
00000000
00000010
00000010
00000010
00000000
00000000
00000000
,
00000001
00000000
00001000
00001000
00001000
00000000
00000000
00000000
,
00000100
00000000
00010000
00010000
00010000
00000000
00000000
00000000
,
00001000
00000000
00100000
00100000
00100000
00000000
00000000
00000000
,
02100000
00000000
03020000
00000000
,
20030000
00000000
32000000
00000000
,
03200000
00000000
00302000
00000000
,
00003200
00000000
00000320
00000000
,
00000031
00000001
00000010
00000010
,
00000100
00000100
00001000
00001000
,
00010000
00010000
00100000
00100000
,
01000000
01000000
10000000
10000000
,
00010000
10000000
00020000
00000000
01030000
00100000
02000000
00000000
,
03001000
01000000
00002000
00000000
00013000
00001000
00020000
00000000
,
00030100
00000010
00000200
00000000
00001300
00000001
00002000
00000000
,
00003002
00000000
00000000
00000000
,
00001003
00000000
00000001
00000100
00000001
00000000
00000010
00000000
,
00000100
00000000
00010000
00000010
00010000
00000000
00001000
00000000
,
01000000
00000000
00100000
01000000
00100000
00000000
10000000
00000000
,
01000000
00000000
00100000
01000000
00100000
00000000
00010000
10000000
,
00001000
00000000
00010000
00001000
00010000
00000000
00000010
00000000
,
00000100
00000000
00000001
00001000
00000001
00000000
00000010
00000000
,
00000100
00000000
00010000
00000100
00010000
00000000
00001000
00000000
,
01000000
00000000
00100000
01000000
00100000
00000000
01000000
00000000
,
10010000
00000000
10000000
01000000
10000000
01000000
10000000
00000000
,
01000000
00000000
00100000
00010000
00100000
00010000
00100000
00000000
,
00001000
00000000
00010000
00000100
00010000
00000100
00010000
00000000
,
00000100
00000000
00000010
00000100
00000010
00000100
00000010
00000000
,
00000001
00000000
00010000
00000001
00000010
00000001
00010000
00000000
,
00000001
00000000
00001000
00000010
00000100
00000010
00001000
00000000
,
00000100
00000000
00010000
00001000
01000000
00100000
01000000
00000000
,
00100000
00100000
00100000
00100000
,
20020000
00000000
00000000
00000000
,
00000000
00000000
00000000
00000000
,
30030000
00000000
00000000
00000000
;

//---------------dance-double - ----------------
#NOTES:
     dance-double:
     :
     Hard:
     10:
     0.436,0.408,0.075,0.364,0.327:
01000000
00000000
00000000
10000000
00000000
00000000
00100000
00000000
00000000
01000000
00000000
01000000
00000000
00000000
00000000
00000000
,
00100000
00000000
00000000
01000000
00000000
00000000
00001000
00000000
00000000
00010000
00000000
00010000
00000000
00000000
00000000
00000000
,
00000100
00000000
00000000
00000010
00000000
00000000
00000001
00000000
00000000
00001000
00000000
00001000
00000000
00000000
00000000
00000000
,
00000001
00000000
00000000
00000010
00000000
00000000
00000100
00000000
00000000
00000010
00000000
00000010
00000000
00000000
00000000
00000000
,
00001001
00000010
00000100
00001000
,
00010000
00100000
01000000
10000000
,
00100000
01000000
00010000
00001000
,
00000010
00000100
00000002
00000000
,
00001003
00000000
00000000
00000001
00000100
00000000
00000000
00000000
00000010
00000000
00000000
00010000
00000100
00000000
00000000
00000000
,
00010000
00000000
00000000
00001000
00010000
00000000
00000000
00000000
00001000
00000000
00000000
01000000
00010000
00000000
00000000
00000000
,
10000000
00000000
00000000
01000000
00100000
00000000
00000000
00000000
00001000
00000000
00000000
00010000
00000010
00000000
00000000
00000000
,
00000100
00000000
00000000
00000001
00002000
00000000
00000000
00000000
00000000
00000001
00000000
00003001
00000000
00000000
00000000
00000000
,
00001001
00000000
00000000
00001000
00000001
00000000
00000010
00000000
00000100
00000000
00000000
00010000
00001000
00000000
00000000
00000000
,
00100000
00000000
00000000
00010000
10000000
00000000
01000000
00000000
00100000
00000000
00000000
00001000
00010000
00000000
00000000
00000000
,
00001000
00000000
00000000
00010000
00000001
00000000
00000100
00000000
00000010
00000000
00000000
00010000
00001000
00000000
00000000
00000000
,
00010000
00000000
00000000
00001000
10000000
00000000
01000000
00000000
00100000
00000000
00000000
00001000
00010000
00000000
00000000
00000000
,
00001000
00000000
00000000
00010000
00000001
00000000
00000100
00000000
00000010
00000000
00000000
00010000
00001000
00000000
00000000
00000000
,
00010000
00000000
00000000
00001000
10000000
00000000
01000000
00000000
00100000
00000000
00000000
00001000
00010000
00000000
00000000
00000000
,
00001000
00000000
00000000
00010000
00000001
00000000
00000010
00000000
00000100
00000000
00000000
00010000
00001000
00000000
00000000
00000000
,
00010000
00000000
00000000
00001000
10000000
00000000
00100000
00000000
01000000
00000000
00000000
00001000
00010000
00000000
00000000
00000000
,
00000120
00000000
00001000
00002030
00000000
00000000
00000000
00000000
,
00003002
00000000
00000010
00000023
00000000
00000000
00000230
00000000
,
00020300
00000000
00001000
00032000
00000000
00000000
00000000
00000000
,
02003000
00000000
00100000
03200000
00000000
00000000
20300000
00000000
,
30002000
00000000
00010000
00023000
00000000
00000000
00000000
00000000
,
00030200
00000000
00001000
00002300
00000000
00000000
00003200
00000000
,
00000320
00000000
00000100
00000230
00000000
00000000
00020300
00000000
,
00032000
00000000
01000000
02003000
00000000
00000000
03100000
00000000
,
10010000
00000000
00000000
10000000
00000000
00000000
00010000
00000000
01000000
00000000
00000000
01000000
00000000
00000000
00001000
00000000
,
00010000
00000000
00000000
00010000
00000000
00000000
00000100
00000000
00000010
00000000
00000000
00000010
00000000
00000000
00000001
00000000
,
00001000
00000000
00000000
00001000
00000000
00000000
00000010
00000000
00010000
00000000
00000000
00010000
00000000
00000000
00001000
00000000
,
00100000
00000000
00000000
00100000
00000000
00000000
01000000
00000000
10000000
00000000
00000000
10000000
00000000
00000000
00100000
00000000
,
01200000
00000000
10300000
00000000
00020000
00000000
00130000
00001000
,
00020000
00000000
00030010
00000000
00000200
00000000
00000310
00001000
,
00000002
00000000
00000013
00000000
00000200
00000000
00001300
00000010
,
00020000
00000000
00031000
00000000
02000000
00000000
03100000
10000000
,
00001000
00010000
00001000
00100000
01000000
10000000
00100000
00000000
,
01000000
00010000
01000000
00001000
00100000
01000000
10000000
00000000
,
00001000
00010000
00001000
00010000
00000010
00000100
00000001
00000100
,
00000020
00000000
00000000
00000100
00000000
00000000
00000130
00000000
,
00001001
00000000
00000000
00000001
00000100
00000000
00000002
00000000
00000000
00010000
00000000
00010003
00000000
00000000
00000000
00000000
,
00000100
00000000
00000000
00010000
00001000
00000000
02000000
00000000
00000000
00100000
00000000
03100000
00000000
00000000
00000000
00000000
,
10000000
00000000
00000000
01000000
10000000
00000000
00020000
00000000
00000000
01000000
00000000
01030000
00000000
00000000
00000000
00000000
,
00001000
00000000
00000000
00010000
00000100
00000000
00002000
00000000
00000000
00000100
00000000
00003100
00000000
00000000
00001000
00000001
,
00001000
00000000
00000000
00000010
00000100
00000000
00000002
00000000
00000000
00010000
00000000
00010003
00000000
00000000
00000000
00000000
,
00000010
00000000
00000000
00010000
00000100
00000000
00020000
00000000
00000000
00001000
00000000
00031000
00000000
00000000
00000000
00000000
,
00010000
00000000
00000000
00001000
01000000
00000000
00200000
00000000
00000000
01000000
00000000
01300000
00000000
00000000
00000000
00000000
,
00010000
00000000
00000000
01000000
00001000
00000000
00020000
00000000
00000000
00001000
00000000
00031000
00000000
00000000
00000000
00000000
,
00011000
00000000
00000000
00010000
00000001
00000000
00000010
00000000
00001000
00000000
00000010
00000000
00000001
00000000
00000000
00000000
,
00010000
00000000
00000000
00001000
10000000
00000000
01000000
00000000
00010000
00000000
01000000
00000000
10000000
00000000
00000000
00000000
,
00001000
00000000
00000000
00010000
00000001
00000000
00000100
00000000
00001000
00000000
00000100
00000000
00000001
00000000
00000000
00000000
,
00010000
00000000
00000000
00001000
10000000
00000000
00200000
00000000
00000000
01000000
00000000
01300000
00000000
00000000
00001000
00000000
,
00011000
00000000
00000000
00010000
00000001
00000000
00000100
00000000
00001000
00000000
00000100
00000000
00000001
00000000
00000000
00000000
,
00000100
00000000
00000000
00000010
00010000
00000000
00000100
00000000
00000001
00000000
00000100
00000000
00010000
00000000
00000000
00000000
,
00001000
00000000
00000000
01000000
00010000
00000000
01000000
00000000
10000000
00000000
01000000
00000000
00010000
00000000
00000000
00000000
,
02000000
03001000
00020000
00031000
,
00022000
00000000
00000000
00000000
,
00000000
00000000
00000000
00000000
,
00033000
00000000
00000000
00000000
;

//---------------dance-double - ----------------
#NOTES:
     dance-double:
     :
     Challenge:
     12:
     0.506,0.528,0.091,0.348,0.646:
00010000
00000000
00000000
10000000
01000000
00000000
20000000
00000000
00000000
00010000
00000000
30010000
00000000
00000000
00000000
00000000
,
01000000
00000000
00000000
00100000
01000000
00000000
00002000
00000000
00000000
01000000
00000000
01003000
00000000
00000000
00000000
00000000
,
00001000
00000000
00000000
00010000
00000010
00000000
00000200
00000000
00000000
00000010
00000000
00000310
00000000
00000000
00000000
00000000
,
00001000
00000000
00000000
00000001
00000010
00000000
00000002
00000000
00000000
00001000
00000000
00001003
00000000
00000000
00000000
00000000
,
00000110
00000000
00000000
00000010
00000000
00000000
00010000
00000000
00000000
00001000
00000000
00001000
00000000
00000000
00000000
00000000
,
01000000
00000000
00000000
00100000
00000000
00000000
10000000
00000000
00000000
00001000
00000000
00001000
00000000
00000000
00000000
00000000
,
00010000
00000000
00000000
00000100
00000000
00000000
00000010
00000000
00000000
00000001
00000000
00000001
00000000
00000000
00000000
00000000
,
00000010
00000000
00000000
00000100
00000000
00000000
00010000
00000000
00000000
00001000
00000000
00001000
00000000
00000000
01000000
00000000
,
01100000
00000000
00000000
00100000
10000000
00000000
01000000
00000000
00000000
00100000
00000000
00100000
00000000
00000000
00000000
00000000
,
00001000
00000000
00000000
00010000
00000100
00000000
00001000
00000000
00000000
00000001
00000000
00000001
00000000
00000000
00000000
00000000
,
00000010
00000000
00000000
00000100
00001000
00000000
00000010
00000000
00000000
00010000
00000000
00010000
00000000
00000000
00000000
00000000
,
00001000
00000000
00000000
01000000
00100000
00000000
10000000
00000000
00000000
00010000
00000000
00010000
00000000
10000000
01000000
00000000
,
10020000
00000000
00000000
01030000
00010000
01000000
00010000
01000000
00000000
00001000
00000000
00010000
00000000
00000000
00000000
00000000
,
00000020
00000000
00000000
00001030
00000001
00001000
00000001
00001000
00000000
00000100
00000000
00000010
00000000
00000000
00000000
00000000
,
00000002
00000000
00000000
00010003
00000010
00010000
00000010
00010000
00000000
00001000
00000000
00010000
00000000
00000000
00000000
00000000
,
00002000
00000000
00000000
00103000
01000000
00100000
01000000
00100000
00000000
00010000
00000000
10000000
00000000
00000000
00000000
00000000
,
00020000
00000000
00000000
00130000
00001000
00100000
00001000
00100000
00000000
00001000
00000000
00010000
00000000
00000000
00000000
00000000
,
00000002
00000000
00000000
00000103
00000001
00000100
00000001
00000100
00000000
00000001
00000000
00001000
00000000
00000000
00000000
00000000
,
00000200
00000000
00000000
00010300
00001000
00010000
00001000
00010000
00000000
00001000
00000000
01000000
00000000
00000000
00000000
00000000
,
00200000
00000000
00000000
10300000
00010000
10000000
00010000
10000000
00000000
01000000
00000000
00100000
00000000
00000000
00000000
00000000
,
00011000
00000000
00010000
00000020
00000000
00000000
00000130
00000000
,
00000001
00000000
00000100
00000020
00000000
00000000
00020030
00000000
,
00031000
00000000
00100000
02000000
00000000
00000000
03100000
00000000
,
00020000
00000000
10030000
02000000
00000000
00000000
23000000
00000000
,
30001000
00000000
00010000
00000020
00000000
00000000
00000130
00000000
,
00000002
00000000
00000013
00000200
00000000
00000000
00020300
00000000
,
00031000
00000000
01000000
00200000
00000000
00000000
01300000
00000000
,
00020000
00000000
01030000
00002000
00000000
00000000
00013000
00000000
,
00011000
00000000
00001000
10000000
00000000
00000000
01000000
00000000
00100000
00000000
00001000
00010000
00000000
00000000
00000010
00000000
,
00000100
00000000
00000001
00001000
00000000
00000000
00000010
00000000
00010000
00000000
00001000
00010000
00000000
00000000
00001000
00000000
,
10000000
01000000
00100000
00010000
00000000
00000000
00001000
00000000
00010000
00000100
00000010
00000001
00000000
00000000
00001000
00000000
,
10000000
00100000
01000000
00010000
00000000
00000000
00010000
00000000
00001000
00000010
00000100
00000001
00000000
00000000
00001000
00000000
,
00002100
00000000
00000000
00000001
00000000
00000000
00000100
00000000
00000000
00000001
00000000
00003001
00000000
00000000
00000000
00000000
,
00020000
00000000
00000000
00001000
00000000
00000000
00000100
00000000
00000000
00001000
00000000
00031000
00000000
00000000
00000000
00000000
,
00200000
00000000
00000000
00001000
00000000
00000000
00010000
00000000
00000000
00001000
00000000
00301000
00000000
00000000
00000000
00000000
,
20000000
00000000
00000000
00100000
00000000
00000000
01000000
00000000
00000000
00100000
00000000
30100000
00000000
00000000
00000000
00000000
,
10010000
00000000
00000000
10000000
00000000
00000000
00010000
00000000
00000000
01000000
00000000
00100000
00000000
00000000
00000000
00000000
,
01000000
00000000
00000000
00010000
00000000
00000000
01000000
00000000
00000000
00001000
00000000
00010000
00000000
00000000
00000000
00000000
,
00001000
00010000
00000100
00000010
00000001
00000100
00000010
00000100
,
00000002
00000000
00000000
00002003
00000000
00000000
00003001
00000000
,
00000110
00000000
00000000
00000100
00000001
00000000
00001000
00000000
00000200
00001000
00000000
00001300
00000000
00000000
00000000
00000000
,
00000001
00000000
00000000
00000001
00010000
00000000
00001000
00000000
00200000
00010000
00000000
00310000
00000000
00000000
00000000
00000000
,
10000000
00000000
00000000
10000000
00010000
00000000
00100000
00000000
02000000
00100000
00000000
03100000
00000000
00000000
00000000
00000000
,
10000000
00000000
00000000
10000000
00001000
00000000
00010000
00000000
00000020
00001000
00000000
00001030
00000000
00000000
00000001
00000010
,
00000100
00000000
00000000
00001000
00000001
00000000
00000100
00000000
00000020
00010000
00000000
00010030
00000000
00000000
00000000
00000000
,
00001000
00000000
00000000
00001000
00100000
00000000
00010000
00000000
02000000
00100000
00000000
03100000
00000000
00000000
00000000
00000000
,
10000000
00000000
00000000
10000000
00010000
00000000
00100000
00000000
02000000
10000000
00000000
13000000
00000000
00000000
00000000
00000000
,
00001000
00000000
00000000
00001000
00010000
00000000
00000010
00000000
00000200
00000010
00000000
00000310
00000000
00000000
00000000
00000000
,
00001001
00000000
00001000
00000100
00001000
00000000
00000001
00000000
00000100
00000010
00000000
00000010
00001000
00000000
00000000
00000000
,
00000010
00000000
00010000
00001000
00010000
00000000
00001000
00000000
00100000
01000000
00000000
01000000
10000000
00000000
00000000
00000000
,
00010000
00000000
10000000
01000000
10000000
00000000
00010000
00000000
00100000
00001000
00000000
00001000
00010000
00000000
00000000
00000000
,
00000010
00000000
00001000
00000001
00001000
00000000
00000010
00000000
00000100
00000001
00000000
00000001
00010000
00000000
00001000
00000000
,
00011000
00000000
01000000
00010000
01000000
00000000
00001000
00010000
00001000
10000000
00000000
01000000
00000000
00000000
00000000
00000000
,
10000000
00000000
00010000
00100000
00010000
00000000
00100000
00001000
00100000
00000010
00000000
00000100
00000000
00000000
00000000
00000000
,
00000001
00000000
00001000
00000100
00001000
00000000
00000001
00001000
00000001
00010000
00000000
00001000
00000000
00000000
00000000
00000000
,
00010000
00001000
01000000
00100000
10000000
01000000
00100000
00001000
,
00022000
00000000
00000000
00000000
,
00000000
00000000
00000000
00000000
,
00033000
00000000
00000000
00000000
;

//---------------dance-single - ----------------
#NOTES:
     dance-single:
     :
     Beginner:
     2:
     0.079,0.116,0.108,0.000,0.000: // measure 1
0001
0000
0000
0000
,  // measure 2
0001
0000
0000
0000
,  // measure 3
1000
0000
0000
0000
,  // measure 4
1000
0000
0000
0000
,  // measure 5
0010
0000
0000
0000
,  // measure 6
0010
0000
0000
0000
,  // measure 7
0100
0000
0000
0000
,  // measure 8
0100
0000
0000
0000
,  // measure 9
0110
0000
0000
0000
,  // measure 10
0010
0000
0000
0000
,  // measure 11
0001
0000
0000
0000
,  // measure 12
1000
0000
0000
0000
,  // measure 13
1001
0000
0000
0000
,  // measure 14
0010
0000
0000
0000
,  // measure 15
0110
0000
0000
0000
,  // measure 16
0100
0000
0000
0000
,  // measure 17
1001
0000
0000
0000
,  // measure 18
0001
0000
0000
0000
,  // measure 19
1001
0000
0000
0000
,  // measure 20
1000
0000
0000
0000
,  // measure 21
0110
0000
0000
0000
,  // measure 22
0010
0000
0000
0000
,  // measure 23
0100
0000
0000
0000
,  // measure 24
0010
0000
0000
0000
,  // measure 25
1000
0000
0000
0000
,  // measure 26
0001
0000
0000
0000
,  // measure 27
1000
0000
0000
0000
,  // measure 28
0001
0000
0000
0000
,  // measure 29
1001
0000
0000
0000
,  // measure 30
0000
0000
0000
0000
,  // measure 31
0000
0000
0000
0000
,  // measure 32
0000
0000
0000
0000
,  // measure 33
1001
0000
0000
0000
,  // measure 34
1000
0000
0000
0000
,  // measure 35
1000
0000
0000
0000
,  // measure 36
1000
0000
0000
0000
,  // measure 37
0001
0000
0000
0000
,  // measure 38
0001
0000
0000
0000
,  // measure 39
0001
0000
0000
0000
,  // measure 40
0100
0000
0000
0000
,  // measure 41
0110
0000
0000
0000
,  // measure 42
1001
0000
0000
0000
,  // measure 43
0001
0000
0000
0000
,  // measure 44
1000
0000
0000
0000
,  // measure 45
0100
0000
0000
0000
,  // measure 46
0010
0000
0000
0000
,  // measure 47
0001
0000
0000
0000
,  // measure 48
1000
0000
0000
0000
,  // measure 49
1001
0000
0000
0000
,  // measure 50
0001
0000
0000
0000
,  // measure 51
0100
0000
0000
0000
,  // measure 52
0010
0000
0000
0000
,  // measure 53
0110
0000
0000
0000
,  // measure 54
0100
0000
0000
0000
,  // measure 55
0100
0000
0000
0000
,  // measure 56
0010
0000
0000
0000
,  // measure 57
1001
0000
0000
0000
;
