#TITLE:アマイヒミツ;
#SUBTITLE:;
#ARTIST:MEG.ME;
#TITLETRANSLIT:AMAI HIMITSU;
#SUBTITLETRANSLIT:;
#ARTISTTRANSLIT:;
#CREDIT:DigiMindAxel;
#BANNER:AMAI HIMITSU.png;
#BACKGROUND:AMAI HIMITSU-bg.png;
#LYRICSPATH:AMAI HIMITSU.lrc;
#CDTITLE:pop'n music.png;
#MUSIC:AMAI HIMITSU.ogg;
#METERTYPE:DDR X;
#OFFSET:-9.050;
#SAMPLESTART:46.679;
#SAMPLELENGTH:12.000;
#SELECTABLE:YES;
#BPMS:0.000=150.000;
#STOPS:;
#BGCHANGES:;

//---------------dance-single - ----------------
#NOTES:
     dance-single:
     :
     Easy:
     3:
     0.165,0.226,0.159,0.123,0.000:
1000
0000
0100
0000
,
0020
0000
0000
0030
,
0001
0000
0010
0000
,
0200
0000
0000
0300
,
1000
0000
0010
0000
,
0200
0000
0000
0300
,
0001
0000
1001
0000
,
2002
0000
0000
3003
,
0010
0000
0010
0000
,
0010
0000
0000
0000
,
0100
0000
0100
0000
,
0100
0000
0000
0000
,
0010
0000
0010
0000
,
0010
0000
0000
0000
,
0100
0000
0100
0000
,
0100
0000
0000
0000
,
1002
0000
0000
0000
,
0003
0000
0000
0000
,
2001
0000
0000
0000
,
3000
0000
0000
0000
,
0120
0000
0000
0000
,
0030
0000
0000
0000
,
0110
0000
0110
0000
,
1001
0000
0000
0000
,
0001
0000
0001
0000
,
0010
0100
1000
0100
,
0010
0000
0010
0000
,
0001
0001
1000
1000
,
0100
0000
0100
0000
,
1000
0010
0100
0001
,
1000
0000
0100
0000
,
0010
0000
0100
0000
,
2000
0000
0001
0000
,
0001
0000
3001
0000
,
1001
0000
1001
0000
,
0110
0000
0000
0000
,
0020
0000
0000
0000
,
0000
0000
0000
0000
,
0230
0000
0000
0000
,
0000
0000
0000
0000
,
0310
0000
1000
0000
,
0100
0000
1000
0000
,
0001
0000
0010
0000
,
0001
0000
0010
0000
,
0100
0000
0010
0000
,
0100
0000
0010
0000
,
0110
0000
0110
0000
,
1001
0000
0000
0000
,
0002
0000
0000
0000
,
0000
0000
0000
0000
,
2003
0000
0000
0000
,
0000
0000
0000
0000
,
3001
0000
0001
0000
,
0001
0000
0001
0000
,
0001
0000
0001
0000
,
1001
0000
0000
0000
,
0110
0000
0100
0000
,
0010
1000
0100
0010
,
0001
0000
1000
0000
,
0001
0001
1000
1000
,
0100
0000
0100
0000
,
1000
0100
0010
0001
,
0100
0000
0010
0000
,
0100
0000
0001
0000
,
2001
0000
0001
0000
,
0001
0000
3001
0000
,
0110
0000
0110
0000
,
1001
0000
0000
0000
,
0002
0000
0000
0000
,
0000
0000
0000
0000
,
2003
0000
0000
0000
,
0000
0000
0000
0000
,
3100
0000
1001
0000
,
0110
0000
0000
0020
,
0000
0000
0000
0000
,
0000
0000
0000
0000
,
0000
0000
0000
0000
,
0000
0000
0000
0000
,
0030
0000
0000
0000
;

//---------------dance-single - ----------------
#NOTES:
     dance-single:
     :
     Medium:
     7:
     0.296,0.367,0.246,0.217,0.000:
1000
0100
1000
0010
,
0200
0000
0000
0302
0000
0000
0000
0003
,
1000
0010
1000
0001
,
0020
0000
0000
0230
0000
0000
0000
0300
,
1000
0010
0100
0001
,
2000
0000
0000
0000
,
3001
0000
1001
0000
,
0110
0000
0000
0110
0000
0000
0000
0000
,
0100
1000
0100
1000
,
0100
1000
0100
1000
,
0010
0100
0010
0100
,
0010
0100
0010
0100
,
0001
0010
0001
0010
,
0001
0010
0001
1000
,
0100
0010
0100
0010
,
0100
0010
0001
0100
,
0020
0000
0000
1000
0000
0000
1030
0000
,
0002
0000
0000
1000
0000
0000
1003
0000
,
0200
0000
0000
0010
0000
0000
0310
0000
,
0002
0000
0000
0100
0000
0000
0103
0000
,
0020
0000
0000
0100
0000
0000
0130
0000
,
0002
0000
0000
1000
0000
0000
1003
0000
,
1001
0000
0101
0000
,
0110
0000
0000
0110
0000
0000
0000
0000
,
1100
0000
1001
0000
,
0001
0010
0100
1000
,
0010
0000
0100
0001
0100
0000
0001
1000
,
0100
0100
0100
1000
,
1001
0000
0101
0000
,
0110
0010
0100
0001
,
1000
0000
0100
0010
0001
0000
0100
0010
,
0100
0000
0001
0000
1000
0000
0001
1000
,
0020
0000
0000
0230
0000
0000
0000
0000
,
0301
0010
0100
1000
,
1001
0000
0110
0000
,
1010
2020
0000
3030
,
0020
0000
0000
0000
,
0000
0000
0230
0000
,
0320
0000
0000
0000
,
0000
0000
0000
0000
,
0130
0001
0010
0100
,
1000
0001
1000
0000
0001
0100
0001
0000
,
1000
0010
0001
0010
,
1000
0001
1000
0000
0100
0000
0010
0000
,
0100
0000
1000
0010
1000
0000
0010
1000
,
0001
0000
0010
0000
0001
1000
0001
0000
,
1001
0000
1010
0000
,
0110
0000
0000
0110
0000
0200
0000
0000
,
0302
0000
0000
0000
,
2003
0000
0000
0000
,
3002
0000
0000
0000
,
2003
0000
0000
0000
,
3100
0000
0100
0000
,
0100
0000
0100
0000
,
0100
0000
0100
0000
,
0110
0000
0000
0110
0000
0000
0000
0000
,
1001
0000
1100
0000
,
0100
1000
0010
0100
,
0001
0000
1000
0100
1000
0000
0001
0100
,
0010
0010
0010
0110
,
0101
0000
1001
0000
,
1000
0100
0010
0100
,
1000
0000
0001
0100
0001
0000
0100
0001
,
1000
0000
0100
0000
0010
0000
0001
1000
,
0200
0000
0000
1000
0000
0000
1300
0000
,
0001
0100
0001
0000
0100
0010
0100
0000
,
1001
0000
0101
0000
,
1010
2020
0000
3030
,
0020
0000
0000
0000
,
0000
0000
0230
0000
,
0320
0000
0000
0000
,
0000
0000
0000
0000
,
0130
0000
0101
0000
,
0110
0000
0000
1001
0000
0000
2000
0000
,
0000
0000
0000
0000
,
0000
0000
0000
0000
,
0000
0000
0000
0000
,
0000
0000
0000
0000
,
3000
0000
0000
0000
;

//---------------dance-single - ----------------
#NOTES:
     dance-single:
     :
     Hard:
     10:
     0.487,0.509,0.333,0.326,0.185: // measure 1
1000
0000
0000
1000
0000
0000
1000
0000
0002
0000
0000
0203
0000
0000
1300
0000
,  // measure 2
0200
0000
0000
0302
0000
0000
1003
0000
,  // measure 3
0001
0000
0000
0001
0000
0000
0001
0000
2000
0000
0000
3020
0000
0000
0031
0000
,  // measure 4
0020
0000
0000
2030
0000
0000
3001
0000
,  // measure 5
1000
0000
0000
1000
0000
0000
1000
0000
0200
0000
0000
2300
0000
0000
3010
0000
,  // measure 6
0200
0000
0000
0301
,  // measure 7
1001
0000
0000
1000
0000
0000
1000
0000
0100
0000
0000
0100
0000
0000
0100
0000
,  // measure 8
0101
0000
0000
0110
0000
0000
1010
0000
0000
0000
0000
0000
1001
0000
0000
0000
,  // measure 9
0001
1000
0100
1000
0000
0100
0010
0100
,  // measure 10
0000
0000
1000
0000
0010
0000
1000
0000
0000
0000
0001
1000
0002
0000
0000
0000
,  // measure 11
1003
0001
0010
0001
0000
0100
0010
0100
,  // measure 12
0000
0001
1000
0100
0010
0001
1000
0000
,  // measure 13
0001
1000
0010
1000
0000
0100
0010
0100
,  // measure 14
0000
0000
1000
0000
0001
0000
1000
0000
0000
0000
0001
0100
0002
0000
0000
0000
,  // measure 15
0013
0000
0100
0000
1000
0000
0000
0000
0001
0000
0000
0100
0000
0000
0001
0000
,  // measure 16
1000
0100
0010
0100
1000
0010
1000
0000
,  // measure 17
0200
0000
0000
1000
0000
0000
1300
0000
0000
0000
0000
0000
0110
0000
0000
0000
,  // measure 18
0200
0000
0000
0001
0000
0000
0301
0000
0000
0000
0000
0000
0110
0000
0000
0000
,  // measure 19
0020
0000
0000
0100
0000
0000
0130
0000
0000
0000
0000
0000
1001
0000
0000
0000
,  // measure 20
2000
0000
0000
0010
0000
0000
3010
0000
0000
0000
0000
0000
1001
0000
0000
0000
,  // measure 21
0002
0000
0000
0010
0000
0000
0013
0000
0000
0000
0000
0000
0110
0000
0000
0000
,  // measure 22
0200
0000
0000
1000
0000
0000
1300
0000
0000
0000
0000
0000
0001
0000
0000
0000
,  // measure 23
0101
0000
0000
0001
0000
0000
0001
0000
0100
0000
0000
0100
0000
0000
0100
0000
,  // measure 24
1100
0000
0000
0011
0000
0000
1001
0000
,  // measure 25
0011
0000
0010
0001
1001
0000
1000
0001
,  // measure 26
0010
0100
0010
0001
0100
0000
0100
0010
,  // measure 27
2000
0000
3001
0100
0010
0000
1000
0010
,  // measure 28
0110
0000
0101
0000
0110
0000
0100
0001
,  // measure 29
1001
0000
0010
1000
1100
0000
1000
0001
,  // measure 30
0020
0000
0000
0100
0000
0000
0130
0000
0000
0000
1000
0000
0100
0000
0010
0000
,  // measure 31
0100
0000
0000
0000
1000
0000
0010
0000
0001
0000
0000
0010
0000
0000
2000
0000
,  // measure 32
0000
0001
0001
0000
0100
0100
0000
3001
,  // measure 33
1000
0000
0000
0020
0000
0000
0200
0000
0000
0000
0000
0000
0330
0000
0000
0000
,  // measure 34
0100
0000
0000
1000
0000
0000
0001
0000
0010
0000
0000
0100
0000
0000
1000
0000
,  // measure 35
0001
0000
0000
0001
0000
0000
0001
0000
0100
0000
0000
0100
0000
0000
0100
0000
,  // measure 36
0110
0220
0000
0330
,  // measure 37
0002
1000
1000
1000
,  // measure 38
1000
1000
1000
1003
,  // measure 39
0020
0100
0100
0100
,  // measure 40
0130
0000
0010
0000
0100
0000
0010
0000
0000
1000
0001
1000
0001
1000
0001
1000
,  // measure 41
0001
0000
0010
0000
0100
0000
1000
0001
0000
0000
1000
0000
0001
0000
0100
0000
,  // measure 42
1000
0100
0001
1000
0010
0100
0010
0100
,  // measure 43
0010
0000
1000
1000
0100
0100
0010
0010
,  // measure 44
0001
0000
0000
1000
0001
0000
0100
0000
0010
0000
0100
0000
0001
0000
0000
0000
,  // measure 45
2000
0000
3001
0010
1000
0010
0001
1000
,  // measure 46
0010
0001
0010
2000
0000
3010
1000
0001
,  // measure 47
1001
0000
0000
0001
0000
0000
0001
0000
0100
0000
0000
0100
0000
0000
0100
0000
,  // measure 48
1100
0000
0000
0011
0000
0000
0110
0000
0000
0000
0120
0000
0000
0000
0000
0000
,  // measure 49
2030
0000
0000
0000
,  // measure 50
3002
0000
0000
0000
,  // measure 51
0023
0000
0000
0000
,  // measure 52
0230
0000
2300
0000
,  // measure 53
3010
0100
0010
0100
,  // measure 54
0010
1000
0010
1000
,  // measure 55
0001
0010
0001
1000
,  // measure 56
1010
0000
0000
1010
0000
0000
0110
0000
0000
0000
0000
0000
1001
0000
0000
0000
,  // measure 57
1001
0000
1000
0001
0011
0000
0100
1000
,  // measure 58
0010
0001
0010
1000
0100
0000
0100
0010
,  // measure 59
0001
0000
0100
0001
1000
0010
1000
0001
,  // measure 60
0101
0110
0101
0110
,  // measure 61
1001
0000
0001
1000
1100
0000
1000
0001
,  // measure 62
0200
0000
0000
0010
0000
0000
0310
0000
0000
0000
1000
0000
0100
0000
0010
0000
,  // measure 63
0100
0000
0000
0000
1000
0000
0001
0000
0100
0000
0000
1000
0000
0000
0200
0000
,  // measure 64
0000
0001
0001
0000
0010
0010
0000
1300
,  // measure 65
0001
0000
0000
0020
0000
0000
0200
0000
0000
0000
0000
0000
0330
0000
0000
0000
,  // measure 66
0100
0000
0000
1000
0000
0000
0001
0000
0100
0000
0000
0001
0000
0000
1000
0000
,  // measure 67
1001
0000
0000
0001
0000
0000
0001
0000
0010
0000
0000
0010
0000
0000
0010
0000
,  // measure 68
0110
0220
0000
0330
,  // measure 69
2000
0001
0001
0001
,  // measure 70
0100
0100
0100
3100
,  // measure 71
0020
0100
0100
0100
,  // measure 72
0130
0000
0010
0000
0100
0000
0010
0000
0000
1000
0001
1000
0001
1000
0001
1000
,  // measure 73
0001
0000
0000
0001
0000
0000
0001
0000
0100
0000
0000
0100
0000
0000
0100
0000
,  // measure 74
1100
0000
0000
0011
0000
0000
0110
0000
0000
0000
0000
0000
0020
0000
0000
0000
,  // measure 75
0000
0000
0000
0000
,  // measure 76
0000
0000
0000
0000
,  // measure 77
0000
0000
0000
0000
,  // measure 78
0000
0000
0000
0000
,  // measure 79
0030
0000
0000
0000
;

//---------------dance-double - ----------------
#NOTES:
     dance-double:
     :
     Easy:
     4:
     0.186,0.254,0.203,0.123,0.000:
10000000
00000000
01000000
00000000
,
00200000
00000000
00000000
00300000
,
00001000
00000000
00010000
00000000
,
00002000
00000000
00000000
00003000
,
00010000
00000000
00000010
00000000
,
00000200
00000000
00000000
00000300
,
00000110
00000000
00000110
00000000
,
00002002
00000000
00000000
00003003
,
00001000
00000000
00001000
00000000
,
00001000
00000000
00000000
00000000
,
00000100
00000000
00000100
00000000
,
00000100
00000000
00000000
00000000
,
00010000
00000000
00010000
00000000
,
00010000
00000000
00000000
00000000
,
00001000
00000000
00001000
00000000
,
00001000
00000000
00000000
00000000
,
02100000
00000000
00000000
00100000
,
03100000
00000000
00000000
00000000
,
20010000
00000000
00000000
00000000
,
30010000
00000000
00000000
00000000
,
00012000
00000000
00000000
00010000
,
00013000
00000000
00000000
00000000
,
00000110
00000000
00000110
00000000
,
00001001
00000000
00000000
00000000
,
00000110
00000000
00000110
00000000
,
00000001
00000010
00000100
00010000
,
00001000
00000000
00001000
00000000
,
01000000
00100000
01000000
00100000
,
01100000
00000000
01100000
00000000
,
10000000
00100000
01000000
00001000
,
00010000
00000000
00000100
00000010
,
00000100
00000000
00010000
00000000
,
00002000
00000000
00013000
00000000
,
00000010
00000100
00000010
00000000
,
00000110
00000000
00000110
00000000
,
00001001
00000000
00000000
00000000
,
00002000
00000000
00000000
00000000
,
00000000
00000000
00000000
00000000
,
00003002
00000000
00000000
00000000
,
00000000
00000000
00000000
00000000
,
00001003
00000000
00000100
00000000
,
00010000
00001000
01000000
00000000
,
00100000
10000000
00010000
00000000
,
00100000
00001000
00100000
00000000
,
00001000
00010000
00000100
00000010
,
00000100
00010000
00001000
00000000
,
00011000
00000000
00011000
00000000
,
00010001
00000000
00000000
00000000
,
00000002
00000000
00000000
00000000
,
00000000
00000000
00000000
00000000
,
00002003
00000000
00000000
00000000
,
00000000
00000000
00000000
00000000
,
00003010
00000000
00000100
00000000
,
00000010
00000000
00000100
00000000
,
00000010
00000000
00000100
00000000
,
00000110
00000000
00000000
00000000
,
00011000
00000000
00011000
00000000
,
00001000
01000000
00100000
10000000
,
00100000
01000000
00100000
00000000
,
10000000
00010000
10000000
00010000
,
10000000
00000000
00100000
00000000
,
01000000
00001000
00010000
00001000
,
01000000
00000000
00001000
00010000
,
00001000
00000000
00001000
00000000
,
00021000
00000000
00031000
00000000
,
00010000
00000000
00000010
00000000
,
00000110
00000000
00000110
00000000
,
00001001
00000000
00000000
00000000
,
00002000
00000000
00000000
00000000
,
00000000
00000000
00000000
00000000
,
00003002
00000000
00000000
00000000
,
00000000
00000000
00000000
00000000
,
00010003
00000000
00010001
00000000
,
00011000
00000000
00000000
00002000
,
00000000
00000000
00000000
00000000
,
00000000
00000000
00000000
00000000
,
00000000
00000000
00000000
00000000
,
00000000
00000000
00000000
00000000
,
00003000
00000000
00000000
00000000
;

//---------------dance-double - ----------------
#NOTES:
     dance-double:
     :
     Medium:
     7:
     0.300,0.424,0.210,0.232,0.000:
10000000
01000000
10000000
00100000
,
02000000
00000000
00000000
03002000
00000000
00000000
00000000
00003000
,
00010000
00000010
00000100
00000010
,
00020000
00000000
00000000
00030002
00000000
00000000
00000000
00000003
,
00000010
00000100
00000010
00000001
,
00020000
00000000
00000000
00000000
,
00031000
00000000
00011000
00000000
,
01100000
00000000
00000000
01100000
00000000
00000000
00000000
00000000
,
01000000
10000000
00100000
01000000
,
00010000
00100000
00001000
00000000
,
00010000
00000100
00001000
00000010
,
00000100
00000001
00000100
00000000
,
00000001
00000010
00000100
00010000
,
00001000
00100000
01000000
00000000
,
10000000
01000000
00100000
00001000
,
00010000
00000100
00000010
00000000
,
00000002
00000000
00000000
00000100
00000000
00000000
00000103
00000000
,
00000020
00000000
00000000
00000100
00000000
00000000
00000130
00000000
,
00000002
00000000
00000000
00010000
00000000
00000000
00010003
00000000
,
00002000
00000000
00000000
00010000
00000000
00000000
00013000
00000000
,
02000000
00000000
00000000
00100000
00000000
00000000
03100000
00000000
,
00020000
00000000
00000000
10000000
00000000
00000000
10030000
00000000
,
10010000
00000000
01001000
00000000
,
00011000
00000000
00000000
00011000
00000000
00000000
00000000
00000000
,
00011000
00000000
00000000
00010000
00001000
00000000
00010000
00000000
,
00000010
00000100
00000001
00000100
,
00000010
00000000
00010000
00000010
00010000
00000000
00001000
00100000
,
01000000
01000000
01000000
10000000
,
10010000
00000000
00000000
00010000
10000000
00000000
00010000
01000000
,
00001000
00010000
00000100
00000010
,
00000100
00000000
00010000
00001000
00010000
00000000
00000010
00000100
,
00000001
00000000
00001000
00000000
00000100
00000000
00010000
00001000
,
02000000
00000000
00000000
03200000
00000000
00000000
00300000
00000000
,
10000000
01000000
00100000
00001000
,
00011000
00000000
00010010
00000000
,
00000110
00000220
00000000
00000330
,
00000200
00000000
00000000
00000000
,
00000000
00000000
00000302
00000000
,
00020003
00000000
00000000
00000000
,
00000000
00000000
00000000
00000000
,
00031000
10000000
00100000
10000000
,
00001000
00010000
00001000
00000000
00010000
00000100
00000010
00000000
,
00000001
00000100
00001000
00000100
,
00000001
00001000
00000001
00000000
00010000
00000000
00001000
00000000
,
02000000
00000000
03100000
10000000
00100000
00000000
10000000
00100000
,
01000000
00000000
00002000
00000000
00013000
00001000
00010000
00000000
,
00011000
00000000
00010001
00000000
,
00000101
00000000
00000000
00000101
00000000
00000200
00000000
00000000
,
00000320
00000000
00000000
00000000
,
00000230
00000000
00000000
00000000
,
00000320
00000000
00000000
00000000
,
00000230
00000000
00000000
00000000
,
00000301
00000000
00000001
00000000
,
00001000
00000000
00001000
00000000
,
00000100
00000000
00000100
00000000
,
00011000
00000000
00000000
00011000
00000000
00000000
00000000
00000000
,
01100000
00000000
00000000
00100000
01000000
00000000
10000000
00010000
,
00100000
00010000
00100000
00001000
,
00010000
00000000
00000100
00000010
00000100
00000000
00010000
00000100
,
00000010
00000010
00000010
00010001
,
00011000
00000000
00000000
00010000
00001000
00000000
00010000
00000000
,
00001000
01000000
00100000
00000000
01000000
00000000
00001000
00000000
,
00010000
00000000
00001000
00010000
00000010
00000000
00000100
00000010
,
00000100
00000000
00000001
00000000
00000010
00000000
00000100
00010000
,
00002000
00000000
00000000
00010000
00000000
00000000
00013000
00000000
,
00001000
00100000
01000000
00000000
10000000
01000000
00100000
00000000
,
01100000
00000000
01001000
00000000
,
00011000
00022000
00000000
00033000
,
00020000
00000000
00000000
00000000
,
00000000
00000000
00030200
00000000
,
00000320
00000000
00000000
00000000
,
00000000
00000000
00000000
00000000
,
00000031
00000000
00010001
00000000
,
00011000
00000000
00000000
00011000
00000000
00000000
00020000
00000000
,
00000000
00000000
00000000
00000000
,
00000000
00000000
00000000
00000000
,
00000000
00000000
00000000
00000000
,
00000000
00000000
00000000
00000000
,
00030000
00000000
00000000
00000000
;

//---------------dance-double - ----------------
#NOTES:
     dance-double:
     :
     Hard:
     10:
     0.479,0.480,0.362,0.239,0.185:
10000000
00000000
00000000
10000000
00000000
00000000
10000000
00000000
00002000
00000000
00000000
02003000
00000000
00000000
03100000
00000000
,
02000000
00000000
00000000
03002000
00000000
00000000
00013000
00000000
,
00000010
00000000
00000000
00000010
00000000
00000000
00000010
00000000
00002000
00000000
00000000
00003200
00000000
00000000
00000301
00000000
,
00002000
00000000
00000000
00003020
00000000
00000000
00010030
00000000
,
00001000
00000000
00000000
00001000
00000000
00000000
00001000
00000000
00200000
00000000
00000000
02300000
00000000
00000000
13000000
00000000
,
00200000
00000000
00000000
01300000
,
10010000
00000000
00000000
10000000
00000000
00000000
10000000
00000000
00100000
00000000
00000000
00100000
00000000
00000000
00100000
00000000
,
01100000
00000000
00000000
01001000
00000000
00000000
00011000
00000000
00000000
00000000
00000000
00000000
00011000
00000000
00000000
00000000
,
00010000
00000100
00010000
00000100
00000000
00001000
00000100
00000010
,
00000000
00000000
00000001
00000000
00001000
00000000
00000001
00000000
00000000
00000000
00000100
00000010
00000200
00000000
00000000
00000000
,
00000301
00010000
00001000
00010000
00000000
00001000
00100000
00001000
,
00000000
00100000
01000000
10000000
01000000
00100000
00010000
00000000
,
10000000
00010000
01000000
00010000
00000000
01000000
00100000
10000000
,
00000000
00000000
00001000
00000000
00100000
00000000
00001000
00000000
00000000
00000000
00010000
00001000
00020000
00000000
00000000
00000000
,
00030001
00000000
00000000
00000000
00000010
00000000
00000001
00000000
00000100
00000000
00000000
00000010
00000000
00000000
00010000
00000000
,
00001000
00000000
00100000
01000000
10000000
01000000
00100000
00000000
,
00002000
00000000
00000000
00010000
00000000
00000000
00013000
00000000
00000000
00000000
00000000
00000000
00010010
00000000
00000000
00000000
,
00000020
00000000
00000000
00000100
00000000
00000000
00000130
00000000
00000000
00000000
00000000
00000000
00001001
00000000
00000000
00000000
,
00000002
00000000
00000000
00000100
00000000
00000000
00000103
00000000
00000000
00000000
00000000
00000000
00011000
00000000
00000000
00000000
,
00002000
00000000
00000000
01000000
00000000
00000000
01003000
00000000
00000000
00000000
00000000
00000000
01100000
00000000
00000000
00000000
,
02000000
00000000
00000000
10000000
00000000
00000000
13000000
00000000
00000000
00000000
00000000
00000000
00011000
00000000
00000000
00000000
,
00020000
00000000
00000000
00000100
00000000
00000000
00030100
00000000
00000000
00000000
00000000
00000000
00000110
00000000
00000000
00000000
,
00001001
00000000
00000000
00000001
00000000
00000000
00000001
00000000
00010000
00000000
00000000
00010000
00000000
00000000
00010000
00000000
,
00011000
00000000
00000000
10001000
00000000
00000000
10001000
00000000
,
11000000
00000000
01000000
00100000
00010000
00000000
00010000
00001000
,
00000010
00000100
00000001
00001000
00000100
00000000
00000100
00000010
,
00000001
00000000
00000100
00000010
00001000
00010000
00100000
01000000
,
11000000
00000000
01010000
00000000
11000000
00000000
00100000
00001000
,
00011000
00000000
00010000
00001000
00101000
00000000
00001000
00010000
,
00000020
00000000
00000000
00000100
00000000
00000000
00000130
00000000
00000000
00000000
00000001
00000000
00000010
00000000
00000100
00000000
,
00001000
00000000
00000000
00000000
00000100
00000000
00010000
00000000
00001000
00000000
00000000
00100000
00000000
00000000
01000000
00000000
,
00000000
10000000
00100000
00000000
00100000
01000000
00000000
01000000
,
00001000
00000000
00000000
00011000
00000000
00000000
00020020
00000000
00000000
00000000
00000000
00000000
00030030
00000000
00000000
00000000
,
00000010
00000000
00000000
00000100
00000000
00000000
00000001
00000000
00001000
00000000
00000000
00000100
00000000
00000000
00010000
00000000
,
00001000
00000000
00000000
00001000
00000000
00000000
00001000
00000000
01000000
00000000
00000000
01000000
00000000
00000000
01000000
00000000
,
01100000
02200000
00000000
03300000
,
01000000
10000000
01000000
10000000
,
00100000
01000000
00100000
01000000
,
00010000
00001000
00010000
00001000
,
00000100
00000000
00000010
00000000
00000010
00000000
00000010
00000000
00000000
00000001
00001000
00000001
00001000
00000001
00001000
00000001
,
00001000
00000000
00000100
00000000
00000010
00000000
00000001
00000100
00000000
00000000
00000001
00000000
00001000
00000000
00000100
00000000
,
00000001
00000100
00010000
00001000
00100000
01000000
10000000
00100000
,
10000000
00000000
00100000
00100000
01000000
01000000
00001000
00001000
,
00010000
00000000
00000000
00000010
00000000
00000000
00000100
00000000
00000001
00000000
00001000
00000000
00000001
00000000
00000000
00000000
,
00000010
00000000
00000010
00000100
00001000
00000100
00000010
00000001
,
00010000
00000010
00010000
00002000
00000000
00103000
01000000
10000000
,
10010000
00000000
00000000
00010000
00000000
00000000
00010000
00000000
01000000
00000000
00000000
01000000
00000000
00000000
01000000
00000000
,
01100000
00000000
00000000
01001000
00000000
00000000
00011000
00000000
00000000
00000000
00021000
00000000
00000000
00000000
00000000
00000000
,
00030100
00000000
00000000
00000000
,
00000010
00000000
00000000
00000000
,
00000001
00000000
00000000
00000000
,
00001000
00000000
00000020
00000000
,
00000130
00000001
00000100
00000001
,
00000010
00000100
00000010
00000100
,
00010000
00001000
00010000
00001000
,
00011000
00000000
00000000
01001000
00000000
00000000
01100000
00000000
00000000
00000000
00000000
00000000
01100000
00000000
00000000
00000000
,
10010000
00000000
01000000
00001000
00011000
00000000
00001000
00010000
,
00000100
00000001
00000100
00010000
00001000
00100000
01000000
10000000
,
00010000
00000000
10000000
01000000
00100000
01000000
10000000
00001000
,
01001000
00011000
01001000
00011000
,
00010001
00000000
00000001
00000100
00000110
00000000
00000100
00000001
,
00020000
00000000
00000000
00000100
00000000
00000000
00030100
00000000
00000000
00000000
00010000
00000000
00001000
00000000
00100000
00000000
,
01000000
00000000
00000000
00000000
10000000
00000000
00010000
00000000
01000000
00000000
00000000
00100000
00000000
00000000
10000000
00000000
,
00000000
00010000
00100000
00000000
00100000
01000000
00000000
01000000
,
10000000
00000000
00000000
10001000
00000000
00000000
02002000
00000000
00000000
00000000
00000000
00000000
03003000
00000000
00000000
00000000
,
00001000
00000000
00000000
00010000
00000000
00000000
00000100
00000000
00000010
00000000
00000000
00000001
00000000
00000000
00001000
00000000
,
00001010
00000000
00000000
00000010
00000000
00000000
00000010
00000000
00010000
00000000
00000000
00010000
00000000
00000000
00010000
00000000
,
00011000
00022000
00000000
00033000
,
00001000
01000000
00001000
01000000
,
00100000
01000000
00100000
01000000
,
00010000
00001000
00010000
00001000
,
00000100
00000000
00000010
00000000
00000010
00000000
00000010
00000000
00000000
00000001
00001000
00000001
00001000
00000001
00001000
00000001
,
00001000
00000000
00000000
00001000
00000000
00000000
00001000
00000000
00000010
00000000
00000000
00000010
00000000
00000000
00000010
00000000
,
00000110
00000000
00000000
00010010
00000000
00000000
00011000
00000000
00000000
00000000
00000000
00000000
00002000
00000000
00000000
00000000
,
00000000
00000000
00000000
00000000
,
00000000
00000000
00000000
00000000
,
00000000
00000000
00000000
00000000
,
00000000
00000000
00000000
00000000
,
00003000
00000000
00000000
00000000
;

//---------------dance-single - ----------------
#NOTES:
     dance-single:
     :
     Beginner:
     1:
     0.086,0.134,0.094,0.000,0.000:
1000
0000
0000
0000
,
0001
0000
0000
0000
,
1000
0000
0000
0000
,
0010
0000
0000
0000
,
0100
0000
0000
0000
,
0010
0000
0000
0000
,
1001
0000
0000
0000
,
0010
0000
0000
0000
,
0100
0000
0000
0000
,
0001
0000
0000
0000
,
0010
0000
0000
0000
,
0001
0000
0000
0000
,
1000
0000
0000
0000
,
0100
0000
0000
0000
,
0010
0000
0000
0000
,
0100
0000
0000
0000
,
1001
0000
0000
0000
,
0100
0000
0000
0000
,
0010
0000
0000
0000
,
0010
0000
0000
0000
,
0001
0000
0000
0000
,
0001
0000
0000
0000
,
1001
0000
0000
0000
,
0000
0000
0000
0000
,
1001
0000
1000
0000
,
1000
0000
0000
0000
,
0001
0000
0000
0000
,
0010
0000
0000
0000
,
1001
0000
0001
0000
,
0001
0000
0000
0000
,
1000
0000
0000
0000
,
0010
0000
0000
0000
,
0100
0000
0000
0000
,
0100
0000
0000
0000
,
0110
0000
0000
0000
,
0000
1001
0000
0000
,
0001
0000
0000
0000
,
0000
0000
0000
0000
,
0010
0000
0000
0000
,
0000
0000
0000
0000
,
0100
0000
0000
0000
,
1000
0000
0000
0000
,
0100
0000
0000
0000
,
1000
0000
0000
0000
,
0010
0000
0000
0000
,
0100
0000
0000
0000
,
0110
0000
0000
0000
,
0000
0000
0000
0000
,
1001
0000
0000
0000
,
0000
0000
0000
0000
,
0000
0000
0000
0000
,
0000
0000
0000
0000
,
1000
0000
0000
0000
,
1000
0000
0000
0000
,
0001
0000
0000
0000
,
1001
0000
0000
0000
,
0010
0000
0000
0000
,
0100
0000
0000
0000
,
0010
0000
0000
0000
,
0100
0000
0000
0000
,
0110
0000
0010
0000
,
0010
0000
0000
0000
,
1000
0000
0001
0000
,
1000
0000
0000
0000
,
0001
0000
0000
0000
,
0000
0000
0000
0000
,
0010
0000
0100
0000
,
0010
0000
0000
0000
,
0100
0000
0000
0000
,
0000
0000
0000
0000
,
1000
0000
0000
0000
,
0000
0000
0000
0000
,
1001
0000
0000
0000
,
0110
0000
0000
0010
;
