#TITLE:7 Colors;
#SUBTITLE:;
#ARTIST:kors k feat.吉河順央;
#TITLETRANSLIT:;
#SUBTITLETRANSLIT:;
#ARTISTTRANSLIT:kors k feat.SUNAO YOSHIKAWA;
#CREDIT:DigiMindAxel;
#BANNER:7 Colors.png;
#BACKGROUND:7 Colors-bg.png;
#LYRICSPATH:7 Colors.lrc;
#CDTITLE:REFLEC BEAT.png;
#MUSIC:7 Colors.ogg;
#METERTYPE:DDR X;
#OFFSET:-8.056;
#SAMPLESTART:52.180;
#SAMPLELENGTH:12.000;
#SELECTABLE:YES;
#BPMS:0.000=156.000;
#STOPS:;
#BGCHANGES:;

//---------------dance-single - ----------------
#NOTES:
     dance-single:
     :
     Easy:
     5:
     0.273,0.284,0.170,0.060,0.000:
1001
0000
1000
0000
,
1001
0000
0001
0000
,
0110
0000
0100
0000
,
0220
0000
0330
0000
,
0010
0100
0010
0000
,
1000
0100
1000
0000
,
0001
1000
0001
0000
,
0100
0001
0100
0001
,
1000
0001
1000
0000
,
0100
1000
0100
0000
,
0010
0100
0010
0000
,
0001
1000
0001
1000
,
0100
1000
0100
0000
,
0010
0100
0010
0000
,
0001
0010
0001
0000
,
1000
0001
1000
0000
,
0010
0100
0010
0000
,
1000
0001
1000
0000
,
0001
0100
0001
0100
,
0001
0000
0000
0000
,
1001
0000
1000
0000
,
0010
0100
0010
0000
,
1001
0000
0001
0000
,
0100
0010
0100
0000
,
0001
1000
0100
0000
,
1000
0001
0010
0000
,
0001
1000
0001
1000
,
0010
0100
0010
0100
,
0010
0000
0000
0000
,
0110
0100
0010
0000
,
1000
1000
1000
0000
,
0110
0100
0010
0000
,
1000
1000
1000
0000
,
0110
0010
0100
0000
,
0001
0001
0001
1000
,
0002
0000
0000
0000
,
1003
0001
1000
0000
,
0110
0010
0100
0000
,
0001
0001
0001
0000
,
0110
0010
0100
0000
,
0001
0001
0001
0000
,
0110
0100
0010
0000
,
1000
1000
1000
0001
,
2000
0000
0000
0000
,
3001
1000
0001
0000
,
1001
0000
1001
0000
,
1001
1000
0001
0000
,
0110
0010
0100
0010
,
1000
0100
0010
0000
,
0001
1000
0001
1000
,
0100
1000
0010
0100
,
0001
1000
0001
1000
,
0001
0100
0010
0000
,
0100
0010
0100
0001
,
1000
0100
1000
0100
,
2000
0000
3002
0000
,
1003
0001
1000
1001
;

//---------------dance-single - ----------------
#NOTES:
     dance-single:
     :
     Medium:
     7:
     0.424,0.425,0.260,0.150,0.000: // measure 1
1002
0000
1003
0000
,  // measure 2
2001
0000
3001
0000
,  // measure 3
1002
0000
1003
0000
,  // measure 4
0110
0000
0000
0110
0000
0000
0000
0000
,  // measure 5
0010
0100
0001
1000
,  // measure 6
0100
1000
0100
0000
1000
0000
0001
0000
,  // measure 7
1000
0100
0010
0001
,  // measure 8
1000
0001
1000
0100
1000
0000
0001
0000
,  // measure 9
0011
0010
0100
1000
,  // measure 10
0001
0100
0001
0000
1000
0100
1000
0000
,  // measure 11
0010
1000
0100
0010
,  // measure 12
0001
0100
0001
0000
1000
0100
1000
0000
,  // measure 13
1001
0010
0010
0010
,  // measure 14
0101
0100
0100
0100
,  // measure 15
1001
0001
0001
0001
,  // measure 16
0010
0100
1000
0010
,  // measure 17
0110
0100
0100
0100
,  // measure 18
0101
0001
0001
0001
,  // measure 19
1001
1000
1100
0100
,  // measure 20
1100
0000
0000
0000
1000
0100
0010
0001
,  // measure 21
1000
0000
0100
1000
0000
0010
0000
0100
,  // measure 22
0000
0000
0000
0000
0001
0010
0100
1000
,  // measure 23
0001
0000
0100
0010
0000
0100
0000
0001
,  // measure 24
0000
1000
0100
0010
0000
0000
0000
0000
,  // measure 25
0001
1000
0001
1000
0100
0000
0000
0000
,  // measure 26
1000
0001
1000
0001
0100
0000
0000
0000
,  // measure 27
0001
1001
1000
1001
,  // measure 28
0010
0100
0010
0100
0010
0100
0001
0000
,  // measure 29
2002
0000
0000
3003
,  // measure 30
0110
0000
0010
0100
0001
0000
0001
0000
,  // measure 31
0010
0100
1000
0100
0010
0000
0000
0000
,  // measure 32
0110
0000
0010
0100
0001
0000
0001
0000
,  // measure 33
1000
0100
0010
0100
1000
0000
0000
0000
,  // measure 34
0110
0000
0010
0100
0001
0000
0001
0000
,  // measure 35
0010
0100
1000
0100
0010
0000
0002
0000
,  // measure 36
2000
0000
0000
0000
3003
0000
0001
1000
,  // measure 37
0001
0010
0001
0010
0001
0000
0000
0000
,  // measure 38
0110
0000
0100
0010
1000
0000
1000
0000
,  // measure 39
0100
0010
0001
0010
0100
0000
0000
0000
,  // measure 40
0110
0000
0100
0010
1000
0000
1000
0000
,  // measure 41
0001
0010
0100
0010
0001
0000
0000
0000
,  // measure 42
0110
0000
0010
0100
1000
0000
0010
0100
,  // measure 43
0001
0100
0010
0100
0001
0000
2000
0000
,  // measure 44
0002
0000
0000
0000
3003
0000
1000
0001
,  // measure 45
0200
0000
0000
0300
,  // measure 46
2002
3003
2002
3003
,  // measure 47
0001
0001
1000
1000
0002
0000
1003
0000
,  // measure 48
0110
0100
0001
1000
,  // measure 49
0100
0010
0100
0000
1000
0010
0100
0000
,  // measure 50
0001
0100
0010
1000
,  // measure 51
0001
0010
0100
0000
0010
0001
0010
0000
,  // measure 52
0001
1000
0001
0000
0100
0000
0010
0000
,  // measure 53
0100
0010
0100
0000
0001
1000
0001
0000
,  // measure 54
1000
0001
0100
0000
0010
1000
0001
0000
,  // measure 55
0010
0100
0010
0100
0010
0100
1000
0001
,  // measure 56
1000
1000
0001
0001
,  // measure 57
0010
0000
0100
0000
1000
0001
1000
0000
;

//---------------dance-single - ----------------
#NOTES:
     dance-single:
     :
     Hard:
     11:
     0.562,0.598,0.120,0.260,0.200: // measure 1
1001
0001
0100
0010
,  // measure 2
1001
1000
0010
0100
,  // measure 3
1001
0001
0010
0100
,  // measure 4
1001
0000
0000
0001
0000
0000
2000
0000
0000
0000
0000
0000
3001
0000
0000
0000
,  // measure 5
1000
0000
0000
0100
0000
0000
0010
0000
0000
0100
0000
0000
0010
0000
0010
0000
,  // measure 6
0001
0000
1000
0000
0010
0000
0000
0000
0100
0000
0000
0001
0000
0000
0010
0000
,  // measure 7
0100
0000
0000
1000
0000
0000
0010
0000
0000
0100
0000
0000
0010
0000
0010
0000
,  // measure 8
1000
0100
0001
0100
2000
0000
3001
0000
,  // measure 9
0100
0000
0000
0001
0000
0000
1000
0000
0000
0010
0000
0000
0100
0000
0100
0000
,  // measure 10
0001
0000
0010
0000
0100
0000
0000
0000
0010
0000
0000
0001
0000
0000
0100
0000
,  // measure 11
0010
0000
0000
1000
0000
0000
0100
0000
0000
1000
0000
0000
0001
0000
1000
0000
,  // measure 12
0100
0010
0000
0010
0100
1000
0100
0000
,  // measure 13
2000
3100
0010
0001
,  // measure 14
0010
0100
1000
0000
0002
0000
0103
0000
,  // measure 15
0001
0100
0001
1000
0100
0000
0010
0000
,  // measure 16
0100
1000
0002
0000
1003
0000
0010
0000
,  // measure 17
0110
0200
0301
1000
,  // measure 18
0001
1000
0200
0000
1300
0000
0001
0000
,  // measure 19
2000
0000
3100
0000
0010
0001
0100
0010
,  // measure 20
1001
0000
0000
0000
0001
0010
1000
0010
,  // measure 21
0001
1000
0100
1000
0010
0200
0000
0310
,  // measure 22
1000
0000
0001
1000
0100
0001
0100
1000
,  // measure 23
0001
0010
0001
0200
0000
0310
0000
1000
,  // measure 24
0001
0010
0100
2000
0000
3001
0100
0001
,  // measure 25
1000
0100
0001
0100
1000
0000
0001
0001
,  // measure 26
1000
0010
0001
0010
1000
0000
0001
0001
,  // measure 27
1000
0001
0100
0000
1000
0100
0001
0000
,  // measure 28
0010
0100
1000
0001
0100
0001
1000
0100
,  // measure 29
2200
0000
0000
3300
,  // measure 30
1001
0000
0000
0000
0001
0000
0100
0002
0000
0000
0013
0000
0100
0000
1000
0000
,  // measure 31
0001
0010
1000
0010
0001
0000
0100
0001
,  // measure 32
1000
0000
0000
0000
0100
0000
1000
0200
0000
0000
1300
0000
0010
0000
0100
0000
,  // measure 33
0001
0010
1000
0010
0001
0000
0100
0010
,  // measure 34
0100
0000
0000
0000
0001
0000
1000
0002
0000
0000
1003
0000
0010
0000
0100
0000
,  // measure 35
0001
0100
1000
0100
0001
0000
1000
0001
,  // measure 36
1000
0100
0010
0001
0010
0100
1000
0001
,  // measure 37
1000
0000
0000
0010
0000
0000
0200
0000
0000
0000
0000
0000
0310
0000
0100
0000
,  // measure 38
0010
0000
0000
0000
1000
0000
0010
2000
0000
0000
3100
0000
0010
0000
0001
0000
,  // measure 39
1000
0010
0001
0010
1000
0000
0100
0010
,  // measure 40
0100
0000
0000
0000
1000
0000
0100
2000
0000
0000
3001
0000
0100
0000
0010
0000
,  // measure 41
1000
0100
0001
0100
1000
0000
0001
0010
,  // measure 42
0001
0000
1000
0000
0010
0000
0100
0002
0000
0000
1003
0000
0100
0000
0010
0000
,  // measure 43
0100
1000
0010
0100
0001
0000
1000
0001
,  // measure 44
1000
0010
0100
0001
0100
0010
1000
0001
,  // measure 45
1000
0100
0000
0020
0000
0000
0031
0000
,  // measure 46
2002
3003
2002
3003
,  // measure 47
0001
0001
1000
1000
0010
0100
0110
0000
,  // measure 48
0101
0000
0000
0001
0000
0000
1000
0000
0000
0100
0000
0000
0010
0000
0010
0000
,  // measure 49
0100
1000
0100
1000
0100
0000
0000
0000
1000
0000
0000
0010
0000
0000
0100
0000
,  // measure 50
0001
0000
0000
0001
0000
0000
0100
0000
0000
0010
0000
0000
1000
0000
1000
0000
,  // measure 51
0001
0010
0001
0010
0001
0000
0010
0000
0100
0000
0000
0000
1000
0001
1000
0001
,  // measure 52
1000
0000
0000
1000
0000
0000
0010
0000
0000
0100
0000
0000
0001
0000
0001
0000
,  // measure 53
1000
0100
1000
0100
1000
0000
0000
0000
0001
0000
0000
1000
0000
0000
0100
0000
,  // measure 54
1000
0000
0000
1000
0000
0000
0010
0000
0000
0100
0000
0000
0001
0000
0000
0000
,  // measure 55
1000
0010
1000
0010
1000
0000
0001
1000
0001
1000
0001
0000
0010
0000
0100
0000
,  // measure 56
1000
0001
1000
0001
1000
0001
1000
0001
,  // measure 57
1000
0010
0100
0001
0100
1000
0200
0000
,  // measure 58
0300
0000
0000
0000
;

//---------------dance-double - ----------------
#NOTES:
     dance-double:
     :
     Medium:
     8:
     0.421,0.397,0.250,0.100,0.000:
10020000
00000000
10030000
00000000
,
02001000
00000000
03001000
00000000
,
00012000
00000000
00013000
00000000
,
00010100
00000000
00000000
00010100
00000000
00000000
00000000
00000000
,
00001000
00000100
00010000
00000010
,
00000100
00000010
00000100
00000000
00000010
00000000
00010000
00000000
,
00000010
00000100
00000001
00001000
,
00000010
00001000
00000010
00000100
00000010
00000000
00001000
00000100
,
00010000
00001000
00100000
00010000
,
00100000
00001000
00100000
00000000
00001000
00010000
00001000
00000000
,
00010000
00000100
00000010
00000001
,
00010000
00000100
00010000
00000000
00001000
00010000
00001000
00000000
,
00101000
00100000
00100000
00100000
,
01010000
00010000
00010000
00010000
,
01001000
01000000
01000000
01000000
,
00100000
00010000
00001000
01000000
,
01100000
00100000
00100000
00100000
,
10100000
10000000
10000000
10000000
,
10010000
00010000
00110000
00100000
,
00110000
00000000
00000000
00000000
00010000
00100000
01000000
10000000
,
00001000
00000000
00010000
00001000
00000000
00100000
00000000
00010000
,
00000000
00000000
00100000
00001000
00100000
00001000
00010000
00001000
,
01000000
00000000
00001000
00010000
00000000
00000100
00000000
00010000
,
00000000
00001000
00000100
00000010
00000000
00000000
00000000
00000000
,
00000001
00000010
00000100
00001000
00000001
00000000
00000000
00000000
,
00000010
00000100
00001000
00000100
00010000
00000000
00000000
00000000
,
00001000
00010000
00001000
00000000
00010000
00000000
00010000
00000000
,
00000001
00000010
00000100
00010000
00001000
01000000
00100000
00000000
,
02200000
00000000
00000000
03300000
,
10010000
00000000
00010000
00100000
00001000
00000000
00001000
00000000
,
00010000
00100000
01000000
00100000
00010000
00000000
00000000
00000000
,
10010000
00000000
00010000
00100000
00001000
00000000
00001000
00000000
,
00010000
00000010
00000100
00000010
00010000
00000000
00000000
00000000
,
00001001
00000000
00000100
00000010
00001000
00000000
00001000
00000000
,
00000100
00000010
00000001
00000010
00000100
00000000
00002000
00000000
,
00000002
00000000
00000000
00000000
00003003
00000000
00000001
00000010
,
00000100
00010000
00001000
01000000
00100000
00000000
00000000
00000000
,
10010000
00000000
00100000
00010000
01000000
00000000
01000000
00000000
,
00100000
00010000
00001000
00010000
00100000
00000000
00000000
00000000
,
10010000
00000000
00100000
00010000
01000000
00000000
01000000
00000000
,
00001000
00010000
00000100
00010000
00001000
00000000
00000000
00000000
,
00011000
00000000
00010000
00000100
00001000
00000000
00000001
00000010
,
00000100
00001000
00000010
00000100
00000010
00000000
00020000
00000000
,
00002000
00000000
00000000
00000000
00033000
00000000
00010000
00001000
,
00200000
00000000
00000000
00300000
,
01100000
00000000
10010000
00000000
,
10000000
10000000
00001000
00001000
10000000
01000000
00100000
00000000
,
01100000
00100000
01000000
00001000
,
00010000
00001000
00010000
00000000
00001000
01000000
00100000
00000000
,
10000000
00100000
01000000
00010000
,
10000000
01000000
00100000
00001000
00010000
00000000
00001001
00000000
,
00000110
00000010
00000100
00000010
,
00010000
00001000
00010000
00000000
00001000
00010000
00000010
00000000
,
00010000
00000010
00001000
00000000
00000100
00010000
00000010
00000000
,
00000100
00001000
00000100
00001000
00010000
00001000
00010000
00001000
,
01000000
01000000
00010000
00010000
,
10000000
00000000
00100000
00000000
01000000
00001000
01000000
00000000
;

//---------------dance-double - ----------------
#NOTES:
     dance-double:
     :
     Hard:
     11:
     0.558,0.598,0.090,0.160,0.225:
10010000
00010000
10000000
01000000
,
01100000
00100000
01000000
00001000
,
00011000
00010000
00000100
00000010
,
00001001
00000000
00000000
00000001
00000000
00000000
00002000
00000000
00000000
00000000
00000000
00000000
00003001
00000000
00000000
00000000
,
00001000
00000000
00000000
00000001
00000000
00000000
00010000
00000000
00000000
00000100
00000000
00000000
00010000
00000000
00001000
00000000
,
01000000
00000000
00100000
00000000
01000000
00000000
00000000
00000000
00010000
00000000
00000000
10000000
00000000
00000000
00100000
00000000
,
01000000
00000000
00000000
00001000
00000000
00000000
00010000
00000000
00000000
00000100
00000000
00000000
00001000
00000000
00000001
00000000
,
00000010
00000100
00010000
00000100
00000020
00000000
00000130
00000000
,
00001000
00000000
00000000
00000100
00000000
00000000
00010000
00000000
00000000
00001000
00000000
00000000
00100000
00000000
00010000
00000000
,
01000000
00000000
00100000
00000000
01000000
00000000
00000000
00000000
00010000
00000000
00000000
10000000
00000000
00000000
01000000
00000000
,
00100000
00000000
00000000
00001000
00000000
00000000
00010000
00000000
00000000
00000010
00000000
00000000
00000100
00000000
00000001
00000000
,
00000010
00000100
00010000
00000000
00010000
00000100
00000010
00000000
,
00000001
00000100
00000010
00000000
00000010
00000000
00000010
00000000
,
00000100
00000001
00000010
00000000
00000010
00000000
00000010
00000000
,
00000001
00000010
00000100
00010000
00001000
01000000
00100000
10000000
,
01000000
10000000
11000000
00000000
,
10010000
10000000
10000000
10000000
,
00100000
01000000
00010000
00000000
00010000
00000000
00010000
00000000
,
10000000
01000000
00100000
00001000
00010000
00000010
00000100
00000001
,
00000100
00000000
00000000
00000000
00000001
00000100
00010000
01000000
,
00010000
00000000
00100000
00001000
00100000
00020000
00000000
00130000
,
00001000
00000000
01000000
00001000
00100000
01000000
00100000
00001000
,
01000000
00100000
01000000
00020000
00000000
00130000
00000000
00001000
,
01000000
00100000
00010000
00002000
00000000
00013000
00001000
00010000
,
00000001
00000100
00001000
00000100
00000001
00000000
00001000
00000001
,
00001000
00000100
00000001
00000100
00001000
00000000
00000001
00001000
,
00000001
00000100
00001000
00000100
00000001
00000010
00000100
00010000
,
00001000
01000000
00100000
10000000
01000000
00100000
00010000
00001000
,
00022000
00000000
00000000
00033000
,
01001000
00000000
00000000
00000000
00001000
00000000
00100000
00002000
00000000
00000000
00013000
00000000
00100000
00000000
01000000
00000000
,
00001000
00010000
00000010
00010000
00001000
00000000
00010000
00001000
,
01000000
00000000
00000000
00000000
00100000
00000000
01000000
00200000
00000000
00000000
01300000
00000000
00001000
00000000
00100000
00000000
,
00001000
00010000
00000100
00010000
00001000
00000000
01000000
00100000
,
01000000
00000000
00000000
00000000
00001000
00000000
00010000
00002000
00000000
00000000
00013000
00000000
00100000
00000000
01000000
00000000
,
00001000
00010000
00000100
00010000
00001000
00000000
10000000
00010000
,
10000000
01000000
00100000
00001000
00000010
00000100
00000001
00001000
,
00000001
00000000
00000000
00000001
00000000
00000000
00000002
00000000
00000000
00000000
00000000
00000000
00010003
00000000
00001000
00000000
,
00010000
00000000
00000000
00000000
00001000
00000000
00010000
00000020
00000000
00000000
00000130
00000000
00000010
00000000
00000100
00000000
,
00000010
00010000
00001000
00010000
00000010
00000000
00010000
00001000
,
00010000
00000000
00000000
00000000
00001000
00000000
00100000
00002000
00000000
00000000
00103000
00000000
00001000
00000000
00010000
00000000
,
00001000
01000000
00010000
01000000
00001000
00000000
01000000
00100000
,
01000000
00000000
00010000
20000000
00000000
00000000
30010000
00000000
00100000
00000000
00000100
00000000
00010000
00000000
00001000
00000000
,
00010000
00000100
00100000
00001000
00100000
00000000
00010000
10000000
,
01000000
00100000
00001000
00000010
00000100
00000001
00000100
00000001
,
00001000
00000000
00000000
00001000
00000000
00000000
00002000
00000000
00000000
00000000
00000000
00000000
00003001
00000000
00000000
00000000
,
00001000
00000000
00000000
00000010
00000100
00000000
00000000
00000000
00000010
00000000
00000000
00010000
00001000
00000000
00000000
00000000
,
00010000
00000000
00010000
00000000
00001000
00000000
00001000
00000000
01000000
00100000
01000000
00100000
01000000
00000000
00000000
00000000
,
10010000
00000000
00000000
10000000
00000000
00000000
00001000
00000000
00000000
00010000
00000000
00000000
00000010
00000000
00000100
00000000
,
00000001
00001000
00000001
00001000
00000001
00000000
00000000
00000000
00000100
00000000
00000000
00000010
00000000
00000000
00010000
00000000
,
00001000
00000000
00000000
00001000
00000000
00000000
01000000
00000000
00000000
00001000
00000000
00000000
01000000
00000000
00100000
00000000
,
10000000
00010000
10000000
00010000
10000000
00000000
00100000
00000000
01000000
00000000
00000000
00000000
00000100
00010000
00000100
00010000
,
00000100
00000000
00000000
00010000
00000000
00000000
00000001
00000000
00000000
00000010
00000000
00000000
00000001
00000000
00001000
00000000
,
00000100
00010000
00000100
00010000
00000100
00000000
00000000
00000000
00010000
00000000
00000000
00001000
00000000
00000000
01000000
00000000
,
00100000
00000000
00000000
10000000
00000000
00000000
00010000
00000000
00000000
00100000
00000000
00000000
00001000
00000000
00000000
00000000
,
00010000
00001000
00010000
00001000
00010000
00000000
00000010
00001000
00000010
00001000
00000010
00000000
00001000
00000000
00000001
00000000
,
00000010
00000100
00000010
00000100
00000010
00000100
00000010
00000100
,
00010000
00001000
01000000
00010000
01000000
00001000
00020000
00000000
,
00030000
00000000
00000000
00000000
;

//---------------dance-double - ----------------
#NOTES:
     dance-double:
     :
     Easy:
     5:
     0.267,0.284,0.110,0.120,0.000:
20020000
00000000
30030000
00000000
,
02200000
00000000
03300000
00000000
,
20020000
00000000
30030000
00000000
,
02200000
00000000
03300000
00000000
,
00010000
00100000
00010000
00000000
,
01000000
00100000
01000000
00000000
,
00001000
01000000
00001000
00000000
,
00010000
00001000
00010000
00001000
,
00010000
00000100
00010000
00000000
,
00001000
00100000
00001000
00000000
,
00010000
00001000
00010000
00000000
,
00001000
00010000
00001000
00010000
,
00000010
00010000
00000010
00000000
,
00000100
00000010
00000100
00000000
,
00000010
00000100
00000010
00000000
,
00010000
00000010
00010000
00000000
,
00000010
00000100
00000010
00000000
,
00001000
00000001
00001000
00000000
,
00000001
00000100
00000010
00000100
,
00000001
00000000
00000100
00000100
,
00000110
00000000
00010000
00000000
,
00000100
00000000
00010000
00000000
,
00001000
00000000
00100000
00000000
,
00001000
00010000
00001000
00000000
,
00100000
00001000
00010000
00000000
,
00000100
00010000
00001000
00000000
,
00100000
00001000
00100000
00001000
,
00100000
01000000
10000000
00010000
,
10000000
00000000
00000000
00000000
,
01100000
01000000
00100000
00000000
,
10000000
01000000
00100000
00000000
,
00010000
01000000
00010000
00000000
,
00100000
01000000
10000000
00000000
,
00001000
00010000
00001000
00000000
,
01000000
00001000
01000000
00000000
,
00002000
00000000
00000000
00000000
,
00013000
00000100
00010000
00000000
,
00000110
00000100
00000010
00000000
,
00001000
00000100
00000010
00000000
,
00000001
00001000
00000001
00000000
,
00000100
00000001
00000010
00000000
,
00000001
00001000
00000001
00000000
,
00000100
00010000
00000100
00000000
,
00020000
00000000
00000000
00000000
,
00031000
00010000
00001000
00000000
,
00011000
00000000
01001000
00000000
,
00010100
00010000
00000100
00000000
,
00011000
00010000
00001000
00010000
,
00001000
00100000
01000000
00000000
,
10000000
00010000
10000000
00010000
,
00100000
00010000
01000000
00100000
,
10000000
00010000
10000000
00010000
,
01000000
00010000
00100000
00000000
,
00010000
00100000
00010000
01000000
,
00001000
00010000
00001000
00010000
,
00002000
00000000
00203000
00000000
,
00301000
00010000
00000010
00000100
;

//---------------dance-single - ----------------
#NOTES:
     dance-single:
     :
     Challenge:
     14:
     0.735,0.655,0.100,0.100,0.565: // measure 1
0002
0000
0013
0100
1000
0100
0010
0001
,  // measure 2
2000
0000
0000
0000
3100
0000
1000
0000
0010
0000
0100
0000
0001
1000
0001
1000
,  // measure 3
0002
0000
0013
0100
1000
0001
0100
0001
,  // measure 4
1001
0000
0000
1010
0000
0000
0102
0000
0000
0000
0000
0000
1003
0000
0000
0000
,  // measure 5
0001
0000
1000
0010
0000
1000
0001
0000
1000
0010
0000
1000
0001
0000
0010
0000
,  // measure 6
0100
1000
0010
1000
0100
0000
1000
0000
0010
0000
0100
0001
0000
1000
0100
0000
,  // measure 7
0010
0000
0001
1000
0000
0001
0010
0000
0001
1000
0000
0001
0010
0000
0100
0000
,  // measure 8
1000
0001
0100
0001
1000
0000
0100
0000
0010
0000
0000
0000
0001
1000
0001
1000
,  // measure 9
0001
0000
1000
0010
0000
1000
0001
0000
1000
0010
0000
1000
0001
0000
0010
0000
,  // measure 10
0100
0010
0001
0010
0100
0000
0000
0000
1000
0000
0001
1000
0000
0001
0010
0000
,  // measure 11
0100
0000
1000
0001
0000
0010
0001
0000
1000
0001
0000
0010
0001
0000
1000
0000
,  // measure 12
0010
0100
0010
0100
0010
0000
0010
0100
0010
0100
0010
0000
0010
0000
0100
0000
,  // measure 13
0001
1000
0001
1000
0001
1000
0001
1000
,  // measure 14
0100
0000
1000
0000
0100
0000
1000
0000
0100
0000
1000
0001
0000
0001
1000
0000
,  // measure 15
0010
0100
0010
0100
0010
0100
0010
0100
,  // measure 16
0001
0010
0100
1000
0100
0010
0001
1000
,  // measure 17
0100
0000
0000
0000
1000
0000
0100
0000
1000
0000
0100
0000
1000
0000
0010
0100
,  // measure 18
0010
0100
0010
0000
1000
0000
0001
0000
1000
0000
0001
0000
1000
0000
0001
0010
,  // measure 19
0001
0010
0011
0000
0100
0010
1000
0001
,  // measure 20
1001
0000
0000
0000
1000
0100
0001
0100
,  // measure 21
1000
0010
0100
0010
1000
0100
0010
1000
,  // measure 22
0010
0000
0000
0000
0001
0000
1000
0010
1000
0000
0100
0000
0010
0000
0001
0000
,  // measure 23
0100
1000
0100
0001
0010
1000
0010
0001
,  // measure 24
1000
0000
0100
0000
0010
0000
0100
0000
1000
0000
0000
0000
0010
1000
0010
1000
,  // measure 25
0001
0010
0100
0010
0001
1000
1000
0001
,  // measure 26
1000
0100
0010
0100
1000
0001
0001
1000
,  // measure 27
0001
0100
0010
0001
0010
0100
0001
1000
,  // measure 28
0100
0000
0010
0000
0001
0000
0100
0000
0010
0000
0100
0000
0001
1000
0001
1000
,  // measure 29
0002
0000
0000
1003
,  // measure 30
0001
0000
0010
0000
0001
0000
1000
0010
0000
0010
0100
0000
0001
0000
0100
0000
,  // measure 31
1000
0000
0100
0000
0001
0000
1000
0010
1000
0010
0100
0000
0001
0000
1000
0000
,  // measure 32
0010
0000
0000
0000
0100
0000
0010
1000
0000
1000
0001
0000
1000
0000
0100
0000
,  // measure 33
0010
0000
1000
0000
0010
0000
0001
0000
1000
0000
0000
0000
0010
0100
0010
0100
,  // measure 34
0010
0000
1000
0000
0100
0000
1000
0001
0000
0001
0100
0000
0001
0000
0100
0000
,  // measure 35
1000
0000
0100
0000
0001
0000
1000
0010
0100
0010
0100
0000
0001
0000
0000
0000
,  // measure 36
1000
0100
0001
0100
1000
0010
0001
0010
,  // measure 37
2000
0000
0000
3002
0000
0000
0023
0000
0000
0000
0000
0000
0031
1000
0001
1000
,  // measure 38
0001
0000
0010
0000
0100
0000
0010
0001
0000
0001
1000
0000
0001
0000
0010
0000
,  // measure 39
1000
0000
0010
0000
0001
0000
0100
0010
1000
0010
1000
0000
0010
0000
0100
0000
,  // measure 40
0010
0000
0000
0000
1000
0000
0001
0010
0000
0010
0100
0000
1000
0000
0100
0000
,  // measure 41
0001
0000
0100
0000
1000
0000
0010
0000
0100
0000
0000
0000
0001
1000
0001
1000
,  // measure 42
0001
0000
0000
0000
1000
0000
0001
0100
0000
0100
0010
0000
1000
0000
0100
0000
,  // measure 43
1000
0000
0010
0100
0010
0100
0001
0000
1000
0000
0100
0000
1000
0000
0000
0000
,  // measure 44
0001
0000
0010
0000
1000
0000
0010
0000
0001
0000
0100
0000
0010
1000
0010
1000
,  // measure 45
0001
0011
0000
2100
0000
0000
3001
0000
,  // measure 46
1100
0000
0000
1000
0100
0000
0000
0000
0011
0000
0000
0010
0001
0000
0000
0000
,  // measure 47
1001
0000
1000
0000
0001
0000
0001
0000
1000
0100
0010
0001
1000
0000
0000
0000
,  // measure 48
0001
0000
1000
0100
0000
1000
0001
0000
1000
0100
0000
1000
0001
0000
1000
0000
,  // measure 49
0010
0100
0001
0100
0010
0000
0000
0000
1000
0000
0001
0100
0000
0001
1000
0000
,  // measure 50
0100
0000
0010
0100
0000
1000
0100
0000
0010
0100
0000
1000
0100
0000
0010
0000
,  // measure 51
0001
0100
0010
0100
0001
0000
0100
0000
0010
0000
0000
0000
1000
0010
0100
0001
,  // measure 52
1000
0000
0100
0010
0000
0001
0100
0000
0010
0100
0000
0001
0100
0000
0001
0000
,  // measure 53
0010
0100
1000
0100
0010
0000
0000
0000
0001
0000
1000
0001
0000
0010
0001
0000
,  // measure 54
1000
0000
0010
0100
0000
0001
0100
0000
0010
0100
0000
0001
1000
0000
0001
0000
,  // measure 55
0100
0001
0100
0001
0100
0000
0100
0001
0100
0001
0100
0000
0100
0000
0001
0000
,  // measure 56
1000
0000
0100
0000
0010
0000
0001
0000
1000
0000
0100
0000
0010
0000
0001
1000
,  // measure 57
0100
0000
0100
0000
1000
0000
1000
0000
0010
0100
0001
0100
0020
0000
0000
0000
,  // measure 58
0030
0000
0000
0000
;

//---------------dance-double - ----------------
#NOTES:
     dance-double:
     :
     Challenge:
     14:
     0.732,0.655,0.120,0.060,0.560:
20000000
00000000
30001000
00010000
00001000
01000000
00100000
01000000
,
00002000
00000000
00000000
00000000
00013000
00000000
00000100
00000000
00000010
00000000
00000100
00000000
00010000
00001000
00010000
00001000
,
00020000
00000000
00031000
00000100
00000010
00000001
00000100
00000001
,
00001001
00000000
00000000
00000110
00000000
00000000
00020100
00000000
00000000
00000000
00000000
00000000
00031000
00000000
00000000
00000000
,
01000000
00000000
00100000
01000000
00000000
00001000
01000000
00000000
00100000
01000000
00000000
00001000
01000000
00000000
00001000
00000000
,
10000000
01000000
00100000
00010000
00100000
00000000
00001000
00000000
00010000
00000000
00001000
00010000
00000000
00000010
00000100
00000000
,
00000001
00000000
00010000
00000100
00000000
00010000
00001000
00000000
00010000
00000100
00000000
00010000
00001000
00000000
00010000
00000000
,
00000001
00000100
00000010
00001000
00000010
00000000
00010000
00000000
00000010
00000000
00000000
00000000
00010000
00001000
00010000
00001000
,
00100000
00000000
00010000
01000000
00000000
00001000
00010000
00000000
00001000
00010000
00000000
00000100
00010000
00000000
00000001
00000000
,
00001000
00000100
00000010
00000100
00001000
00000000
00000000
00000000
00000100
00000000
00010000
00001000
00000000
00010000
00001000
00000000
,
00100000
00000000
00010000
10000000
00000000
00100000
01000000
00000000
00010000
10000000
00000000
00100000
01000000
00000000
00001000
00000000
,
00010000
00001000
00010000
00001000
00010000
00000000
00010000
00001000
00010000
00001000
00010000
00000000
00001000
00000000
10000000
00000000
,
01000000
00100000
01000000
00100000
01000000
00100000
01000000
00100000
,
00001000
00000000
00010000
00000000
00001000
00000000
00010000
00000000
00001000
00000000
00010000
00001000
00000000
00001000
00010000
00000000
,
00000010
00000100
00000010
00000100
00000010
00000100
00000010
00000100
,
00000001
00000010
00000100
00010000
00000100
00000010
00000001
00010000
,
00001000
00000000
00000000
00000000
00010000
00000000
00001000
00000000
01000000
00000000
00100000
00000000
10000000
00000000
00010000
10000000
,
00010000
10000000
00010000
00000000
10000000
00000000
01000000
00000000
10000000
00000000
01000000
00000000
10000000
00000000
00100000
01000000
,
00100000
01000000
01010000
00000000
00100000
00001000
00010000
00001000
,
00011000
00000000
00000000
00000000
00010000
00000001
00000100
00001000
,
00000100
00000001
00010000
00001000
00010000
00000001
00010000
00001000
,
00100000
00000000
00000000
00000000
00010000
00000000
10000000
00010000
10000000
00000000
01000000
00000000
00100000
00000000
00001000
00000000
,
00100000
01000000
10000000
00100000
00010000
00100000
10000000
00000000
,
00001000
00000000
00010000
00000000
00000010
00000000
00000100
00000000
00000010
00000000
00000000
00000000
00001000
00000001
00001000
00000001
,
00001000
00000001
00010000
00001000
00010000
00000100
00000100
00010000
,
00000001
00000100
00010000
00000100
00000001
00001000
00001000
00000100
,
00010000
00001000
10000000
00100000
00010000
00100000
10000000
00001000
,
00010000
00000000
00001000
00000000
10000000
00000000
01000000
00000000
00100000
00000000
00001000
00000000
00010000
00001000
00010000
00001000
,
00020000
00000000
00000000
00031000
,
00010000
00000000
00001000
00000000
00010000
00000000
00000100
00010000
00000100
00010000
00000100
00000000
00010000
00000000
00000100
00000000
,
00000001
00000000
00000100
00000000
00010000
00000000
00001000
00100000
00001000
00100000
00001000
00000000
00010000
00000000
00100000
00000000
,
01000000
00000000
00000000
00000000
00100000
00000000
00010000
10000000
00000000
10000000
00010000
00000000
00100000
00000000
00001000
00000000
,
00100000
00000000
10000000
00000000
00100000
00000000
00001000
00000000
00010000
00000000
00000000
00000000
00000100
00000010
00000100
00000010
,
00000100
00000000
00001000
00000000
00000001
00000000
00000100
00000010
00000000
00000010
00010000
00000000
00001000
00000000
00100000
00000000
,
10000000
00000000
00100000
00000000
00001000
00000000
00010000
00001000
00010000
00001000
00010000
00000000
00001000
00000000
00000000
00000000
,
00010000
00000010
00000100
00000010
00010000
00000100
00000001
00000100
,
00010000
00000000
00000000
00001000
00000000
00000000
00011000
00000000
00000000
00000000
00000000
00000000
00010000
00001000
00010000
00001000
,
00010000
00000000
00001000
00000000
01000000
00000000
00010000
10000000
00000000
10000000
00010000
00000000
10000000
00000000
01000000
00000000
,
00001000
00000000
01000000
00000000
10000000
00000000
00001000
00010000
00001000
00010000
00001000
00000000
00100000
00000000
01000000
00000000
,
00100000
00000000
00000000
00000000
00001000
00000000
00010000
00000010
00000000
00010000
00000010
00000000
00010000
00000000
00001000
00000000
,
00010000
00000000
00000001
00000000
00000100
00000000
00000010
00000000
00001000
00000000
00000000
00000000
00000001
00001000
00000001
00001000
,
00000001
00000000
00010000
00001000
00000000
00010000
00001000
00000000
00010000
00000000
00000100
00000000
00010000
00000000
00001000
00000000
,
00100000
00000000
00010000
10000000
00010000
10000000
00010000
00000000
00100000
00000000
01000000
00000000
10000000
00000000
00000000
00000000
,
00010000
00000000
00100000
00000000
10000000
00000000
00100000
00000000
00001000
00000000
00010000
00000000
00000100
00010000
00000100
00010000
,
00000100
00010100
00000000
00001100
00000000
00000000
00001100
00000000
,
00001001
00000000
00000000
00000001
00001000
00000000
00000000
00000000
00010010
00000000
00000000
00000010
00010000
00000000
00000000
00000000
,
00011000
00000000
00001000
00000000
01000000
00000000
01000000
00000000
00001000
10000000
01000000
00100000
00010000
00000000
00000000
00000000
,
00001000
00000000
00010000
00000100
00000000
00010000
00001000
00000000
00010000
00000100
00000000
00010000
00001000
00000000
00100000
00000000
,
00001000
00100000
00010000
00100000
00001000
00000000
00000000
00000000
10000000
00000000
00100000
01000000
00000000
00100000
01000000
00000000
,
00010000
00000000
00100000
00001000
00000000
00100000
00001000
00000000
00010000
00000100
00000000
00010000
00000100
00000000
00001000
00000000
,
00000001
00000010
00000100
00000010
00000001
00000000
00001000
00000000
00000001
00000000
00000000
00000000
00010000
00000001
00000010
00000100
,
00001000
00000000
00000100
00010000
00000000
00000100
00010000
00000000
00001000
00100000
00000000
00001000
00100000
00000000
00010000
00000000
,
00100000
01000000
10000000
01000000
00100000
00000000
00000000
00000000
00010000
00000000
01000000
00100000
00000000
01000000
00100000
00000000
,
01000000
00000000
00001000
00010000
00000000
00001000
00010000
00000000
00000100
00000010
00000000
00000100
00000010
00000000
00000100
00000000
,
00010000
00001000
00010000
00000000
00010000
00000000
00010000
00001000
00010000
00001000
00010000
00000000
00010000
00000000
00000010
00000000
,
00000100
00000000
00001000
00000000
00010000
00000000
00000010
00000000
00000100
00000000
00001000
00000000
00010000
00000000
00000100
00010000
,
00000100
00000000
00010000
00000000
00001000
00000000
10000000
00000000
00100000
01000000
00001000
01000000
00002000
00000000
00000000
00000000
,
00003000
00000000
00000000
00000000
;

//---------------dance-single - ----------------
#NOTES:
     dance-single:
     :
     Beginner:
     1:
     0.089,0.113,0.080,0.000,0.000:
0001
0000
0000
0000
,
0001
0000
0000
0000
,
0001
0000
0000
0000
,
1001
0000
0000
0000
,
1000
0000
0000
0000
,
0100
0000
0000
0000
,
1000
0000
0000
0000
,
0010
0000
0000
0000
,
0100
0000
0000
0000
,
0010
0000
0000
0000
,
0100
0000
0000
0000
,
0001
0000
0000
0000
,
1001
0000
0000
0000
,
1000
0000
0000
0000
,
1000
0000
0000
0000
,
0000
0000
0000
0000
,
0001
0000
0000
0000
,
0001
0000
0000
0000
,
0001
0000
0000
0000
,
0000
0000
0000
0000
,
1001
0000
0000
0000
,
0000
0000
0000
0000
,
0010
0000
0000
0000
,
0100
0000
0000
0000
,
0010
0000
0000
0000
,
1001
0000
0000
0000
,
0100
0000
0000
0000
,
0010
0000
0000
0000
,
0110
0000
0000
0000
,
1000
0000
0000
0000
,
0100
0000
0000
0000
,
1000
0000
0000
0000
,
0100
0000
0000
0000
,
0010
0000
0000
0000
,
0001
0000
0000
0000
,
0010
0000
0000
0000
,
1001
0000
0000
0000
,
0001
0000
0000
0000
,
0100
0000
0000
0000
,
0001
0000
0000
0000
,
0100
0000
0000
0000
,
0010
0000
0000
0000
,
1000
0000
0000
0000
,
0010
0000
0000
0000
,
0100
0000
0000
0000
,
0110
0000
0000
0000
,
0000
0000
0000
0000
,
1001
0000
0000
0000
,
0001
0000
0000
0000
,
1000
0000
0000
0000
,
0100
0000
0000
0000
,
1000
0000
0000
0000
,
0010
0000
0000
0000
,
0100
0000
0000
0000
,
0010
0000
0000
0000
,
0100
0000
0000
0000
,
0100
0000
0000
0100
;
