#TITLE:5.1.1.;
#SUBTITLE:(ANOTHER);
#ARTIST:dj nagureo;
#TITLETRANSLIT:;
#SUBTITLETRANSLIT:;
#ARTISTTRANSLIT:;
#CREDIT:DigiMindAxel (Single), silenttype01 (Double);
#BANNER:5.1.1. (ANOTHER).png;
#BACKGROUND:5.1.1. (ANOTHER)-bg.png;
#LYRICSPATH:;
#CDTITLE:beatmania IIDX.png;
#MUSIC:5.1.1. (ANOTHER).ogg;
#METERTYPE:DDR X;
#OFFSET:-10.277;
#SAMPLESTART:10.280;
#SAMPLELENGTH:19.000;
#SELECTABLE:YES;
#BPMS:0.000=101.000;
#STOPS:;
#BGCHANGES:-16.000=5.1.1. (ANOTHER).avi=1.000=1=1=0,
99999=-nosongbg-=1.000=0=0=0 // don't automatically add -songbackground-
;

//---------------dance-single - ----------------
#NOTES:
     dance-single:
     :
     Hard:
     8:
     0.353,0.325,0.181,0.000,0.091:
1001
0000
0001
0000
1000
0100
0010
0001
,
0100
0000
0110
0000
0010
1000
0100
1000
,
1010
0000
0000
1001
0000
0000
0010
0000
,
0011
0000
0000
1001
0000
0000
0100
0010
,
1000
0100
0000
0000
0100
0001
0000
0000
0001
0100
0000
0000
0100
1000
0000
0000
,
1000
0010
0000
0000
0010
0001
0000
0000
0001
0010
0000
0000
0010
1000
0000
0000
,
1001
0000
0000
1001
0000
0000
0001
0100
,
0110
0000
0000
0110
0000
0000
1000
0001
,
1001
0000
1000
0000
0010
0100
0001
0100
,
0010
0000
0100
0000
0001
0010
0100
0010
,
0001
0000
1000
0000
0010
1000
0100
1000
,
0010
0000
0100
0000
0001
0010
0100
1000
,
0001
0010
0000
0000
0010
1000
0000
0000
1000
0010
0000
0000
0010
0001
0000
0000
,
0001
0100
0000
0000
0100
1000
0000
0000
1000
0100
0000
0000
0100
0001
0000
0000
,
1001
0000
0000
1001
0000
0000
0010
0100
,
0001
0001
1000
1000
0001
0001
0010
0100
,
1001
0000
1000
0010
0000
0100
0001
0010
,
0100
0000
1000
0001
0000
0010
0100
0000
,
0010
0001
0100
0010
0000
0100
0001
0010
,
0100
0000
0010
0001
0000
0010
0100
1000
,
0001
0010
0001
0001
0100
0010
0100
0100
,
0001
1000
0010
0010
1000
0001
0100
0100
,
0001
0000
0001
0000
,
1001
1000
0001
0001
1000
1000
0001
0100
,
0110
0100
0010
0000
0100
0001
0010
0100
,
0010
0001
0100
1000
0100
0001
0010
0100
,
1000
0000
0010
0000
0100
0001
0010
1000
,
0010
0001
0100
1000
0100
0001
0010
0100
,
1000
0000
0010
0000
0100
0001
0010
1000
,
0010
0001
0100
1000
0100
0001
1000
0100
,
0010
0000
0001
0000
1000
0100
0001
0100
,
1000
0010
0001
0010
1000
0100
0010
0001
;

//---------------dance-single - ----------------
#NOTES:
     dance-single:
     :
     Easy:
     3:
     0.109,0.199,0.113,0.000,0.000:
1001
0000
0000
0000
,
0010
0000
0000
0000
,
0100
0000
0000
0000
,
0010
0000
0000
0000
,
1001
0001
1000
1000
,
0001
0001
1000
1000
,
1001
0000
0000
1000
0000
0000
0000
0000
,
1001
0000
0000
0001
0000
0000
0000
0000
,
1001
0000
0000
0000
,
0001
0000
0000
0000
,
1000
0000
0000
0000
,
0010
0000
0000
0000
,
1001
1000
1000
0001
,
0001
1000
1000
0001
,
0001
0000
0000
1001
0000
0000
0000
0000
,
0100
0010
0100
0010
,
1001
0000
0000
0000
,
1000
0000
0000
0000
,
0001
0000
0000
0000
,
1000
0000
0000
0000
,
0001
0000
0100
0000
,
0010
0000
1000
0000
,
1001
0000
0010
0000
,
1000
1000
0001
0001
,
1001
0000
0000
0000
,
0010
0000
0000
0000
,
0100
0000
0000
0000
,
1000
0000
0000
0000
,
0100
0000
0000
0000
,
0010
0000
0000
0000
,
0001
0000
0000
0000
,
0100
0000
0000
0000
0000
0000
0000
0100
;

//---------------dance-single - ----------------
#NOTES:
     dance-single:
     :
     Challenge:
     12:
     0.577,0.507,0.193,0.023,0.658: // measure 1
0001
0000
0010
0000
0001
1000
0000
0000
0010
0000
0100
0010
0000
0100
0010
0000
,  // measure 2
1000
0000
0001
0000
0010
0001
0000
0000
0100
0000
0001
1000
0000
0001
1000
0000
,  // measure 3
0100
0000
0010
0000
0100
1000
0000
0000
0010
0000
0100
0001
0000
0100
0001
0000
,  // measure 4
1000
0000
0100
0000
0010
0100
0000
0000
1000
0000
0001
0100
0000
0001
0100
0000
,  // measure 5
0001
1000
0001
0000
1000
0100
1000
0000
0001
0010
0001
0000
0100
0010
0100
0000
,  // measure 6
0001
1000
0001
0000
1000
0001
1000
0000
0010
0100
0010
0000
1000
0100
1000
0000
,  // measure 7
0001
0010
0100
1100
1000
0000
1000
0000
,  // measure 8
1000
0010
0100
0101
0001
0000
0001
1000
,  // measure 9
1001
0000
1000
0000
0010
0100
0000
0000
0001
0000
1000
0100
0000
1000
0100
0000
,  // measure 10
1000
0000
0010
0000
0100
0010
0000
0000
1000
0000
0001
0010
0000
0001
0010
0000
,  // measure 11
0001
0000
1000
0000
0010
0100
0000
0000
0010
0000
1000
0001
0000
1000
0001
0000
,  // measure 12
0010
0000
0100
0000
1000
0010
0000
0000
1000
0000
0100
0010
0000
0100
0010
0000
,  // measure 13
0001
1000
0001
0000
0010
0001
0010
0000
0100
0010
0100
0000
0010
0001
0010
0000
,  // measure 14
0001
1000
0001
0000
1000
0010
1000
0000
0010
0100
0010
0000
1000
0010
1000
0000
,  // measure 15
0100
0010
0001
0011
0010
0000
0010
0000
,  // measure 16
1001
1000
1001
0001
0110
0100
0110
0010
,  // measure 17
1001
0000
1000
0100
1000
0100
1000
0100
0010
0001
0010
0001
1000
0001
1000
0000
,  // measure 18
0001
0000
0010
0100
0010
0100
1000
0000
0001
0000
1000
0010
1000
0010
0100
0000
,  // measure 19
0010
0000
0100
0010
0100
0010
0100
0001
1000
0001
1000
0100
1000
0100
0010
0000
,  // measure 20
0100
0000
0010
0001
0010
0001
0100
0000
0010
0000
1000
0010
1000
0010
0100
0000
,  // measure 21
0001
0000
0100
0001
0100
0001
0100
0000
0001
0000
1000
0100
1000
0100
1000
0000
,  // measure 22
0100
0000
1000
0001
1000
0001
1000
0000
0010
0000
0100
0010
0100
0010
0100
0000
,  // measure 23
0002
0000
0020
0033
,  // measure 24
1001
1000
1001
0001
0101
0100
0110
0010
,  // measure 25
1010
0000
0000
0000
1000
0000
0000
0000
0010
0100
0010
0100
0010
0100
0010
0100
,  // measure 26
0010
0100
0010
0100
0010
0100
0010
0100
0001
0100
0010
0100
0010
0100
0010
0100
,  // measure 27
0001
0000
0000
0000
1001
0000
0000
0000
1000
0100
1000
0100
1000
0100
1000
0100
,  // measure 28
1000
0100
1000
0100
1000
0100
1000
0100
0010
0100
1000
0100
1000
0100
1000
0100
,  // measure 29
1000
0000
0000
0000
1001
0000
0000
0000
0001
0100
0001
0100
0001
0100
0001
0100
,  // measure 30
0001
0100
0001
0100
0001
0100
0001
0100
0010
0100
0001
0100
0001
0100
0001
0100
,  // measure 31
0001
0000
0000
0000
1001
0000
0000
0000
0100
0010
0100
0010
0100
0010
0100
0010
,  // measure 32
0100
0010
0100
0010
0100
0010
0100
0010
1000
0100
0010
0100
0010
0100
0010
0100
;

//---------------dance-single - ----------------
#NOTES:
     dance-single:
     :
     Medium:
     5:
     0.238,0.235,0.227,0.091,0.000:
1001
1000
0000
0100
,
0100
1000
0000
0010
,
0010
0000
0000
0110
0000
0000
0001
0000
,
0010
0000
0000
0011
0000
0000
1001
0000
,
1000
0100
0010
0000
0001
0010
0100
0000
,
1000
0010
0100
0000
0010
0100
0001
0000
,
0010
0000
0000
0011
0000
0000
0001
0000
,
1000
0000
0000
1100
0000
0000
0001
0000
,
1001
0000
0100
0000
0010
0000
0100
0001
,
1000
0000
0001
0000
1000
0000
0010
1000
,
0001
0000
1000
0000
0100
0000
0010
0001
,
1000
0000
0001
0000
0010
0000
0100
1000
,
0001
0000
0010
0001
0100
0000
0010
1000
,
0100
0000
1000
0001
0100
0000
0010
1000
,
0001
0000
0000
1001
0000
0000
0100
0000
,
0101
0101
1010
1010
,
1000
0000
0100
0010
0001
0000
0100
0010
,
0100
0000
0001
0010
0000
0010
0001
1000
,
0001
0000
0010
0100
1000
0000
0010
0100
,
0010
0000
1000
0100
0000
0100
1000
0001
,
1000
0000
0010
0010
0100
0000
0001
0001
,
1000
0000
0100
0100
0010
0000
0001
0001
,
1000
0000
1000
0000
,
1001
1001
0110
0110
,
1002
0000
0200
0000
,
0000
0000
0000
0303
,
2001
0000
0020
0000
,
0000
0000
0000
3030
,
1002
0000
0020
0000
,
0000
0000
0000
0033
,
2001
0000
0200
0000
,
0000
0000
0000
0000
0000
0000
0000
3300
;

//---------------dance-single - ----------------
#NOTES:
     dance-single:
     :
     Beginner:
     1:
     0.068,0.102,0.091,0.000,0.000:
1001
0000
0000
0000
,
1000
0000
0000
0000
,
0001
0000
0000
0000
,
0100
0000
0000
0000
,
0010
0000
0000
0000
,
0010
0000
0000
0000
,
0010
0000
0000
0000
,
0100
0000
0000
0000
,
1001
0000
0000
0000
,
0001
0000
0000
0000
,
1000
0000
0000
0000
,
0001
0000
0000
0000
,
0100
0000
0000
0000
,
0100
0000
0000
0000
,
0010
0000
0000
0000
,
0010
0000
0000
0000
,
1001
0000
0001
0000
,
1000
0000
0001
0000
,
1000
0000
0001
0000
,
1000
0000
0001
0000
,
0010
0000
0100
0000
,
0010
0000
0100
0000
,
0010
0000
0000
0000
,
0110
0000
0000
0000
,
1001
0000
0000
0000
,
0000
0000
0000
0000
,
0110
0000
0000
0000
,
0000
0000
0000
0000
,
1001
0000
0000
0000
,
0000
0000
0000
0000
,
1001
0000
0000
0000
;

//---------------dance-double - ----------------
#NOTES:
     dance-double:
     :
     Easy:
     3:
     0.097,0.161,0.000,0.000,0.000:
01000000
00000000
00000000
00000000
,
00000010
00000000
00000000
00000100
,
00010000
00000000
00000000
00001000
,
00000010
00000000
00000000
00001000
,
00000001
00001000
00010000
10000000
,
00010000
00001000
00000001
00001000
,
00010000
00000000
00000000
00000000
,
10000000
00000000
00000000
00000000
,
00100000
00000000
00000000
00000000
,
00001000
00000000
00000000
00000000
,
00000010
00000000
00000000
00000000
,
00001000
00000000
00000000
00000000
,
00010000
10000000
00010000
00001000
,
00000001
00001000
00010000
10000000
,
00010000
00000000
00000000
00000000
,
00001000
00000000
00000000
00000100
,
00000100
00000000
00000000
00001000
,
00100000
00000000
00000000
01000000
,
01000000
00000000
00000000
00010000
,
00000010
00000000
00000000
00000100
,
00001000
00000000
00010000
00000000
,
01000000
00000000
00001000
00000000
,
00000100
00010000
00100000
00001000
,
00000010
00001000
00010000
00100000
,
10000000
00000000
00000000
00000000
,
00000000
00000000
00000001
00000000
,
00000100
00000000
00000000
00000000
,
00000000
00000000
00100000
00000000
,
01000000
00000000
00000000
00000000
,
00000000
00000000
00001000
00000000
,
00000100
00000000
00000000
00000000
,
00000000
00000000
00100000
00000000
;

//---------------dance-double - ----------------
#NOTES:
     dance-double:
     :
     Medium:
     6:
     0.211,0.302,0.159,0.261,0.000:
11000000
00000000
00000000
00000000
,
00000011
00000000
00000000
00000000
00000000
00000000
00000100
00001000
,
00010000
00000000
00000000
10100000
00000000
00000000
00010000
00000000
,
00001000
00000000
00000000
00001010
00000000
00000000
00000010
00000000
,
00000002
00000023
00002030
00023000
,
20030000
30200000
00320000
00032000
,
00003020
00000000
00000000
00002000
00000000
00000000
00003030
00000000
,
00020000
00000000
00000000
00200000
00000000
00000000
00330000
00000000
,
00110000
00000000
00000000
00000000
00000000
00000000
00000000
00010000
,
00001000
00000000
00000000
00000000
00000000
00000000
00000000
00001000
,
00010000
00000000
00000000
00000000
00000000
00000000
00000000
00100000
,
10000000
00000000
00000000
00000000
00000000
00000000
00000000
00010000
,
20000000
30200000
00320000
00032000
,
00003002
00000023
00002030
00023000
,
00230000
00000000
00000000
00020000
00000000
00000000
00330000
00000000
,
00002000
00000000
00000000
00000100
00003000
00000000
00000100
00000000
,
00000100
00000000
00000000
00000100
00000000
00000000
00001000
00010000
,
00100000
00000000
00000000
01000000
00000000
00000000
01000000
00000000
,
01000000
00000000
00000000
01000000
00000000
00000000
00010000
00001000
,
00000010
00000000
00000000
00000100
00000000
00000000
00000100
00000000
,
00001100
00000000
00110000
00000000
,
01010000
00000000
00001010
00000000
,
00001100
00010000
10100000
00010000
,
00001010
00010000
11000000
00010000
,
00001100
00000000
00010000
00010000
00000000
00000000
00001000
00000000
,
00000000
00000000
00000001
00000001
00000000
00000000
00000000
00000001
,
00000000
00000000
00000100
00000100
00000000
00000000
00010000
00000000
,
00000000
00000000
00001000
00001000
00000000
00000000
00000000
01000000
,
00000000
00000000
00100000
00100000
00000000
00000000
10000000
00000000
,
00000000
00000000
01000000
01000000
00000000
00000000
00000000
00001000
,
00000000
00000000
00010000
00010000
00000000
00000000
00001000
00000000
,
00000000
00000000
00000100
00000100
00000000
00000000
00000000
00000000
;

//---------------dance-double - ----------------
#NOTES:
     dance-double:
     :
     Hard:
     8:
     0.222,0.307,0.011,0.000,0.000:
10000000
00000000
00000000
00000000
,
00000001
00000000
00000000
00000000
00000000
00000000
00001000
00000100
,
00000010
00000000
00000000
00000001
00000000
00000000
00010000
00000000
,
00001000
00000000
00000000
00010000
00000000
00000000
10000000
00000000
,
00010000
00100000
00010000
00100000
10000000
00010000
10000000
00010000
,
00000010
00001000
00000010
00001000
00000001
00000100
00001000
00000001
,
00000010
00000000
00000000
00000001
00000000
00000000
00000000
00000000
,
00100000
00000000
00000000
10000000
00000000
00000000
00000000
00000000
,
00011000
00000000
00000000
00000000
00000000
00000000
00000000
00000010
,
00000001
00000000
00000000
00000000
00000000
00000000
00000000
01000000
,
10000000
00000000
00000000
00000000
00000000
00000000
00000000
00000010
,
00001000
00000000
00000000
00000000
00000000
00000000
00000000
00010000
,
00001000
00000100
00001000
00000100
00000001
00001000
00000001
00001000
,
01000000
00010000
01000000
00010000
10000000
00100000
00010000
10000000
,
01000000
00000000
00000000
10000000
00000000
00000000
00000000
00000000
,
00000100
00000000
00000000
00001000
00000000
00000000
00010000
00000000
,
00100000
00000000
00000000
00010000
00000000
00000000
10000000
00100000
,
01000000
00000000
00000000
00010000
00000000
00000000
00000010
00000000
,
00000001
00000000
00000000
00001000
00000000
00000000
00010000
00100000
,
01000000
00000000
00000000
10000000
00000000
00000000
10000000
00000000
,
01000000
00000000
00010000
00000000
,
00000001
00000000
00001000
00000000
,
00000100
00000000
00010000
00000000
,
10000000
01000000
10000000
01000000
10000000
01000000
10000000
01000000
,
10000000
00000000
00000000
00000000
00000001
00000010
00000001
00000010
,
00000001
00000010
00000001
00000010
00000001
00000010
00000001
00000010
,
00000000
00000000
00000000
00000000
10000000
00100000
10000000
00100000
,
10000000
00100000
10000000
00100000
10000000
00100000
10000000
00100000
,
00000000
00000000
00000000
00000000
00000100
00000001
00000100
00000001
,
00000100
00000001
00000100
00000001
00000100
00000001
00000100
00000001
,
00000000
00000000
00000000
00000000
00100000
01000000
00100000
01000000
,
00100000
01000000
00100000
01000000
00100000
01000000
00100000
01000000
;

//---------------dance-double - ----------------
#NOTES:
     dance-double:
     :
     Challenge:
     11:
     0.439,0.489,0.000,0.045,0.318:
10000000
00000000
00100000
00100000
01000000
00000000
00001000
00001000
,
00010000
00000000
00000100
00000100
00001000
00000000
00000001
00000001
,
00000100
00000000
00000010
00000010
00010000
00000000
00001000
00001000
,
01000000
00000000
00010000
00010000
00100000
00000000
01000000
01000000
,
10000000
00100000
00010000
00100000
10000000
00100000
00010000
00001000
,
00000010
00000001
00000010
00001000
00000010
00000001
00000100
00001000
,
00010000
00000000
00100000
00100000
10000000
00000000
01000000
01000000
,
00010000
00000000
00001000
00001000
00000100
00000000
00000001
00000001
,
00000100
00000000
00000001
00000000
00000000
00000010
00000000
00000000
00000100
00000000
00000000
00001000
00000000
00000000
00100000
00000000
,
00000000
00000000
10000000
00000000
00000000
01000000
00000000
00000000
00100000
00000000
00000000
00010000
00000000
00000000
00000010
00000000
,
00000000
00000000
00000001
00000000
00000000
00000100
00000000
00000000
00001000
00000000
00000000
00010000
00000000
00000000
00100000
00000000
,
00000000
00000000
10000000
00000000
00000000
01000000
00000000
00000000
00010000
00000000
00000000
00001000
00000000
00000000
00000010
00000000
,
00000001
00000010
00001000
00000010
00000001
00000010
00001000
00010000
,
00100000
10000000
00100000
00010000
00100000
10000000
01000000
00010000
,
00001000
00000000
00000010
00000010
00000001
00000000
00001000
00001000
,
00000010
00000100
00000010
00000100
00000010
00000100
00000010
00000100
,
00000001
00001000
00000100
00010000
00001000
01000000
00010000
10000000
,
00100000
01000000
00010000
00100000
00000100
00001000
00000001
00000100
,
00001000
00010000
01000000
10000000
00100000
01000000
00001000
00010000
,
00000100
00000010
00001000
00010000
01000000
10000000
00010000
01000000
,
00100000
10000000
01000000
10000000
00100000
00010000
00001000
00010000
,
00000100
00001000
00000001
00001000
00000010
00000100
00000001
00000100
,
00001000
00010000
00001000
00010000
10000000
00010000
10000000
00010000
,
00100000
01000000
00100000
01000000
00100000
01000000
00100000
01000000
,
00020000
00000000
00000000
00000000
00030000
00000000
00000000
00000000
10000000
01000000
10000000
01000000
10000000
01000000
10000000
01000000
,
10000000
01000000
10000000
01000000
10000000
01000000
10000000
01000000
00010000
01000000
10000000
01000000
10000000
01000000
10000000
01000000
,
00200000
00000000
00000000
00000000
00300000
00000000
00000000
00000000
00010000
01000000
00010000
01000000
00010000
01000000
00010000
01000000
,
00010000
01000000
00010000
01000000
00010000
01000000
00010000
01000000
00100000
01000000
00010000
01000000
00010000
01000000
00010000
01000000
,
00002000
00000000
00000000
00000000
00003000
00000000
00000000
00000000
00010000
00000100
00010000
00000100
00010000
00000100
00010000
00000100
,
00010000
00000100
00010000
00000100
00010000
00000100
00010000
00000100
00001000
00000100
00010000
00000100
00010000
00000100
00010000
00000100
,
00000020
00000000
00000000
00000000
00000030
00000000
00000000
00000000
00000001
00000100
00000001
00000100
00000001
00000100
00000001
00000100
,
00000001
00000100
00000001
00000100
00000001
00000100
00000001
00000100
00000010
00001000
00000100
00000010
00000100
00000010
00000100
00000010
;
