#TITLE:5-10;
#SUBTITLE:;
#ARTIST:good-cool ft. 近藤葵;
#TITLETRANSLIT:;
#SUBTITLETRANSLIT:;
#ARTISTTRANSLIT:good-cool ft. AOI KONDO;
#CREDIT:DigiMindAxel;
#BANNER:5-10.png;
#BACKGROUND:5-10-bg.png;
#LYRICSPATH:5-10.lrc;
#CDTITLE:GUITARFREAKS & drummania.png;
#MUSIC:5-10.ogg;
#METERTYPE:DDR X;
#OFFSET:-0.313;
#SAMPLESTART:34.880;
#SAMPLELENGTH:12.000;
#SELECTABLE:YES;
#BPMS:0.000=118.000;
#STOPS:;
#BGCHANGES:0.000=5-10.avi=1.000=1=1=0,
99999=-nosongbg-=1.000=0=0=0 // don't automatically add -songbackground-
;

//---------------dance-single - ----------------
#NOTES:
     dance-single:
     :
     Hard:
     10:
     0.464,0.445,0.337,0.118,0.200:
0000
0000
0000
0000
,
0000
0000
0000
0000
,
0000
0000
0000
0000
,
0000
0000
0000
0000
,
0000
0000
0000
0000
0000
0000
0000
0000
0000
0000
0000
0000
0000
0000
0000
1001
,
0000
0000
0000
0000
1001
0000
0000
0000
1000
0000
0100
0000
1000
0000
0000
0001
,
0000
0000
1000
0000
0100
0000
1000
0000
0001
0000
0100
0000
0001
0000
0000
1001
,
0000
0000
0000
0000
0001
0000
0010
0000
0100
0000
0010
0000
0001
0000
1000
0002
,
0000
0000
0000
0000
0000
1003
0000
0000
0010
0000
0010
0000
0110
0000
0000
0000
,
1001
0000
0000
0000
0101
0000
0000
0001
0000
0000
1000
0000
0010
0000
0100
0000
,
0010
0000
1000
0000
0010
0000
1000
0002
0000
0000
1000
0000
1003
0000
0000
0000
,
0001
0000
0100
0000
0010
0000
0000
0100
0000
0000
0001
0000
1000
0000
0100
0000
,
1000
0000
0100
0000
0010
0000
0000
0000
0001
0000
0001
0000
1000
0001
0000
0000
,
1001
0000
0000
0000
0110
0000
0000
0100
0000
0000
0001
0000
0010
0000
0100
0000
,
1000
0000
0100
0000
1000
0000
0001
2000
0000
0000
0001
0000
3001
0000
0000
0000
,
0100
0000
0010
0000
0100
0000
0000
0001
0000
0000
1000
0000
0100
0000
1000
0000
,
0001
0000
0001
0000
0001
0000
0000
0000
1000
0000
1000
0000
0001
1000
0000
0000
,
0001
0010
0100
0010
0001
0010
0100
0010
,
0001
1000
0010
1000
0001
1000
0010
1000
,
0001
1000
0000
0000
2002
0000
0000
0000
0000
0000
0000
0000
3003
0000
0000
0000
,
1000
0001
0000
0000
2002
0000
0000
0000
0000
0000
0000
0000
3003
0000
0000
0000
,
1000
0010
0100
0010
1000
0010
0100
0010
,
1000
0001
0010
0001
1000
0001
0010
0001
,
1000
0001
0000
0000
2002
0000
0000
0000
0000
0000
0000
0000
3003
0000
0000
0000
,
0000
1001
0000
0000
1001
0000
0000
1001
0000
0000
0000
0000
0000
0000
0000
0000
,
1000
0000
0100
0000
0001
0000
0100
0000
1000
0000
0001
0000
1000
0000
0001
0010
,
0001
0000
0010
0000
1000
0000
0010
0000
0001
0000
0100
0000
0010
0000
1000
0001
,
1000
0000
0010
0000
0001
0000
0010
0000
1000
0000
0001
0000
0100
0000
0001
1000
,
0001
0101
0000
1010
0000
1001
0000
0000
,
0001
0000
0100
0000
1000
0000
0100
0000
0010
0000
1000
0000
0001
0000
1000
0010
,
1000
0000
0100
0000
0010
0000
1000
0000
0010
0000
0001
0000
1000
0000
0001
1000
,
0001
0000
0100
0000
1000
0000
0100
0000
0010
0000
1000
0000
0001
0000
1000
0100
,
1000
1100
0000
0011
0000
1001
0000
0000
,
1001
1000
0001
1000
0100
0000
1000
0001
,
0010
0100
0010
0001
1000
0001
0010
0000
,
0001
1001
1000
1001
,
0001
0000
1000
0001
1000
0000
0000
0000
0001
0000
0001
0000
0100
0010
0000
0010
,
0000
0000
1001
0000
0001
0100
0001
0000
,
2000
0000
0000
0000
3010
0000
0100
0000
0010
0000
1000
0000
0001
0000
0000
0001
,
0000
0000
0000
0000
1001
0000
0001
0000
1000
0000
0100
0000
0010
0000
0000
0001
,
0000
0000
1000
0000
1100
0000
0000
0000
1001
0000
0000
0000
0011
0000
0000
0011
,
0000
0000
1001
0001
1000
0010
1000
0000
,
0001
0000
0100
0000
1000
0000
0100
0000
0001
0000
0010
0000
0100
0000
0000
0100
,
0000
0000
0000
0000
1001
0000
1000
0000
0001
0000
0100
0000
0101
0000
0000
0002
,
0000
0000
1000
0000
1003
0100
0000
0000
1000
0000
1000
0000
0001
1000
0000
0000
,
0010
0100
0001
1000
0100
0010
0001
0000
,
1000
0000
0000
0100
0000
0000
0001
0000
0100
0000
1000
0000
1001
0000
0000
0000
,
0010
0100
0001
1000
0100
0010
0001
0000
,
1000
0000
0000
0100
0000
0000
0001
0000
0100
0000
1000
0000
1001
0000
0000
0000
,
0001
0100
0001
0100
0001
0100
0001
0000
1000
0000
1000
0000
1000
0000
0000
1001
,
0000
0000
0001
0000
0010
0000
0100
0000
1000
0001
1000
0001
1000
0001
0000
2002
,
0000
0000
0000
0000
0000
3003
0000
0000
1001
0000
0000
0000
0000
0000
0000
0000
;

//---------------dance-single - ----------------
#NOTES:
     dance-single:
     :
     Medium:
     7:
     0.295,0.281,0.309,0.073,0.059:
0000
0000
0000
0000
,
0000
0000
0000
0000
,
0000
0000
0000
0000
,
0000
0000
0000
0000
,
0000
0000
0000
0000
0000
0000
0000
0000
0000
0000
0000
0000
0000
0000
0000
0001
,
0000
0000
0000
0000
1000
0000
0000
0000
0100
0000
0000
0000
1000
0000
0000
0001
,
0000
0000
0000
0000
1000
0000
0000
0000
0100
0000
0000
0000
1000
0000
0000
0001
,
0000
0000
0000
0000
1000
0000
0000
0000
0010
0000
0000
0000
1000
0000
0000
1001
,
0000
0000
0000
0000
1000
0001
1000
0000
,
1001
0001
2000
0010
,
3010
0000
0010
0110
,
1001
1000
0002
0100
,
0103
0000
0100
0110
,
1001
0001
2000
0010
,
3010
0000
0010
0110
,
1001
1000
0002
0100
,
0103
0000
0100
0110
,
0010
1000
0010
0000
1000
0001
0000
0100
,
0001
1001
1000
0001
,
0000
1000
0000
0000
1001
0000
0000
0000
0000
0000
0000
0000
0000
0000
0000
0000
,
0000
0001
0000
0000
1001
0000
0000
0000
0000
0000
0000
0000
0000
0000
0000
0000
,
0100
0001
0100
0000
0001
1000
0000
0100
,
1000
1001
1000
0001
,
0000
1000
0000
0000
1001
0000
0000
0000
0000
0000
0000
0000
0000
0000
0000
0000
,
0000
0001
0000
0000
1000
0000
0000
0001
0000
0000
0000
0000
0000
0000
0000
0000
,
1000
0010
0000
1000
0000
0010
0000
1000
,
0001
0100
0000
0001
0000
0100
0000
0001
,
1000
0100
0000
1000
0000
0100
0000
0110
,
0000
0001
0000
0001
0000
1000
0000
0000
,
0001
0010
0000
0001
0000
0010
0000
0001
,
1000
0100
0000
1000
0000
0100
0000
1000
,
0001
0100
0000
0001
0000
0100
0000
0110
,
0000
1000
0000
1000
0000
0001
0000
0000
,
1001
0001
0101
0000
,
1001
1000
1010
0000
,
0001
0010
0100
1000
,
1001
0000
0000
0000
0000
0000
0000
0000
0010
0000
0100
0000
0010
0000
0000
0010
,
0000
1001
1000
0001
,
0200
0010
0310
0110
,
1000
1001
0001
0100
,
0010
0000
0000
0000
0100
0000
0000
0000
0010
0000
0100
0000
0010
0000
0000
0010
,
0000
1001
0001
1000
,
0020
0100
0130
0110
,
0001
1001
1000
0010
,
0100
0000
0010
0000
0100
0010
0100
0000
,
1001
1000
1000
1000
,
0001
0100
0001
0101
,
1001
0001
0001
0001
,
1000
0010
1000
1010
,
0100
0000
0001
0000
0100
0000
0000
0000
1001
0000
0000
0000
1000
0000
0000
1000
,
0000
0000
0010
0000
0100
0000
0000
0000
0100
0000
0000
0000
0100
0000
0000
2002
,
0000
0000
0000
0000
0000
3003
0000
0000
1001
0000
0000
0000
0000
0000
0000
0000
;

//---------------dance-single - ----------------
#NOTES:
     dance-single:
     :
     Easy:
     3:
     0.176,0.211,0.127,0.064,0.000:
0000
0000
0000
0000
,
0000
0000
0000
0000
,
0000
0000
0000
0000
,
0000
0000
0000
0000
,
0000
0000
0000
0000
,
0000
1000
0001
1000
,
0000
0001
1000
0001
,
0000
1000
0001
1000
,
0020
0000
0000
0000
,
1030
0001
0000
1000
,
0000
0010
0000
0100
,
0000
0010
0000
1000
,
0001
0000
0020
0000
,
0031
1000
0000
0100
,
0000
1000
0000
0100
,
0000
0010
0000
0001
,
2000
0000
3010
0000
,
0100
0010
0100
0000
,
0010
0100
0010
0000
,
0110
0000
0000
0000
,
1001
0000
0000
0000
,
0001
1000
0001
0000
,
1000
0001
1000
0000
,
1001
0000
0000
0000
,
0110
0000
0000
0000
,
0100
1000
0100
0000
,
1000
0001
1000
0000
,
0001
0010
0001
0000
,
1000
0000
0000
0000
,
1000
0010
1000
0000
,
0001
1000
0001
0000
,
0100
0001
0100
0000
,
0001
0001
1000
1000
,
1001
0000
0000
0000
,
0100
0000
0000
0000
,
0110
0000
0001
0000
,
1001
0000
1001
0000
,
1000
0001
1000
0000
,
0010
0100
0010
0000
,
0100
0010
0100
0000
,
0001
1000
0001
1000
,
0000
1001
0000
0000
,
0100
0010
0100
0000
,
0001
1000
0001
1000
,
0001
0000
1001
0000
,
1000
0010
0010
0010
,
2000
0000
0001
0000
,
3001
0010
0010
0010
,
0002
0000
1000
1003
,
1001
0000
0010
0000
,
0110
0000
2002
0000
,
3003
0000
1001
0000
;

//---------------dance-single - ----------------
#NOTES:
     dance-single:
     :
     Challenge:
     13:
     0.657,0.609,0.373,0.091,0.696:
0000
0000
0000
0000
,
0000
0000
0000
0000
,
0000
0000
0000
0000
,
0000
0000
0000
0000
,
0000
0000
0000
0000
0000
0000
0000
0000
0000
0000
0000
0000
0000
0000
0000
1001
,
0000
0000
0100
0000
1100
0000
0000
0000
0010
0000
0001
0000
1000
0010
0000
0010
,
0000
0000
1000
0000
0001
0000
0100
0000
0010
0000
1000
0000
0001
0010
0000
0011
,
0000
0000
1000
0000
0001
0100
0001
0100
0001
0100
0001
1000
0100
1000
0100
1000
,
0000
0001
0010
0100
1000
0010
0000
0000
0110
0000
0110
0000
0010
0100
0000
0000
,
1001
0000
1100
1000
0001
0001
0100
0001
,
1000
0100
1000
0100
1000
0000
0010
0200
0000
0000
0010
0000
0310
0000
0000
0000
,
1000
0001
1000
0001
1000
0000
0100
0020
0000
0000
0100
0000
0130
0000
0000
0000
,
1000
0100
1000
0100
0010
0001
0000
0000
0100
0001
0100
0001
1000
0010
0000
0000
,
1001
0000
0011
0001
1000
1000
0010
1000
,
0001
0100
0001
0100
0001
0000
0010
0200
0000
0000
0010
0000
0310
0000
0000
0000
,
0001
1000
0001
1000
0001
0000
0100
0020
0000
0000
0100
0000
0130
0000
0000
0000
,
0001
0010
0001
0010
0100
1000
0000
0000
0001
0100
0001
0100
0010
1000
0000
0000
,
0100
1000
0100
0000
1000
0001
1000
0000
0100
1000
0100
0000
0010
0100
0010
0000
,
0001
0100
0010
0000
0100
0010
0100
0000
0001
0100
0010
0000
1000
0001
1000
0001
,
0010
0100
0000
0000
0110
0000
0000
0000
0100
0001
0000
0001
1000
0000
1000
0000
,
0010
0100
0000
0000
0110
0000
0000
0000
0010
1000
0100
0010
0001
0010
0100
0000
,
1000
0010
1000
0000
0001
1000
0001
0000
0100
0001
0100
0000
0010
0100
0010
0000
,
1000
0100
0010
0000
0100
1000
0100
0000
1000
0100
0010
0000
0001
1000
0001
1000
,
0100
0010
0000
0000
0110
0000
0000
0000
0010
1000
0100
0010
0001
1000
0100
0000
,
1000
0001
0000
1000
0100
0000
1000
0002
0000
0000
0000
0000
0000
0000
0003
0000
,
1001
0000
0001
0100
0010
0000
0100
0010
1000
0000
0001
0100
0001
0000
1000
0001
,
1000
0000
0100
1000
0100
0000
1000
0100
0010
0000
0001
0010
0100
0000
1000
0001
,
1000
0000
0010
0100
0001
0000
0100
0010
1000
0000
0001
1000
0001
0000
0010
0001
,
0100
0000
0110
0000
0000
0000
1100
0000
0000
0000
1001
0000
1000
0100
0010
0001
,
1000
0000
0100
1000
0010
0000
0100
0001
0010
0000
0001
1000
0001
0000
0100
0010
,
1000
0000
0001
0010
0001
0000
1000
0100
1000
0000
0100
0010
0001
0010
0100
0000
,
1001
0000
0001
0100
0010
0000
0100
0010
0100
0000
0001
1000
0010
0000
0100
0001
,
1000
0000
1100
0000
0000
0000
0101
0000
0000
0000
1001
0000
0001
0010
0100
1000
,
0001
0000
0000
0000
1001
0000
0001
0000
0200
0000
0000
0301
0000
0000
1000
0000
,
0100
0000
0001
0000
0100
0000
1000
0000
0010
0100
0000
0100
0001
0000
0000
0000
,
1000
0001
0010
1000
0010
0001
1000
1000
,
0010
0000
0100
0001
0100
0001
0000
0000
1001
0000
1001
0000
0001
1000
0000
1001
,
0000
0000
0100
0000
1100
0000
0000
0000
0010
0001
0010
0000
0100
0000
1000
0002
,
0000
0000
0000
0000
1003
0001
1000
0000
0100
0000
0010
0000
0001
0100
0000
0100
,
0000
0000
0001
0000
1001
0000
1000
0000
0001
0100
0001
0000
1000
0000
0100
2000
,
0000
0000
0001
0000
3001
0100
0000
0000
1001
0000
1001
0000
1000
0001
0000
1001
,
0000
0000
1000
0000
1001
0000
0001
0000
0100
0010
0100
0000
0001
0000
1000
0100
,
0000
0000
1000
0000
0001
0100
0001
0000
1000
0000
0100
0000
1000
0001
0000
0001
,
0000
0000
1000
0000
1001
0000
1000
0100
0010
0100
1000
0000
0001
0100
0010
0100
,
0000
0001
0010
0100
1000
0001
0000
0000
1001
0000
1001
0000
1000
0001
0000
0000
,
1001
0000
0001
0100
0001
0000
1000
0010
1000
0000
0010
0100
0010
0000
1000
0000
,
0001
0000
0010
0001
0000
0001
0100
0000
0010
0000
0010
0000
0110
0000
0100
0001
,
1000
0000
0001
0010
0001
0000
1000
0100
1000
0000
0010
0100
0010
0000
1000
0000
,
0001
0000
0100
0001
0000
0001
0010
0000
0100
0000
0100
0000
0110
0000
0000
0000
,
1000
0010
0100
0010
1000
0001
0010
0000
0011
0000
0011
0000
0001
1000
0000
1001
,
0000
0001
0100
0010
0100
0001
1000
0100
1000
0010
0100
0001
0010
0100
0000
2002
,
0000
0000
0000
0000
0000
3003
0000
0000
1001
0000
0000
0000
0000
0000
0000
0000
;

//---------------dance-single - ----------------
#NOTES:
     dance-single:
     :
     Beginner:
     2:
     0.081,0.141,0.127,0.000,0.000:
0000
0000
0000
0000
,
0000
0000
0000
0000
,
0000
0000
0000
0000
,
0000
0000
0000
0000
,
0000
0000
0000
0000
,
0000
1000
0000
0000
,
0000
0001
0000
0000
,
0000
1000
0000
0000
,
0001
0000
0000
0000
,
1001
0000
0000
0000
,
1000
0000
0000
0000
,
0001
0000
0000
0000
,
1000
0000
0000
0000
,
0010
0000
0000
0000
,
0100
0000
0000
0000
,
0010
0000
0000
0000
,
0010
0000
0100
0000
,
0110
0000
0000
0000
,
0110
0000
0000
0000
,
1001
0000
0000
0000
,
1001
0000
0000
0000
,
0110
0000
0000
0000
,
0110
0000
0000
0000
,
1001
0000
0000
0000
,
1001
0000
0000
0000
,
0100
0000
0000
0000
,
0010
0000
0000
0000
,
0100
0000
0000
0000
,
0100
0000
0000
0000
,
0010
0000
0000
0000
,
0100
0000
0000
0000
,
0010
0000
0000
0000
,
0010
0000
0000
0000
,
1000
0000
0000
0000
,
0000
0000
0000
0000
,
0001
0000
0000
0000
,
1000
0000
0000
0000
,
0000
1001
0000
0000
,
0001
0000
0000
0000
,
1000
0000
0000
0000
,
0001
0000
0000
0000
,
0000
1001
0000
0000
,
1000
0000
0000
0000
,
0001
0000
0000
0000
,
1000
0000
0000
0000
,
1000
0000
0000
0000
,
0001
0000
0000
0000
,
0001
0000
0000
0000
,
1000
0000
0000
0000
,
0110
0000
0000
0000
,
1001
0000
0000
0000
,
0110
0000
0010
0000
;

//---------------dance-double - ----------------
#NOTES:
     dance-double:
     :
     Easy:
     4:
     0.183,0.211,0.127,0.073,0.000: // measure 1
00000000
00000000
00000000
00000000
,  // measure 2
00000000
00000000
00000000
00000000
,  // measure 3
00000000
00000000
00000000
00000000
,  // measure 4
00000000
00000000
00000000
00000000
,  // measure 5
00000000
00000000
00000000
00000000
,  // measure 6
00000000
10000000
01000000
10000000
,  // measure 7
00000000
00010000
10000000
00010000
,  // measure 8
00000000
00100000
00001000
00100000
,  // measure 9
00002000
00000000
00000000
00000000
,  // measure 10
00013000
00000001
00000000
01000010
,  // measure 11
00000000
00000100
00000000
00001000
,  // measure 12
00000000
00000100
00000000
00001000
,  // measure 13
00000001
00000000
00002000
00000000
,  // measure 14
00003100
00001000
00000000
00000100
,  // measure 15
00000000
00010000
00000000
00001000
,  // measure 16
00000000
00010000
00000000
00001000
,  // measure 17
00020000
00000000
00031000
00000000
,  // measure 18
01000000
00001000
01000000
00000000
,  // measure 19
00100000
01000000
00100000
00000000
,  // measure 20
01100000
00000000
00000000
00000000
,  // measure 21
01100000
00000000
00000000
00000000
,  // measure 22
10000000
01000000
10000000
00000000
,  // measure 23
00100000
01000000
00100000
00000000
,  // measure 24
01100000
00000000
00000000
00000000
,  // measure 25
01100000
00000000
00000000
00000000
,  // measure 26
00001000
00010000
00001000
00000000
,  // measure 27
00010000
00000010
00010000
00000000
,  // measure 28
00000010
00000100
00000010
00000000
,  // measure 29
00001000
00000001
00001000
00000001
,  // measure 30
00010000
00001000
00010000
00000000
,  // measure 31
00000100
00010000
00000100
00000000
,  // measure 32
00010000
00001000
00010000
00000000
,  // measure 33
00001000
10000000
00001000
10000000
,  // measure 34
10001000
00000000
00000000
00000000
,  // measure 35
00100000
00000000
00000000
00000000
,  // measure 36
01100000
00000000
00100000
00000000
,  // measure 37
10010000
00000000
10010000
00000000
,  // measure 38
10000000
00010000
10000000
00000000
,  // measure 39
00100000
01000000
00100000
00000000
,  // measure 40
01000000
00100000
01000000
00000000
,  // measure 41
00001000
00010000
00001000
00010000
,  // measure 42
00001000
00011000
00000000
00000000
,  // measure 43
00010000
00000100
00010000
00000000
,  // measure 44
00000010
00000100
00000010
00000100
,  // measure 45
00000020
00000000
00000130
00000000
,  // measure 46
00000001
00001000
00001000
00001000
,  // measure 47
00000200
00000000
00010300
00010000
,  // measure 48
00001000
01000000
01000000
01000000
,  // measure 49
00020000
00000000
10030000
10000000
,  // measure 50
10010000
00000000
00010000
00000000
,  // measure 51
10010000
00000000
02200000
00000000
,  // measure 52
03300000
00000000
01100000
00000000
;

//---------------dance-double - ----------------
#NOTES:
     dance-double:
     :
     Medium:
     8:
     0.330,0.375,0.337,0.164,0.068: // measure 1
00000000
00000000
00000000
00000000
,  // measure 2
00000000
00000000
00000000
00000000
,  // measure 3
00000000
00000000
00000000
00000000
,  // measure 4
00000000
00000000
00000000
00000000
,  // measure 5
00000000
00000000
00000000
00000000
00000000
00000000
00000000
00000000
00000000
00000000
00000000
00000000
00000000
00000000
00000000
00011000
,  // measure 6
00000000
00000000
00000000
00000000
01000000
00000000
00000000
00000000
00100000
00000000
00000000
00000000
01000000
00000000
00000000
01000000
,  // measure 7
00000000
00000000
00000000
00000000
00001000
00000000
00000000
00000000
00010000
00000000
00000000
00000000
00001000
00000000
00000000
00001000
,  // measure 8
00000000
00000000
00000000
00000000
00010000
00000000
00000000
00000000
00000001
00000000
00000000
00000000
00010000
00000000
00000000
00010001
,  // measure 9
00000000
00000000
00000000
00000000
00000010
00000010
00000010
00000000
,  // measure 10
00000110
00000100
00000002
00000010
,  // measure 11
00000013
00000000
00001000
00001100
,  // measure 12
00001000
00000001
00000010
00000000
00000200
00000000
00010000
00000000
,  // measure 13
00010300
00000000
00000000
00000000
00001000
00010000
00001000
00000000
,  // measure 14
01000000
01100000
00200000
10000000
,  // measure 15
10300000
00000000
00000000
00000000
00010000
00100000
00010000
00000000
,  // measure 16
00100000
00101000
00002000
00010000
,  // measure 17
00013000
00000100
00010000
00000000
00000100
00000000
00001100
00000000
,  // measure 18
00001000
00000100
00000010
00000000
00000001
00001000
00000000
00000010
,  // measure 19
00001000
00001010
00000010
00010000
,  // measure 20
00000000
00010000
00000000
00000000
00011000
00000000
00000000
00000000
00000000
00000000
00000000
00000000
00000000
00000000
00000000
00000000
,  // measure 21
00000000
00001000
00000000
00000000
00011000
00000000
00000000
00000000
00000000
00000000
00000000
00000000
00000000
00000000
00000000
00000000
,  // measure 22
00100000
01000000
10000000
00000000
00100000
01000000
00000000
00010000
,  // measure 23
01000000
10010000
10000000
00001000
,  // measure 24
00000000
00001000
00000000
00000000
00011000
00000000
00000000
00000000
00000000
00000000
00000000
00000000
00000000
00000000
00000000
00000000
,  // measure 25
00000000
00010000
00000000
00000000
00010000
00000000
00000000
00011000
00000000
00000000
00000000
00000000
00000000
00000000
00000000
00000000
,  // measure 26
00001000
01000000
00000000
00100000
00000000
10000000
00000000
00100000
,  // measure 27
01000000
00100000
00000000
10000000
00000000
01000000
00000000
00100000
,  // measure 28
01000000
00100000
00000000
00001000
00000000
00010000
00000000
00001000
,  // measure 29
00000000
00011000
00000000
00011000
00000000
00011000
00000000
00000000
,  // measure 30
00010000
00000010
00000000
00000100
00000000
00000001
00000000
00000100
,  // measure 31
00000010
00000100
00000000
00000001
00000000
00000010
00000000
00000100
,  // measure 32
00000010
00000100
00000000
00010000
00000000
00001000
00000000
00010000
,  // measure 33
00000000
00011000
00000000
00011000
00000000
00011000
00000000
00000000
,  // measure 34
01100000
00000000
00100000
01000000
00020000
00000000
10030000
00000000
,  // measure 35
01000000
10000000
01000000
00000000
11000000
00000000
10010000
00000000
,  // measure 36
00010000
00100000
00010000
00000000
01000000
00100000
01000000
00000000
,  // measure 37
10010000
00000000
00000000
00000000
00000000
00000000
00000000
00000000
10000000
00000000
10000000
00000000
10000000
00000000
00000000
10010000
,  // measure 38
00000000
01010000
01000000
00001000
,  // measure 39
00020000
00001000
00031000
00011000
,  // measure 40
00000100
00000110
00000010
00000100
,  // measure 41
00000001
00000000
00001000
00000000
00000010
00000000
00000000
00000000
00001000
00000000
00001000
00000000
00001000
00000000
00000000
00001001
,  // measure 42
00000000
00001002
00000023
00000130
,  // measure 43
00020000
00032000
00203000
00310000
,  // measure 44
02000000
00000000
00000000
00000000
03020000
00000000
00000000
00000000
20030000
00000000
00000000
00000000
30010000
00000000
00000000
10010000
,  // measure 45
00000000
00000000
00000000
00000000
00000000
01100000
00000000
00000000
01000000
00000000
01000000
00000000
01000000
00000000
00000000
00000000
,  // measure 46
10020000
00100000
00100000
00130000
,  // measure 47
00001000
00000000
00010000
00000000
00001000
00010000
00000010
00000000
,  // measure 48
00000210
00000001
00000001
00000301
,  // measure 49
00001000
00000100
00000010
00000000
00000001
00000000
00001001
00000000
,  // measure 50
00001000
00000000
00000010
00000000
00010000
00000000
00000000
00000000
00001000
00000000
00001000
00000000
00001000
00000000
00000000
00011000
,  // measure 51
00000000
00000000
00000000
00000000
00010000
00000000
00000000
00000000
00001000
00000000
00000000
00000000
01000000
00000000
00000000
02200000
,  // measure 52
00000000
00000000
00000000
03300000
01100000
00000000
00000000
00000000
;

//---------------dance-double - ----------------
#NOTES:
     dance-double:
     :
     Hard:
     10:
     0.469,0.469,0.319,0.118,0.237: // measure 1
00000000
00000000
00000000
00000000
,  // measure 2
00000000
00000000
00000000
00000000
,  // measure 3
00000000
00000000
00000000
00000000
,  // measure 4
00000000
00000000
00000000
00000000
,  // measure 5
00000000
00000000
00000000
00000000
00000000
00000000
00000000
00000000
00000000
00000000
00000000
00000000
00000000
00000000
00000000
00011000
,  // measure 6
00000000
00000000
00000000
00000000
00011000
00000000
00000000
00000000
00001000
00000000
00100000
00000000
00001000
00000000
00000000
00001000
,  // measure 7
00000000
00000000
01000000
00000000
00100000
00000000
00000000
00000000
10000000
00000000
00100000
00000000
10000000
00000000
00000000
10010000
,  // measure 8
00000000
00000000
00000000
00000000
00010000
00000000
00100000
00000000
01000000
00000000
00100000
00000000
00001000
00000000
00010000
00002000
,  // measure 9
00000000
00000000
00000000
00000000
00000000
00013000
00000000
00000000
00000010
00000000
00000010
00000000
00000110
00000000
00000000
00000000
,  // measure 10
00001010
00000000
00000000
00000000
00001001
00000000
00000000
00001000
00000000
00000000
00000001
00000000
00000100
00000000
00000010
00000000
,  // measure 11
00000100
00000000
00000001
00000000
00000100
00000000
00000001
00020000
00000000
00000000
00000100
00000000
00030100
00000000
00000000
00000000
,  // measure 12
00010000
00000000
00000010
00000000
00000100
00000000
00000000
00000010
00000000
00000000
00001000
00000000
00000001
00000000
00000010
00000000
,  // measure 13
00000100
00000000
00010000
00001000
00010000
00001000
00000000
00000000
01000000
00100000
01000000
00100000
01000000
00100000
00000000
00000000
,  // measure 14
01100000
00000000
00000000
00000000
10010000
00000000
00000000
00010000
00000000
00000000
10000000
00000000
00000000
00000000
00100000
00000000
,  // measure 15
01000000
00000000
00100000
00000000
10000000
00000000
00010000
00200000
00000000
00000000
00001000
00000000
00301000
00000000
00000000
00000000
,  // measure 16
10000000
00000000
01000000
00000000
10000000
00000000
00000000
00010000
00000000
00000000
01000000
00000000
00100000
00000000
01000000
00000000
,  // measure 17
00010000
00000000
00100000
00001000
00100000
00001000
00000000
00000000
00010000
00001000
00010000
00001000
00010000
00001000
00000000
00000000
,  // measure 18
00010000
00000010
00000100
00000010
00010000
00000010
00000100
00000010
,  // measure 19
00001000
00000100
00000010
00000100
00001000
00000100
00000010
00000100
,  // measure 20
00001000
00000001
00000000
00000000
00002002
00000000
00000000
00000000
00000000
00000000
00000000
00000000
00003003
00000000
00000000
00000000
,  // measure 21
00000010
00000100
00000000
00000000
00000220
00000000
00000000
00000000
00000000
00000000
00000000
00000000
00000330
00000000
00000000
00000000
,  // measure 22
00001000
00100000
01000000
00100000
00001000
00100000
01000000
00100000
,  // measure 23
00010000
10000000
00100000
10000000
00010000
10000000
00100000
10000000
,  // measure 24
00010000
10000000
00000000
00000000
20020000
00000000
00000000
00000000
00000000
00000000
00000000
00000000
30030000
00000000
00000000
00000000
,  // measure 25
00000000
01100000
00000000
00000000
01100000
00000000
00000000
01100000
00000000
00000000
00000000
00000000
00000000
00000000
00000000
00000000
,  // measure 26
00010000
00000000
00100000
00000000
10000000
00000000
00100000
00000000
00010000
00000000
10000000
00000000
00010000
00000000
10000000
01000000
,  // measure 27
10000000
00000000
01000000
00000000
00010000
00000000
01000000
00000000
10000000
00000000
00100000
00000000
01000000
00000000
00001000
10000000
,  // measure 28
00001000
00000000
00100000
00000000
10000000
00000000
00100000
00000000
00001000
00000000
10000000
00000000
01000000
00000000
10000000
00010000
,  // measure 29
10000000
10010000
00000000
01001000
00000000
00011000
00000000
00000000
,  // measure 30
00001000
00000000
00000100
00000000
00000001
00000000
00000100
00000000
00001000
00000000
00000001
00000000
00001000
00000000
00000001
00000100
,  // measure 31
00000001
00000000
00000010
00000000
00010000
00000000
00000010
00000000
00000001
00000000
00001000
00000000
00000100
00000000
00001000
00000001
,  // measure 32
00001000
00000000
00000100
00000000
00000001
00000000
00000100
00000000
00001000
00000000
00000010
00000000
00001000
00000000
00000001
00001000
,  // measure 33
00000001
00001001
00000000
00010100
00000000
00011000
00000000
00000000
,  // measure 34
00010000
01000000
00100000
10000000
01000000
00000000
10000000
00010000
,  // measure 35
00100000
01000000
00100000
00010000
10000000
00100000
01000000
00000000
,  // measure 36
00010000
00100000
00001000
00010000
,  // measure 37
00000010
00000000
00000100
00000010
00000100
00000000
00000000
00000000
00000001
00000000
00000001
00000000
00000100
00000010
00000000
00000010
,  // measure 38
00000000
00000000
00000110
00000000
00010000
00000100
00010000
00000000
,  // measure 39
00000020
00000000
00000000
00000000
00001030
00000000
00000100
00000000
00001000
00000000
00000010
00000000
00010000
00000000
00000000
00010000
,  // measure 40
00000000
00000000
00000000
00000000
00011000
00000000
00001000
00000000
00100000
00000000
01000000
00000000
10000000
00000000
00000000
10000000
,  // measure 41
00000000
00000000
00100000
00000000
01100000
00000000
00000000
00000000
01001000
00000000
00000000
00000000
00011000
00000000
00000000
00011000
,  // measure 42
00000000
00000000
00001001
00001000
00000001
00000100
00000001
00000000
,  // measure 43
00001000
00000000
00000010
00000000
00000001
00000000
00000010
00000000
00001000
00000000
00000100
00000000
00000010
00000000
00000000
00000110
,  // measure 44
00000000
00000000
00000000
00000000
00001001
00000000
00000001
00000000
00010000
00000000
00001000
00000000
00011000
00000000
00000000
00002000
,  // measure 45
00000000
00000000
10000000
00000000
10003000
01000000
00000000
00000000
10000000
00000000
10000000
00000000
00010000
01000000
00000000
00000000
,  // measure 46
00100000
01000000
00010000
10000000
01000000
00100000
00010000
00000000
,  // measure 47
10000000
00000000
00000000
00100000
00000000
00000000
01000000
00000000
00001000
00000000
00010000
00000000
00011000
00000000
00000000
00000000
,  // measure 48
00000100
00000010
00001000
00000001
00000010
00000100
00001000
00000000
,  // measure 49
00000001
00000000
00000000
00000010
00000000
00000000
00000100
00000000
00010000
00000000
00001000
00000000
00011000
00000000
00000000
00000000
,  // measure 50
01000000
00100000
01000000
00100000
01000000
00100000
01000000
00000000
00001000
00000000
00001000
00000000
00001000
00000000
00000000
00011000
,  // measure 51
00000000
00000000
00010000
00000000
00000100
00000000
00000010
00000000
00000001
00001000
00000001
00001000
00000001
00001000
00000000
00002002
,  // measure 52
00000000
00000000
00000000
00003003
00001001
00000000
00000000
00000000
;

//---------------dance-double - ----------------
#NOTES:
     dance-double:
     :
     Challenge:
     13:
     0.657,0.586,0.364,0.091,0.696: // measure 1
00000000
00000000
00000000
00000000
,  // measure 2
00000000
00000000
00000000
00000000
,  // measure 3
00000000
00000000
00000000
00000000
,  // measure 4
00000000
00000000
00000000
00000000
,  // measure 5
00000000
00000000
00000000
00000000
00000000
00000000
00000000
00000000
00000000
00000000
00000000
00000000
00000000
00000000
00000000
10010000
,  // measure 6
00000000
00000000
01000000
00000000
01100000
00000000
00000000
00000000
10000000
00000000
00010000
00000000
10000000
00100000
00000000
00100000
,  // measure 7
00000000
00000000
01000000
00000000
00010000
00000000
10000000
00000000
01000000
00000000
00100000
00000000
00010000
00100000
00000000
00110000
,  // measure 8
00000000
00000000
01000000
00000000
00001000
01000000
00001000
01000000
00001000
01000000
00001000
00010000
00001000
00010000
00001000
00010000
,  // measure 9
00000000
00000100
00001000
00000100
00000010
00000001
00000000
00000000
00001001
00000000
00001001
00000000
00000001
00001000
00000000
00000000
,  // measure 10
00001001
00000000
00000110
00000010
00010000
00010000
00000100
00010000
,  // measure 11
00000010
00000100
00000010
00000100
00000010
00000000
00001000
00000200
00000000
00000000
00001000
00000000
00001300
00000000
00000000
00000000
,  // measure 12
00000010
00000100
00000010
00000100
00000010
00000000
00010000
00002000
00000000
00000000
00010000
00000000
00013000
00000000
00000000
00000000
,  // measure 13
00001000
00100000
00001000
00100000
01000000
10000000
00000000
00000000
00100000
10000000
00100000
10000000
00010000
01000000
00000000
00000000
,  // measure 14
10010000
00000000
01100000
01000000
00001000
00001000
10000000
01000000
,  // measure 15
00100000
00001000
00100000
00001000
00100000
00000000
00001000
00020000
00000000
00000000
00000010
00000000
00030010
00000000
00000000
00000000
,  // measure 16
00010000
00001000
00010000
00001000
00010000
00000000
00000010
00000200
00000000
00000000
00000010
00000000
00000310
00000000
00000000
00000000
,  // measure 17
00001000
00000100
00001000
00000100
00000010
00000001
00000000
00000000
00001000
00000010
00001000
00000010
00000100
00000001
00000000
00000000
,  // measure 18
00010000
00001000
00010000
00000000
00001000
01000000
00001000
00000000
00010000
00001000
00010000
00000000
00001000
01000000
00001000
00000000
,  // measure 19
00100000
01000000
10000000
00000000
00010000
00100000
00010000
00000000
00100000
01000000
10000000
00000000
00100000
01000000
00100000
01000000
,  // measure 20
00010000
10000000
00000000
00000000
10010000
00000000
00000000
00000000
00010000
01000000
00000000
01000000
00010000
00000000
10000000
00000000
,  // measure 21
00100000
01000000
00000000
00000000
01100000
00000000
00000000
00000000
10000000
01000000
00100000
01000000
10000000
01000000
00100000
00000000
,  // measure 22
00001000
00010000
00001000
00000000
00010000
00000100
00010000
00000000
00001000
00010000
00001000
00000000
00010000
00000100
00010000
00000000
,  // measure 23
00000010
00000100
00000001
00000000
00000100
00000010
00000100
00000000
00000001
00000100
00000010
00000000
00001000
00000001
00001000
00000001
,  // measure 24
00000010
00000100
00000000
00000000
00000110
00000000
00000000
00000000
00000100
00000001
00000010
00000100
00001000
00000001
00000010
00000000
,  // measure 25
00000001
00001000
00000000
00000100
00001000
00000000
00000001
00002000
00000000
00000000
00000000
00000000
00000000
00000000
00003000
00000000
,  // measure 26
00001001
00000000
00000001
00000100
00000010
00000000
00001000
00000010
00000100
00000000
00000001
00001000
00000100
00000000
00010000
00001000
,  // measure 27
00010000
00000000
00001000
00100000
01000000
00000000
00100000
01000000
10000000
00000000
00100000
01000000
00001000
00000000
00010000
00001000
,  // measure 28
00010000
00000000
00000010
00000100
00000001
00000000
00000100
00000010
00001000
00000000
00000001
00001000
00000100
00000000
00010000
00001000
,  // measure 29
00010000
00000000
00011000
00000000
00000000
00000000
01100000
00000000
00000000
00000000
11000000
00000000
10000000
00010000
00100000
01000000
,  // measure 30
10000000
00000000
00010000
10000000
00100000
00000000
01000000
00010000
10000000
00000000
00100000
01000000
00100000
00000000
10000000
01000000
,  // measure 31
00100000
00000000
00001000
00010000
00001000
00000000
00010000
00000100
00001000
00000000
00000001
00000010
00000100
00001000
00000010
00000000
,  // measure 32
00000100
00000000
00000001
00001000
00000100
00000000
00010000
00000100
00001000
00000000
00000001
00000100
00000010
00000000
00010000
00001000
,  // measure 33
00010000
00000000
00011000
00000000
00000000
00000000
01100000
00000000
00000000
00000000
11000000
00000000
10000000
00010000
00100000
01000000
,  // measure 34
10000000
00000000
00000000
00000000
10010000
00000000
00010000
00000000
02000000
00000000
00000000
03010000
00000000
00000000
10000000
00000000
,  // measure 35
01000000
00000000
00100000
00000000
01000000
00000000
10000000
00000000
00010000
01000000
00000000
01000000
00100000
00000000
00000000
00000000
,  // measure 36
10000000
01000000
00010000
01000000
10000000
00001000
00010000
00010000
,  // measure 37
00000010
00000000
00000100
00000010
00000100
00000010
00000000
00000000
00001001
00000000
00001001
00000000
00001000
00000001
00000000
00001001
,  // measure 38
00000000
00000000
00000010
00000000
00000011
00000000
00000000
00000000
00000100
00001000
00000100
00000000
00000010
00000000
00000001
00020000
,  // measure 39
00000000
00000000
00000000
00000000
00030100
00010000
00000100
00000000
00001000
00000000
00000001
00000000
00000100
00000001
00000000
00000001
,  // measure 40
00000000
00000000
00001000
00000000
00001001
00000000
00000001
00000100
00000001
00000000
00000010
00000000
00000100
00000000
00010000
00002000
,  // measure 41
00000000
00000000
00010000
00000000
00013000
00001000
00000000
00000000
01001000
00000000
01001000
00000000
01000000
00001000
00000000
01001000
,  // measure 42
00000000
00000000
10000000
00000000
10010000
00000000
00010000
00000000
00100000
00010000
00100000
00000000
00010000
00000000
10000000
00000000
,  // measure 43
00010000
01000000
00010000
00000000
00100000
00000000
01000000
00000000
10000000
00010000
10000000
00000000
00001000
01000000
00000000
01000000
,  // measure 44
00000000
00000000
00001000
00000000
00011000
00000000
00010000
00000100
00010000
00000100
00010000
00000000
00000001
00000010
00000001
00000010
,  // measure 45
00000000
00000001
00000010
00000100
00001000
00000001
00000000
00000000
00001001
00000000
00001001
00000000
00001000
00000001
00000000
00000000
,  // measure 46
00001001
00000000
00000001
00000100
00000001
00000000
00010000
00000100
00010000
00000000
00001000
00010000
00001000
00000000
00100000
00000000
,  // measure 47
01000000
00000000
10000000
00010000
00000000
00010000
00100000
00000000
00010000
00000000
00010000
00000000
10010000
00000000
10000000
00100000
,  // measure 48
10000000
00000000
00001000
00100000
00001000
00000000
00010000
00001000
00010000
00000000
00000010
00001000
00000010
00000000
00000100
00000000
,  // measure 49
00000001
00000000
00001000
00000100
00000000
00000100
00000010
00000000
00000001
00000000
00000001
00000000
00001001
00000000
00000000
00000000
,  // measure 50
00001000
00000001
00000100
00000001
00010000
00001000
00010000
00000000
01001000
00000000
01001000
00000000
00001000
01000000
00000000
01001000
,  // measure 51
00000000
00001000
10000000
01000000
00100000
00010000
10000000
00100000
10000000
00010000
01000000
00001000
00010000
00001000
00000000
00022000
,  // measure 52
00000000
00000000
00000000
00033000
00011000
00000000
00000000
00000000
;
