#TITLE:2 tribe 4 K;
#SUBTITLE:;
#ARTIST:Remo-con;
#TITLETRANSLIT:;
#SUBTITLETRANSLIT:;
#ARTISTTRANSLIT:;
#CREDIT:DigiMindAxel;
#BANNER:2 tribe 4 K.png;
#BACKGROUND:2 tribe 4 K-bg.png;
#LYRICSPATH:;
#CDTITLE:beatmania IIDX.png;
#MUSIC:2 tribe 4 K.ogg;
#METERTYPE:DDR X;
#OFFSET:-7.539;
#SAMPLESTART:55.280;
#SAMPLELENGTH:12.000;
#SELECTABLE:YES;
#BPMS:0.000=140.000;
#STOPS:;
#BGCHANGES:-18.000=2 tribe 4 K.avi=1.000=1=1=0,
99999=-nosongbg-=1.000=0=0=0 // don't automatically add -songbackground-
;

//---------------dance-single - ----------------
#NOTES:
     dance-single:
     :
     Easy:
     5:
     0.217,0.345,0.221,0.049,0.000:
1000
0100
0010
0001
,
0010
0100
1000
0001
,
0100
0010
1000
0010
,
0110
0000
0000
0000
,
1001
0001
0000
1000
,
0000
0010
0000
0100
,
0000
0001
0000
0010
,
0000
0001
0000
0000
,
1000
1000
0000
0000
,
0001
0001
0000
0000
,
1000
1000
0000
0000
,
0001
0001
0000
0000
,
1001
1000
0100
0010
,
0001
0010
0100
1000
,
1001
0000
0100
0000
,
0110
0000
0100
0000
,
1001
1000
0010
0100
,
0001
0100
0010
1000
,
1001
0000
0010
0000
,
0110
0000
0100
0000
,
1001
0000
0001
0000
,
0110
0000
0000
0000
,
1001
0000
1000
0000
,
0110
0000
0000
0000
,
0010
0000
0100
0000
,
0010
0000
0100
0000
,
0001
0000
0010
0000
,
0001
0010
0100
1000
,
1001
0000
0000
0000
,
1001
0000
0000
0000
,
1001
0000
0000
0000
,
1001
0000
0000
0220
,
0000
0000
0000
0330
,
0010
0000
1000
0000
,
0001
0000
0010
0000
,
0100
0000
1000
0000
,
0100
0000
0010
0000
,
0001
1000
1000
0000
,
0001
1000
1000
0000
,
0100
0010
0100
0010
,
0100
0000
0000
0000
,
1000
0000
0100
0000
,
1000
0000
0010
0000
,
0100
0010
0100
0000
,
0001
0000
1000
0000
,
0001
1000
0001
0000
,
0010
0000
0100
0000
,
1000
0001
1000
0000
,
0010
0100
0010
0100
,
0110
0000
0000
0000
,
1001
0000
0000
0000
,
1001
1000
0001
1000
,
0010
0100
0001
1000
,
1001
0000
0000
0000
,
1001
0000
0000
0000
,
0001
0100
0010
1000
,
0100
1000
0100
0010
,
1001
0000
0000
0000
,
0110
0000
0000
0000
,
1001
0000
0000
0000
,
0110
0000
0000
0000
,
0001
0010
0100
1000
,
0001
0010
0100
1000
,
0002
2003
3002
2003
,
3001
0000
0000
0110
;

//---------------dance-single - ----------------
#NOTES:
     dance-single:
     :
     Hard:
     12:
     0.501,0.477,0.451,0.180,0.250: // measure 1
0001
1001
0001
1001
,  // measure 2
0100
0110
0100
0110
,  // measure 3
1000
1100
1000
1100
,  // measure 4
1001
0000
0000
0000
0000
0000
1001
0000
0000
0000
0000
0000
0001
0000
0100
0000
0010
0000
1000
0000
0000
1000
0000
0000
,  // measure 5
1001
0000
0110
0000
0100
0002
1000
0000
,  // measure 6
1003
0000
0010
2000
0001
0000
3001
0000
,  // measure 7
0200
0000
0301
0000
1000
0000
0001
0200
,  // measure 8
0010
0000
0310
0000
1000
0100
0010
0001
,  // measure 9
1000
0000
0000
1000
0000
0000
0000
0000
0010
0000
0100
0000
0001
0000
0000
0000
,  // measure 10
1000
0000
0000
1000
0000
0000
0000
0000
0010
0000
0100
0000
0001
0000
0000
0000
,  // measure 11
0010
0000
0000
0010
0000
0000
0000
0000
0001
0000
0010
0000
0100
0000
0000
0000
,  // measure 12
1000
0000
0000
1000
0000
0000
0000
0000
0001
0000
0010
0000
0100
0000
1000
0000
,  // measure 13
1001
0000
0001
0000
0100
0100
0100
0010
,  // measure 14
1000
0000
0100
0000
0010
0010
0010
0001
,  // measure 15
1001
0000
0010
0110
0000
0110
0000
1000
,  // measure 16
1001
0000
0100
0110
0000
0110
0000
0001
,  // measure 17
1001
0000
0001
0000
0010
0010
0010
0100
,  // measure 18
1000
0000
0001
0000
1000
1000
0010
0100
,  // measure 19
0101
0000
1000
1001
0000
1001
0000
0010
,  // measure 20
0110
0000
1000
1001
0000
1001
0000
0010
,  // measure 21
0011
0000
0000
0010
0011
0000
0000
0001
,  // measure 22
1001
0000
0000
1000
0000
0000
1001
0000
0000
0000
0100
0000
0010
0000
0100
0000
,  // measure 23
0101
0000
0000
0100
0101
0000
0000
0001
,  // measure 24
1001
0000
0000
1000
0000
0000
1001
0000
0000
0001
0000
0000
1000
0000
0100
0000
,  // measure 25
1100
0000
0000
0000
0000
0010
0100
0010
0100
0000
0000
0000
0000
0001
0000
0000
,  // measure 26
0000
1000
0000
0001
0000
0000
1000
0010
1000
0000
0010
0000
0110
0000
0000
0000
,  // measure 27
0110
0000
0000
0000
0000
0001
0000
0000
0001
0000
1000
0000
0000
0000
0001
0000
,  // measure 28
0100
0000
0000
0000
0000
0000
0000
0000
0000
0100
0000
0000
0000
0000
0000
0000
0000
0000
0100
0000
0000
0000
0000
0000
0001
0000
0000
0000
0100
0000
0000
0000
0010
0000
0000
0000
1000
0000
0000
0000
0000
0000
1000
0000
0000
0000
0000
0000
,  // measure 29
2002
0000
0000
0000
0000
0000
3003
0100
,  // measure 30
0220
0000
0000
0000
0000
0000
0330
0001
,  // measure 31
2002
0000
0000
3003
,  // measure 32
0010
0000
0000
0010
0000
0000
0010
0000
0000
0010
0000
0000
0010
0000
0220
0000
,  // measure 33
0000
0000
0000
0330
,  // measure 34
1000
0000
0200
0000
2300
0000
3001
0010
,  // measure 35
0001
0000
1000
0000
0000
1000
0000
0000
0200
0000
0000
0000
1300
0000
0010
0000
,  // measure 36
0100
0010
0000
0000
0200
0000
0301
1000
,  // measure 37
0100
0000
1000
0000
0000
1000
0000
0000
0001
0000
0000
0000
1001
0000
0000
1000
,  // measure 38
0010
0000
0100
0000
0000
0000
0001
0000
1000
0000
0000
0001
1000
0000
0100
0000
,  // measure 39
0010
0000
0001
0000
0000
0001
0000
0000
0100
0000
0000
0000
0010
0000
0100
0000
,  // measure 40
0001
0000
1000
0000
0000
0000
0001
0000
1000
0000
0100
0000
0010
0000
0001
2000
,  // measure 41
0000
0000
0000
0000
0000
0000
0000
0000
0000
0000
0000
0000
0000
0001
0000
3001
,  // measure 42
0000
0000
0110
0000
0020
0000
1030
0001
,  // measure 43
0000
0000
0100
0000
0000
0010
0000
0000
0200
0000
0000
0000
0000
0000
0301
0000
,  // measure 44
0000
1001
0000
0000
0100
1000
0001
1000
,  // measure 45
0000
0000
0100
0000
1000
0100
1000
0000
0000
0001
0000
0000
0000
1000
0001
0000
,  // measure 46
0010
0001
0010
0000
0000
0000
0001
0000
1000
0000
0100
0000
0010
0000
0100
0000
,  // measure 47
1000
0000
0010
0000
0000
0010
0000
0000
0200
0000
0000
0000
0000
0000
0301
0000
,  // measure 48
0000
1001
0000
0001
0100
0010
0100
0001
,  // measure 49
0000
0000
0010
0000
0100
0000
1000
0010
0000
0010
0000
0000
0000
1000
0000
0000
,  // measure 50
1001
0000
0000
0001
0000
0000
0010
0000
0000
0001
0000
0000
0100
0000
0010
0000
,  // measure 51
1010
0000
0000
1000
0000
0000
0001
0000
0000
1000
0000
0000
0001
0000
0100
0000
,  // measure 52
0110
0000
0200
0000
0301
1000
0100
0010
,  // measure 53
0000
0000
0001
0000
1000
0000
0010
0000
0000
0010
0000
0000
0000
1000
0000
0000
,  // measure 54
1001
0000
0000
0001
0000
0000
1001
0000
0000
0001
0000
0000
0100
0000
0001
0000
,  // measure 55
1001
0000
0000
1000
0000
0000
1001
0000
0000
1000
0000
0000
1000
0000
0001
0000
,  // measure 56
1000
0100
0010
0100
1000
0001
0100
0001
,  // measure 57
1000
0000
0000
1000
0000
0000
1000
0000
0000
1000
0000
0000
1001
0000
0000
0000
,  // measure 58
0001
0000
0000
0100
0000
0000
0010
0000
0000
0100
0000
0000
0001
0000
1000
0000
,  // measure 59
1001
0000
0000
0001
0000
0000
0010
0000
0000
0100
0000
0000
0010
0000
0001
0000
,  // measure 60
0101
0000
0000
0100
0000
0000
0010
0000
0000
0100
0000
0000
0001
0000
1000
0000
,  // measure 61
1100
0000
0000
0000
0100
0000
1000
0001
0000
0001
0000
0000
1000
0000
1000
0000
,  // measure 62
0001
0100
1000
0100
0000
0001
1000
0001
,  // measure 63
0100
1000
0100
0001
0010
0100
1000
0001
,  // measure 64
0100
0010
0100
0000
0001
0000
0010
0000
0200
0000
0000
0000
0000
0000
0000
0000
,  // measure 65
0310
0000
0000
0010
0000
0000
0010
0000
0000
0010
0000
0000
0110
0000
0000
0000
;

//---------------dance-single - ----------------
#NOTES:
     dance-single:
     :
     Challenge:
     14:
     0.638,0.719,0.606,0.156,0.520:
0100
1100
0100
1100
,
0010
0110
0010
0110
,
0001
0101
0001
0101
,
1001
0000
0000
0000
0000
0000
1001
0000
0000
0000
0000
0000
1000
0000
0100
0000
0010
0000
0001
0000
0000
0001
0000
0000
,
1000
0000
0000
0010
0200
0000
0000
0000
0301
0000
0010
0000
0001
0000
0000
1000
,
0020
0000
0000
0000
0130
0000
0001
0000
1000
0000
0000
0010
0100
0000
0100
0000
,
0001
0000
0000
1000
0200
0000
0000
0000
1300
0000
0100
0000
0010
0000
0000
0001
,
0100
0000
0020
0000
0000
0000
0130
0000
0010
0000
0000
0010
0000
0000
0010
0000
,
0110
0000
0000
0110
0000
0000
0000
0000
0100
0000
0001
0000
0010
0000
0100
0000
,
1001
0000
0000
1001
0000
0000
0000
0000
0010
0000
1000
0000
0100
0000
1000
0000
,
1001
0000
0000
1001
0000
0000
0000
0000
0001
0000
0010
0000
0100
0000
0010
0000
,
0011
0000
0000
0011
0000
0000
0000
0000
0010
0000
0001
0000
1000
0000
1001
0000
,
0001
0100
0001
0000
1000
0010
1000
0000
0001
0000
0001
0000
1000
0100
1000
0000
,
0001
0000
0010
0000
0100
0010
0100
0000
1000
0000
1000
0000
0001
0100
0001
0000
,
0101
0100
0010
1010
0000
1010
0000
0100
,
0110
0010
1000
1001
0000
1001
0000
0100
,
0110
0000
0000
0000
1000
0100
1000
0000
0001
0000
0000
0000
0100
0010
0100
0000
,
0001
0000
0000
0000
1000
0001
1000
0000
0010
1000
0010
0000
1000
0000
0001
0000
,
0101
0100
0010
0110
0000
0110
0000
0001
,
1001
1000
0001
0011
0000
0011
0000
1000
,
1001
0000
0000
0001
1001
0000
0000
0100
,
0101
0000
0000
0101
0000
0000
0101
0000
0000
0000
1010
0000
1000
0000
0001
0000
,
1001
0000
0000
0010
0011
0000
0000
0100
,
1100
0000
0000
1100
0000
0000
1100
0000
0000
1001
0000
0000
0001
1000
0001
0000
,
0011
0000
0000
0000
0000
1000
0100
1000
0100
0000
0000
0000
0000
1001
0000
0000
,
0000
0001
0000
0001
0000
0000
0010
0100
1000
0000
0100
0000
1100
0000
0000
0000
,
1001
0000
0000
0000
0000
0101
0000
0000
0101
0000
1001
0000
0000
0000
0010
0000
,
0110
0000
0000
0000
0000
0000
0000
0000
0000
0110
0000
0000
0000
0000
0000
0000
0000
0000
0110
0000
0000
0000
0000
0000
0001
0000
0000
0000
0100
0000
0000
0000
0010
0000
0000
0000
1000
0000
0000
0000
0000
0000
0010
0000
0000
0000
0000
0000
,
1010
0000
0000
1000
0000
0000
1000
0000
0000
1000
0000
0000
1000
0000
0100
0000
,
0110
0000
0000
0010
0000
0000
0010
0000
0000
0010
0000
0000
0010
0000
0001
0000
,
0101
0000
0000
0100
0000
0000
0100
0000
0000
0100
0000
0000
0100
0000
0010
0000
,
1000
0001
0000
1000
0001
0000
1000
0001
0000
1000
0001
0000
0101
0000
0220
0000
,
0000
0000
0000
0330
,
0001
0000
0000
0001
0200
0000
0000
0000
0310
0000
0000
1000
0001
0000
0010
0000
,
0100
0000
1000
0000
0000
0010
0000
0000
0110
0000
0000
0100
0010
0000
1000
0000
,
0100
0000
2000
0000
0000
0000
0000
0000
3001
0000
0000
1000
0010
0000
0100
0000
,
0010
0000
1000
0000
0000
1000
0001
0000
0010
0000
0000
0001
1000
0000
0100
0000
,
0010
0000
0010
0000
0000
0000
0001
0000
1000
0000
0000
1000
0001
0000
0100
0000
,
0010
0000
0100
0000
0000
0001
1000
0000
1000
0000
0000
0100
0010
0000
0001
0000
,
0100
0000
0001
0000
0000
1000
0010
1000
0000
0010
0000
0000
0100
0010
0100
0020
,
0000
0000
0000
0000
0000
0000
0000
0000
0000
0000
0000
0000
0000
1000
0000
1030
,
0000
0000
0000
0001
0020
0000
0000
0000
0031
0000
1000
0000
0100
0000
1000
0000
,
0100
0000
0020
0000
0000
0001
0000
0000
0130
0000
0000
0000
0010
0000
0001
0000
,
1000
0000
0100
0000
0010
0000
0000
0000
0110
0000
0000
0100
0001
0000
1000
0000
,
0100
0000
1000
0000
0000
0010
0200
0000
0000
0001
0000
0000
0301
1000
0001
0000
,
1000
0100
0020
0000
0000
0000
0001
0000
0031
0000
0000
0000
1000
0000
0100
0000
,
0010
0000
0100
0000
1000
0010
1000
0000
0020
0000
0000
0000
1030
0000
0001
0000
,
0000
0200
0000
0001
0301
0000
1000
1000
,
0001
0000
0100
0000
0000
0001
0100
0001
0000
0100
0000
0000
0010
0100
0010
0000
,
0110
0000
0000
0010
0000
0000
0010
0000
0000
0010
0000
0000
0010
0000
0100
0000
,
0101
0000
0000
0001
0000
0000
0001
0000
0000
0001
0000
0000
0001
1000
0001
1000
,
0001
0010
0100
1000
0020
0000
0000
0130
,
0000
0000
0001
0000
1000
0010
1000
0000
0000
1010
0000
0000
0000
1000
0001
0000
,
1001
0000
0000
0001
0000
0000
0001
0000
0000
0001
0000
0000
0001
0000
0010
0000
,
0110
0000
0000
0100
0000
0000
0100
0000
0000
0100
0000
0000
0100
1000
0100
1000
,
0100
1000
0001
0100
0020
0000
1000
1030
,
0001
1000
0000
0001
1000
0000
0001
1000
0000
0001
1000
0000
0100
0000
1000
0000
,
1001
0000
0000
0001
0000
0000
0101
0000
0000
0001
0000
0000
0101
0000
0100
0000
,
0110
0000
0000
0010
0000
0000
0110
0000
0000
0010
0000
0000
1010
0000
1000
0000
,
1001
0000
0000
0001
0000
0000
1001
0000
0000
0001
0000
0000
1001
0000
1000
0000
,
0010
0100
0000
0000
0010
0000
0100
0001
0000
0001
0000
0001
1000
0001
1000
0001
,
0000
1000
0100
1000
0100
1000
0100
0000
0000
1000
0001
1000
0001
1000
0001
0000
,
0000
0100
0001
0100
0001
0100
0001
0000
0000
0010
0100
0010
0100
0010
0100
0000
,
1000
0001
1000
0000
0001
1000
0001
0000
0100
0010
0100
0010
0100
0010
0100
0010
,
0100
0001
0000
0100
0001
0000
0100
0001
0000
0100
0001
0000
2002
0000
0000
0000
,
3003
0000
0000
0000
;

//---------------dance-single - ----------------
#NOTES:
     dance-single:
     :
     Medium:
     8:
     0.383,0.451,0.188,0.221,0.115:
1000
0100
0010
0001
,
0010
0100
1000
0001
,
0100
0010
1000
0010
,
0110
0000
0000
0110
0000
0000
0010
0100
0010
1000
0000
0000
,
1001
0020
0031
2000
,
3010
0100
0002
1003
,
0001
2000
3010
0100
,
0002
1000
1003
0000
,
1001
0000
0000
1000
0000
0000
0000
0000
0010
0000
0000
0000
0100
0000
0000
0000
,
0101
0000
0000
0001
0000
0000
0000
0000
0010
0000
0000
0000
0100
0000
0000
0000
,
1100
0000
0000
1000
0000
0000
0000
0000
0001
0000
0000
0000
1000
0000
0000
0000
,
1001
0000
0000
0001
0000
0000
0000
0000
0010
0000
0000
0000
0100
0000
0010
0000
,
0100
1000
0010
0100
,
0001
0000
0010
0000
0100
0000
1000
0001
,
1000
0000
0001
1000
0000
0100
0000
1000
,
0001
0000
1000
0001
0000
0010
0000
0001
,
1000
0100
1000
0001
,
2000
0000
0001
0000
3001
0000
1000
0100
,
1000
0000
0001
1000
0000
0100
0000
1000
,
0001
0000
1000
0001
0000
0010
0000
0001
,
0001
0000
0000
1000
1000
0000
0000
0001
,
0100
0000
0000
0100
0000
0000
0100
0000
0000
0000
0010
0000
0100
0000
0001
0000
,
0001
0000
0000
1000
1000
0000
0000
0001
,
0010
0000
0000
0010
0000
0000
0010
0000
0000
0010
0000
0000
0001
0000
1000
0000
,
0001
0000
0010
0100
0010
0000
0001
0000
,
0000
1000
0000
0001
0000
0000
1000
0000
0001
0000
0100
0000
0001
0000
0000
0000
,
1001
0000
0000
0000
0000
0010
0000
0000
0010
0000
0000
0000
0000
0000
1000
0000
,
0001
0000
0000
0000
0000
0000
0000
0000
0000
0001
0000
0000
0000
0000
0000
0000
0000
0000
0001
0000
0000
0000
0000
0000
0100
0000
0000
0000
0010
0000
0000
0000
0100
0000
0000
0000
0001
0000
0000
0000
0000
0000
0000
0000
0000
0000
0000
0000
,
2002
0000
0000
3003
,
2002
0000
0000
3003
,
2002
0000
0000
3003
,
0100
0000
0000
0100
0000
0000
0100
0000
0000
0100
0000
0000
0100
0000
0000
0000
,
0000
0000
0000
0000
,
1000
0001
1000
0010
,
1000
0001
0100
0010
,
1000
0010
1001
0100
,
0010
0001
0100
0010
,
0100
0001
0000
0100
0001
0000
1001
0000
,
0100
0000
0010
0000
0001
0000
0100
0010
,
0100
0000
0001
0010
0100
0000
1000
0100
,
0010
0000
0000
0000
0000
0000
0000
0000
0000
0000
0000
0000
0000
0001
0000
1000
,
0000
1001
0001
1000
,
0010
0000
0100
0000
0000
0100
0000
0000
0100
0000
0000
0000
0110
0000
0000
0000
,
0100
0000
0001
0000
0010
0000
0001
1000
,
0000
0000
0100
0000
0000
0100
0000
0000
0000
0010
0000
0000
0000
0010
0000
0000
,
0001
1000
0001
0000
0000
0000
0100
0000
0010
0000
0000
0000
1000
0000
0100
0000
,
0000
0000
1000
0001
1000
0000
0001
0100
,
0000
0010
0000
0100
0001
0000
1000
0010
,
0000
0100
0001
1000
0000
1000
0000
0001
,
2000
0000
0000
3000
,
2002
0000
0000
3003
,
0100
0010
0100
0000
0001
0000
1000
0010
,
0000
1000
0001
0010
0001
0000
1000
0000
,
2002
0000
0000
3003
,
2002
0000
0000
3003
,
1001
0000
0010
0000
0001
1000
0100
0000
,
0010
0000
0000
0010
0000
0000
0010
0000
0000
0010
0000
0000
0010
0000
0000
0000
,
0201
0010
0010
0310
,
1020
0100
0100
0130
,
1002
0010
0010
0013
,
2001
0100
0100
3100
,
1000
0100
0010
0001
0000
1000
0100
0010
,
0001
0001
0010
0100
1000
0010
0100
0001
,
2000
3002
2003
3020
,
0130
0000
0000
0100
0000
0000
0100
0000
0000
0100
0000
0000
0100
0000
0000
0000
;

//---------------dance-single - ----------------
#NOTES:
     dance-single:
     :
     Beginner:
     2:
     0.094,0.210,0.057,0.000,0.000:
0000
1000
0000
0000
,
0000
0001
0000
0000
,
0000
1000
0000
0000
,
0001
0000
1001
0000
,
0000
1000
0000
0000
,
0000
0000
0010
0000
,
0000
0000
0000
0100
,
0000
0000
0000
0000
,
0001
0000
0000
0000
,
1000
0000
0000
0000
,
0001
0000
0000
0000
,
0100
0000
0000
0000
,
0010
0010
0010
0010
,
0000
0000
0000
0000
,
0100
0100
0100
0100
,
0000
0000
0000
0000
,
0001
0001
0001
0001
,
0000
0000
0000
0000
,
1000
0000
0000
0000
,
0010
0000
0000
0000
,
1001
0000
0001
0000
,
1000
0000
0000
0000
,
0010
0000
0100
0000
,
1001
0000
0000
0000
,
0010
0000
0100
0000
,
0001
0000
0000
1000
,
0000
0000
0000
0000
,
0001
0000
0100
0000
,
0010
0000
0000
0000
,
0010
0000
0000
0000
,
0010
0000
0000
0000
,
0100
0000
0000
0001
,
0000
0000
0000
0000
,
0000
1000
0000
0000
,
0000
0000
0000
0000
,
0000
0000
0001
0000
,
0000
0000
0000
0000
,
0000
0000
0100
0000
,
0000
0000
0000
0000
,
0100
0000
0000
0000
,
1001
0000
0000
0000
,
0000
0001
0000
0000
,
0000
0000
0000
0000
,
0010
0000
0000
0000
,
0000
0000
0000
0000
,
0001
0000
0000
0000
,
0000
0000
0000
0000
,
1000
0000
0000
0000
,
0000
0000
0000
0000
,
0010
0000
0000
0000
,
0010
0000
0000
0000
,
0000
0110
0000
0000
,
0000
0100
0000
0000
,
0010
0000
0000
0000
,
0010
0000
0000
0000
,
0000
1001
0000
0000
,
1000
0000
0000
0000
,
0100
0000
0000
0000
,
0010
0000
0000
0000
,
0001
0000
0000
0000
,
0010
0000
0000
0000
,
0000
0001
0000
0000
0000
1000
0000
0000
,
0000
0001
0000
0000
0000
1000
0000
0000
,
0100
0010
0100
0010
,
0110
0000
0000
0000
;

//---------------dance-double - ----------------
#NOTES:
     dance-double:
     :
     Easy:
     5:
     0.214,0.292,0.229,0.025,0.000:
00000000
00010000
00000000
00010000
,
00000000
10000000
00000000
10000000
,
00000000
00100000
00000000
00100000
,
01000000
00000000
00011000
00011000
,
00010000
00000010
00010000
00000000
,
00001000
00010000
00001000
00000000
,
00010000
00000100
00010000
00000001
,
00000100
00000001
00000000
00000100
,
00000001
00000001
00000000
00000010
,
00000100
00000100
00000000
00010000
,
00000010
00000010
00000000
00000100
,
00000001
00000001
00000000
00000000
,
00001001
00000001
00001000
00000001
,
00000010
00000100
00010000
00001000
,
00011000
00000000
00001000
00000000
,
00001100
00000000
00001000
00000000
,
00001001
00001000
00000010
00001000
,
00000000
00000001
00000010
00000001
,
00001001
00000000
00000010
00000000
,
00000110
00000000
00000100
00000000
,
00011000
00000000
00010000
00000000
,
01010000
00000000
00000000
00000000
,
10100000
00000000
00100000
00000000
,
01100000
00000000
00000000
00000000
,
00010000
00000000
00001000
00000000
,
00010000
00000000
00001000
00000000
,
01000000
00000000
00100000
00000000
,
10000000
01000000
00100000
00001000
,
00011000
00000000
00000000
00000000
,
00011000
00000000
00000000
00000000
,
00011000
00000000
00000000
00000000
,
00011000
00000000
00000000
00000220
,
00000000
00000000
00000000
00000330
,
00001000
00000000
00000010
00000000
,
00010000
00000000
00000010
00000000
,
00000100
00000000
00000001
00000000
,
00000001
00000000
00000100
00000000
,
00000010
00010000
00010000
00000000
,
00000010
00010000
00010000
00000000
,
00000010
00000100
00000010
00000100
,
00000002
00000000
00000000
00000000
,
00001003
00000000
00000100
00000000
,
00010000
00000000
00001000
00000000
,
01000000
00100000
01000000
00000000
,
00100000
00000000
01000000
00000000
,
00001000
00100000
00001000
00000000
,
00010000
00000000
00000001
00000000
,
00000010
00000100
00000010
00000000
,
00000001
00001000
00000001
00001000
,
00001001
00000000
00000000
00000000
,
00011000
00000000
00000000
00000000
,
10010000
10000000
01000000
00000000
,
10000000
00010000
10000000
00000000
,
10010000
00000000
00000000
00000000
,
00011000
00000000
00000000
00000000
,
00001001
00000001
00000010
00000000
,
00000001
00000010
00000100
00010000
,
00011000
00000000
00000000
00000000
,
01100000
00000000
00000000
00000000
,
00011000
00000000
00000000
00000000
,
00000110
00000000
00000000
00000000
,
00010000
00000100
00000010
00000001
,
00010000
00000100
00000010
00000001
,
00000100
00000010
00010000
00001000
,
00011000
00000000
00000000
01000000
;

//---------------dance-double - ----------------
#NOTES:
     dance-double:
     :
     Medium:
     8:
     0.373,0.451,0.229,0.246,0.078:
10000000
01000000
10000000
01000000
,
00100000
00001000
00100000
00001000
,
00010000
00001000
00010000
00001000
,
00011000
00011000
00010100
00010100
,
00000110
00000200
00000301
00002000
,
00003100
00001000
00000002
00001003
,
00000001
00020000
00031000
00010000
,
00002000
01000000
01003000
00000000
,
01100000
00000000
00000000
00100000
00000000
00000000
00000000
00000000
10000000
00000000
00000000
00000000
00010000
00000000
00000000
00000000
,
10010000
00000000
00000000
00010000
00000000
00000000
00000000
00000000
01000000
00000000
00000000
00000000
00001000
00000000
00000000
00000000
,
01001000
00000000
00000000
01000000
00000000
00000000
00000000
00000000
00001000
00000000
00000000
00000000
00010000
00000000
00000000
00000000
,
00010100
00000000
00000000
00000100
00000000
00000000
00000000
00000000
00001000
00000000
00000000
00000000
00000001
00000000
00001000
00000000
,
00001000
00000000
00000100
00000000
00000010
00000001
00000010
00000000
,
00000001
00000000
00000100
00000000
00000010
00000000
00010000
00000010
,
00010000
00000000
00000010
00010000
00000000
00001000
00000000
00010000
,
00000010
00000000
00010000
00000010
00000000
00000100
00000000
00000001
,
00001000
00001000
00001000
00001000
,
00000001
00000000
00000001
00000000
00000001
00000000
00001000
00000100
,
00001000
00000000
00000001
00001000
00000000
00000100
00000000
00001000
,
00000001
00000000
00010000
00000100
00000000
00001000
00000000
00000100
,
00010000
00000000
00000000
00001000
10000000
00000000
00000000
01000000
,
00100000
00000000
00000000
00100000
00000000
00000000
00100000
00000000
00000000
00000000
00010000
00000000
10000000
00000000
00010000
00000000
,
00100000
00000000
00000000
00001000
00100000
00000000
00000000
00001000
,
00010000
00000000
00000000
00010000
00000000
00000000
00010000
00000000
00000000
00010000
00000000
00000000
00000010
00000000
00000100
00000000
,
00000010
00000000
00001000
00000100
00001000
00000000
00000001
00000000
,
00000000
00010000
00000000
00001000
00000000
00000000
01000000
00000000
00001000
00000000
10000000
00000000
00001000
00000000
00000000
00000000
,
10001000
00000000
00000000
00000000
00000000
01000000
00000000
00000000
01000000
00000000
00000000
00000000
00000000
00000000
00010000
00000000
,
10000000
00000000
00000000
10000000
00000000
00000000
10000000
00000000
00100000
00000000
00000000
00000000
01000000
00000000
00000000
00000000
,
02002000
00000000
00000000
03003000
,
02002000
00000000
00000000
03003000
,
02002000
00000000
00000000
03003000
,
00002000
00000000
00000000
00013000
,
00000000
00000000
00000000
00000000
,
00000001
00001000
00001001
00000000
,
00000001
00010000
00010100
00000000
,
00010000
00000100
00001100
00000000
,
00001000
00000001
00000010
00000100
,
00010000
00000010
00000000
00010000
00000010
00000000
00000110
00000000
,
00000100
00000000
00000010
00000000
00010000
00000000
00001000
00010000
,
00001000
00000000
10000000
01000000
00100000
00000000
00001000
01000000
,
00100000
00000000
00000000
00000000
00000000
00000000
00000000
00000000
00000000
00000000
00000000
00000000
00000000
10000000
00000000
10000000
,
00000000
01000000
00100000
01000000
,
00100000
00000000
00001000
00000000
00000000
00001000
00000000
00000000
00001000
00000000
00000000
00000000
00011000
00000000
00000000
00000000
,
00001000
00000000
00010000
00000000
00001000
00000000
00010000
00000100
,
00000000
00000000
00001000
00000000
00000000
00001000
00000000
00000000
00000000
00000002
00000000
00000000
00000000
00000000
00000000
00000000
,
00001003
00000001
00001000
00000000
00000000
00000000
00000010
00000000
00000100
00000000
00000000
00000000
00000001
00000000
00010000
00000000
,
00000000
00000000
00001000
01000000
00001000
00000000
01000000
00010000
,
00000000
00100000
00000000
00010000
01000000
00000000
00001000
10000000
,
00000000
00000000
01000000
00000000
00100000
00000000
00010000
00000000
00000000
00010000
00000000
00000000
00000000
00100000
00000000
00000000
,
00202000
00000000
00000000
00303000
,
00202000
00000000
00000000
00303000
,
00001000
00010000
00001000
00000000
00010000
00000000
00000010
00000100
,
00000000
00000010
00001000
00000001
00001000
00000000
00000100
00000000
,
00020200
00000000
00000000
00030300
,
00020200
00000000
00000000
00030300
,
00011000
00000000
00001000
00000000
01000000
00100000
10000000
00000000
,
00020000
00000000
00000000
10030000
,
12000000
10000000
10000000
13000000
,
01002000
01000000
01000000
01003000
,
00020100
00000100
00000100
00030100
,
00000210
00000010
00000010
00000310
,
00001000
00000100
00000010
00000001
00000000
00010000
00000100
00000010
,
00000001
00000001
00000010
00000100
00010000
00001000
01000000
00100000
,
20000000
30200000
02300000
03002000
,
00013000
00000000
00000000
00011000
;

//---------------dance-double - ----------------
#NOTES:
     dance-double:
     :
     Hard:
     12:
     0.501,0.477,0.459,0.172,0.262:
01000000
11000000
01000000
11000000
,
00001000
01001000
00001000
01001000
,
00010000
00011000
00010000
00011000
,
00010100
00000000
00000000
00000000
00000000
00000000
00010100
00000000
00000000
00000000
00000000
00000000
00000000
00000000
00000100
00000000
00000010
00000000
00000001
00000000
00000000
00000001
00000000
00000000
,
00001001
00000000
00001100
00000000
00000010
00000001
00000100
00000000
,
00000100
00000000
00000001
00000010
00000100
00000000
00000100
00000000
,
00020000
00000000
00030100
00000000
00001000
00000000
00000100
00010000
,
00001000
00000000
00000000
00000000
00001000
00000000
00000000
00000000
10000000
00000000
00000000
01000000
00000000
00000000
00100000
00000000
,
00001000
00000000
00000000
00001000
00000000
00000000
00000000
00000000
00010000
00000000
00001000
00000000
00010000
00000000
00001000
00000000
,
01000000
00000000
00000000
01000000
00000000
00000000
00000000
00000000
00100000
00000000
01000000
00000000
00100000
00000000
01000000
00000000
,
00001000
00000000
00000000
00001000
00000000
00000000
00000000
00000000
00010000
00000000
00000100
00000000
00010000
00000000
00000100
00000000
,
00001000
00000000
00000000
00001000
00000000
00000000
00000000
00000000
00000010
00000000
00000100
00000000
00000010
00000000
00000100
00000000
,
00000101
00000000
00000110
00000000
00001000
00001000
00001000
00000001
,
00000010
00000000
00010100
00000000
00010000
00010000
00010000
00001000
,
01000000
00000000
00100000
01100000
00000000
01100000
00000000
10000000
,
01000000
00000000
10000000
10010000
00000000
10010000
00000000
00100000
,
01000000
00000000
01010000
00000000
00010000
00010000
00010000
10000000
,
01000000
00000000
00101000
00000000
00001000
00001000
00001000
00010000
,
00000100
00000000
00001000
00001100
00000000
00001100
00000000
00000010
,
00000100
00000000
00000001
00001001
00000000
00001001
00000000
00000100
,
00000101
00000000
00000000
00000100
00000101
00000000
00000000
00000100
,
00000101
00000000
00000000
00000001
00000000
00000000
00001001
00000000
00000000
00000000
00001000
00000000
00000100
00000000
00010000
00000000
,
00011000
00000000
00000000
00010000
00011000
00000000
00000000
00010000
,
00011000
00000000
00000000
00001000
00000000
00000000
01001000
00000000
00000000
01000000
00000000
00000000
00100000
00000000
01000000
00000000
,
01010000
00000000
00000000
00000000
00000000
00100000
01000000
00100000
01000000
00000000
00000000
00000000
00000000
00100000
00000000
00000000
,
00000000
01000000
00000000
00100000
00000000
00000000
10000000
00010000
10000000
00000000
01000000
00000000
11000000
00000000
00000000
00000000
,
11000000
00000000
00000000
00000000
00000000
00100000
00000000
00000000
00100000
00000000
01000000
00000000
00000000
00000000
00010000
00000000
,
10000000
00000000
00000000
00000000
00000000
00000000
00000000
00000000
00000000
10000000
00000000
00000000
00000000
00000000
00000000
00000000
00000000
00000000
10000000
00000000
00000000
00000000
00000000
00000000
01000000
00000000
00000000
00000000
00100000
00000000
00000000
00000000
00001000
00000000
00000000
00000000
00010000
00000000
00000000
00000000
00000000
00000000
00010000
00000000
00000000
00000000
00000000
00000000
,
00020020
00000000
00000000
00000000
00000000
00000000
00030030
00001000
,
00002200
00000000
00000000
00000000
00000000
00000000
00003300
00010000
,
00020020
00000000
00000000
00030030
,
00001000
00000000
00000000
00001000
00000000
00000000
00001000
00000000
00000000
00001000
00000000
00000000
00001100
00000000
00002002
00000000
,
00000000
00000000
00000000
00003003
,
00000001
00000000
00000200
00000000
00000320
00000000
00010030
00001000
,
00010000
00000000
00000010
00000000
00000000
00000010
00000000
00000000
00000200
00000000
00000000
00000000
00000310
00000000
00010000
00000000
,
00001000
00010000
00000000
00000000
00002000
00000000
00013000
00001000
,
01000000
00000000
00100000
00000000
00000000
00100000
00000000
00000000
00100000
00000000
00000000
00000000
01100000
00000000
00000000
01000000
,
00100000
00000000
10000000
00000000
00000000
00000000
00100000
00000000
10000000
00000000
00000000
00010000
10000000
00000000
01000000
00000000
,
00100000
00000000
00001000
00000000
00000000
00001000
00000000
00000000
00001000
00000000
00000000
00000000
00010000
00000000
00000010
00000000
,
00001000
00000000
00000001
00000000
00000000
00000000
00001000
00000000
00000001
00000000
00000010
00000000
00000100
00000000
00001000
00000002
,
00000000
00000000
00000000
00000000
00000000
00000000
00000000
00000000
00000000
00000000
00000000
00000000
00000000
00001000
00000000
00001003
,
00000000
00000000
00000110
00000000
00000200
00000000
00000301
00010000
,
00000000
00000000
00001000
00000000
00000000
00001000
00000000
00000000
00002000
00000000
00000000
00000000
00000000
00000000
00013000
00000000
,
00000000
01001000
00000000
00000000
00002000
00000000
01003000
00100000
,
00000000
00000000
01000000
00000000
00010000
01000000
00010000
00000000
00000000
10000000
00000000
00000000
00000000
00010000
10000000
00000000
,
00001000
01000000
00001000
00000000
00000000
00000000
01000000
00000000
00200000
00000000
00000000
00000000
01300000
00000000
00010000
00000000
,
00100000
00000000
01000000
00000000
00000000
01000000
00000000
00000000
02000000
00000000
00000000
00000000
00000000
00000000
03100000
00000000
,
00000000
00011000
00000000
00010000
00000100
00001000
00000100
00010000
,
00000000
00000000
00001000
00000000
00010000
00000010
00010000
00000010
00000000
00001000
00000000
00000000
00000000
00000010
00000000
00000000
,
00000100
00000000
00000000
00000100
00000000
00000000
00000100
00000000
00000000
00000100
00000000
00000000
00000100
00000000
00000001
00000000
,
00001001
00000000
00000000
00001000
00000000
00000000
00001000
00000000
00000000
00001000
00000000
00000000
00001000
00000000
00000100
00000000
,
00010100
00000000
00020000
00000000
00031000
10000000
01000000
00100000
,
00000000
00000000
00010000
00000000
10000000
00000000
00100000
00000000
00000000
00100000
00000000
00000000
00000000
10000000
00000000
00000000
,
10010000
00000000
00000000
00010000
00000000
00000000
00010000
00000000
00000000
00010000
00000000
00000000
00010000
00000000
01000000
00000000
,
01001000
00000000
00000000
00001000
00000000
00000000
00001000
00000000
00000000
00001000
00000000
00000000
00001000
00000000
00010000
00000000
,
00000000
00000010
00000100
00000010
00001000
00000100
00001000
00000001
,
00000010
00000000
00000000
00000010
00000000
00000000
00000010
00000000
00000000
00000010
00000000
00000000
00000011
00000000
00000000
00000000
,
00001001
00000000
00000000
00001000
00000000
00000000
00001100
00000000
00000000
00001000
00000000
00000000
00001000
00000000
00000100
00000000
,
00010100
00000000
00000000
00010000
00000000
00000000
00011000
00000000
00000000
00010000
00000000
00000000
00010000
00000000
00001000
00000000
,
01001000
00000000
00000000
01000000
00000000
00000000
01100000
00000000
00000000
01000000
00000000
00000000
01000000
00000000
00010000
00000000
,
10010000
00000000
00000000
00000000
00010000
00000000
10000000
01000000
00000000
01000000
00000000
00000000
10000000
00000000
10000000
00000000
,
00010000
00100000
10000000
00100000
00000000
00001000
01000000
10000000
,
01000000
00001000
10000000
01000000
00100000
00001000
00010000
00000010
,
00000100
00000010
00000100
00000000
00000001
00001000
00000001
00000000
00020000
00000000
00000000
00000000
00000000
00000000
00000000
00000000
,
00031000
00000000
00000000
00001000
00000000
00000000
00001000
00000000
00000000
00001000
00000000
00000000
01001000
00000000
00000000
00000000
;

//---------------dance-double - ----------------
#NOTES:
     dance-double:
     :
     Challenge:
     14:
     0.634,0.719,0.582,0.156,0.520:
10000000
10100000
10000000
10100000
,
01000000
01001000
01000000
01001000
,
00010000
00010100
00010000
00010100
,
00010001
00000000
00000000
00000000
00000000
00000000
00010001
00000000
00000000
00000000
00000000
00000000
00000001
00000000
00000100
00000000
00000010
00000000
00001000
00000000
00000000
00001000
00000000
00000000
,
00000001
00000000
00000000
00000010
00000002
00000000
00000000
00000000
00010003
00000000
00000100
00000000
00010000
00000000
00000000
00000100
,
00000020
00000000
00000000
00000000
00000130
00000000
00001000
00000000
00000100
00000000
00000000
00010000
00001000
00000000
00001000
00000000
,
01000000
00000000
00000000
00100000
02000000
00000000
00000000
00000000
03100000
00000000
10000000
00000000
00100000
00000000
00000000
10000000
,
00010000
00000000
00200000
00000000
00000000
00000000
00310000
00000000
01000000
00000000
00000000
01000000
00000000
00000000
01000000
00000000
,
10010000
00000000
00000000
10010000
00000000
00000000
00000000
00000000
10000000
00000000
00100000
00000000
01000000
00000000
00001000
00000000
,
00011000
00000000
00000000
00011000
00000000
00000000
00000000
00000000
00010000
00000000
00000100
00000000
00000010
00000000
00000001
00000000
,
00001001
00000000
00000000
00001001
00000000
00000000
00000000
00000000
00000001
00000000
00000100
00000000
00000010
00000000
00010000
00000000
,
00011000
00000000
00000000
00011000
00000000
00000000
00000000
00000000
00001000
00000000
01000000
00000000
00100000
00000000
00100000
00000000
,
10000000
00100000
10000000
00000000
00010000
00100000
00010000
00000000
01000000
00000000
01000000
00000000
00001000
00010000
00001000
00000000
,
00010000
00000000
00000010
00000000
00000100
00000010
00000100
00000000
00000001
00000000
00000001
00000000
00001000
00000100
00001000
00000000
,
00001100
00000100
00010000
00011000
00000000
00011000
00000000
00001000
,
01001000
01000000
00100000
01100000
00000000
01100000
00000000
10000000
,
10010000
00000000
00000000
00000000
00010000
01000000
00010000
00000000
10000000
00000000
00000000
00000000
01000000
00100000
01000000
00000000
,
10000000
00000000
00000000
00000000
00001000
01000000
00001000
00000000
00010000
00001000
00010000
00000000
00000010
00000000
00000100
00000000
,
00000101
00000001
00000010
00000110
00000000
00000110
00000000
00001000
,
00001100
00000100
00010000
00011000
00000000
00011000
00000000
01000000
,
01001000
00000000
00000000
10000000
11000000
00000000
00000000
00100000
,
01100000
00000000
00000000
01100000
00000000
00000000
01100000
00000000
00000000
00000000
01001000
00000000
00001000
00000000
00010000
00000000
,
00011000
00000000
00000000
00000010
00000110
00000000
00000000
00001000
,
00001001
00000000
00000000
00001001
00000000
00000000
00001001
00000000
00000000
00001001
00000000
00000000
00000001
00001000
00000001
00000000
,
00001001
00000000
00000000
00000000
00000000
00000010
00010000
00000010
00010000
00000000
00000000
00000000
00000000
00001000
00000000
00000000
,
00000000
00010000
00000000
00001000
00000000
00000000
00010000
00001000
00100000
00000000
01000000
00000000
01100000
00000000
00000000
00000000
,
01100000
00000000
00000000
00000000
00000000
10010000
00000000
00000000
10010000
00000000
00010000
00000000
00000000
00000000
01000000
00000000
,
01001000
00000000
00000000
00000000
00000000
00000000
00000000
00000000
00000000
01001000
00000000
00000000
00000000
00000000
00000000
00000000
00000000
00000000
01001000
00000000
00000000
00000000
00000000
00000000
00001000
00000000
00000000
00000000
00010000
00000000
00000000
00000000
00000100
00000000
00000000
00000000
00000010
00000000
00000000
00000000
00000000
00000000
00000010
00000000
00000000
00000000
00000000
00000000
,
00000110
00000000
00000000
00000100
00000000
00000000
00000100
00000000
00000000
00000100
00000000
00000000
00000100
00000000
00000001
00000000
,
00001001
00000000
00000000
00001000
00000000
00000000
00001000
00000000
00000000
00001000
00000000
00000000
00001000
00000000
00000100
00000000
,
00010100
00000000
00000000
00010000
00000000
00000000
00010000
00000000
00000000
00010000
00000000
00000000
00010000
00000000
00100000
00000000
,
01000000
10000000
00000000
01000000
10000000
00000000
01000000
10000000
00000000
01000000
10000000
00000000
11000000
00000000
20020000
00000000
,
00000000
00000000
00000000
30030000
,
00010000
00000000
00000000
01000000
00200000
00000000
00000000
00000000
01300000
00000000
00000000
00010000
10000000
00000000
01000000
00000000
,
00100000
00000000
00001000
00000000
00000000
00010000
00000000
00000000
00011000
00000000
00000000
00001000
00010000
00000000
00000100
00000000
,
00000010
00000000
00000002
00000000
00000000
00000000
00000000
00000000
00001003
00000000
00000000
00000010
00000100
00000000
00000001
00000000
,
00000001
00000000
00001000
00000000
00000000
00000100
00010000
00000000
00001000
00000000
00000000
00010000
00001000
00000000
00100000
00000000
,
01000000
00000000
01000000
00000000
00000000
00000000
10000000
00000000
00010000
00000000
00000000
01000000
00010000
00000000
00100000
00000000
,
01000000
00000000
00100000
00000000
00000000
00001000
01000000
00000000
01000000
00000000
00000000
00001000
00010000
00000000
00000100
00000000
,
00000010
00000000
00000001
00000000
00000000
00001000
00000010
00001000
00000000
00000010
00000000
00000000
00000100
00000010
00000100
00000020
,
00000000
00000000
00000000
00000000
00000000
00000000
00000000
00000000
00000000
00000000
00000000
00000000
00000000
00000100
00000000
00000130
,
00000000
00000000
00000000
00000001
00000200
00000000
00000000
00000000
00000301
00000000
00010000
00000000
00000100
00000000
00010000
00000000
,
00000100
00000000
00002000
00000000
00000000
00000001
00000000
00000000
00003001
00000000
00000000
00000000
00010000
00000000
00001000
00000000
,
01000000
00000000
00100000
00000000
10000000
00000000
00000000
00000000
10010000
00000000
00000000
00010000
10000000
00000000
01000000
00000000
,
00100000
00000000
01000000
00000000
00000000
10000000
00020000
00000000
00000000
00100000
00000000
00000000
00130000
00010000
00100000
00000000
,
00001000
00010000
00002000
00000000
00000000
00000000
00010000
00000000
00013000
00000000
00000000
00000000
00000010
00000000
00000100
00000000
,
00000001
00000000
00000100
00000000
00000010
00010000
00000010
00000000
00020000
00000000
00000000
00000000
00031000
00000000
00010000
00000000
,
00000000
00000020
00000000
00000100
00000130
00000000
00000001
00000001
,
00000010
00000000
00000100
00000000
00000000
00010000
00000010
00010000
00000000
00000010
00000000
00000000
00010000
00001000
00010000
00000000
,
00011000
00000000
00000000
00001000
00000000
00000000
00001000
00000000
00000000
00001000
00000000
00000000
00001000
00000000
00100000
00000000
,
01100000
00000000
00000000
01000000
00000000
00000000
01000000
00000000
00000000
01000000
00000000
00000000
00100000
10000000
00100000
10000000
,
00100000
01000000
00010000
00100000
00002000
00000000
00000000
00013000
,
00000000
00000000
00001000
00000000
00100000
01000000
00100000
00000000
00000000
01100000
00000000
00000000
00000000
00010000
10000000
00000000
,
10010000
00000000
00000000
00010000
00000000
00000000
00010000
00000000
00000000
00010000
00000000
00000000
00010000
00000000
01000000
00000000
,
01100000
00000000
00000000
00100000
00000000
00000000
00100000
00000000
00000000
00100000
00000000
00000000
01000000
00001000
01000000
00001000
,
01000000
00001000
00010000
00000010
00000200
00000000
00000010
00000310
,
00001000
00000001
00000000
00001000
00000001
00000000
00001000
00000001
00000000
00001000
00000001
00000000
00010000
00000000
00000100
00000000
,
00010100
00000000
00000000
00000100
00000000
00000000
00010100
00000000
00000000
00000100
00000000
00000000
00010100
00000000
00010000
00000000
,
00011000
00000000
00000000
00001000
00000000
00000000
01001000
00000000
00000000
00001000
00000000
00000000
01001000
00000000
01000000
00000000
,
01100000
00000000
00000000
00100000
00000000
00000000
01100000
00000000
00000000
00100000
00000000
00000000
01100000
00000000
01000000
00000000
,
00010000
01000000
00000000
00000000
00010000
00000000
10000000
01000000
00000000
01000000
00000000
01000000
10000000
01000000
10000000
01000000
,
00000000
00100000
00001000
00100000
00001000
00100000
00001000
00000000
00000000
00010000
00000010
00010000
00000010
00010000
00000010
00000000
,
00000000
00001000
00000010
00001000
00000010
00001000
00000010
00000000
00000000
00010000
00000100
00010000
00000100
00010000
00000100
00000000
,
00010000
00001000
00010000
00000000
00001000
01000000
00001000
00000000
00100000
01000000
00100000
01000000
00100000
01000000
00100000
01000000
,
00100000
10000000
00000000
00100000
10000000
00000000
00100000
10000000
00000000
00100000
10000000
00000000
20200000
00000000
00000000
00000000
,
30300000
00000000
00000000
00000000
;
