#TITLE:unisonote;
#SUBTITLE:;
#ARTIST:onoken;
#TITLETRANSLIT:;
#SUBTITLETRANSLIT:;
#ARTISTTRANSLIT:;
#CREDIT:DigiMindAxel;
#BANNER:unisonote.png;
#BACKGROUND:unisonote-bg.png;
#LYRICSPATH:;
#CDTITLE:jubeat.png;
#MUSIC:unisonote.mp3;
#METERTYPE:DDR X;
#OFFSET:-6.796;
#SAMPLESTART:35.594;
#SAMPLELENGTH:12.000;
#SELECTABLE:YES;
#BPMS:0.000=168.000,186.000=84.000,210.000=168.000;
#STOPS:;
#BGCHANGES:;

//---------------dance-single - ----------------
#NOTES:
     dance-single:
     :
     Easy:
     5:
     0.160,0.324,0.120,0.064,0.000:
0001
0000
0000
0000
,
0010
0000
0000
0000
,
0001
0000
0000
0000
,
0010
0000
0000
0000
,
0001
0000
0000
0000
,
1000
0000
0000
0000
,
0100
0000
0000
0000
,
0010
0000
0000
0000
,
0001
0000
0000
0000
,
1000
0000
0000
0000
,
0100
0000
0000
0000
,
1000
0000
0000
0000
,
0220
0000
0000
0000
,
0330
0000
0000
0000
,
2002
0000
0000
0000
,
3003
0000
0000
0000
,
0110
0000
0100
0000
,
0000
0000
0000
0000
,
1001
0000
0001
0000
,
0000
0000
0000
0000
,
2000
0000
3001
0000
,
1000
0000
0000
0000
,
0001
0000
1000
0000
,
0001
0000
0000
0000
,
1000
0000
0001
0000
,
1000
0000
0000
0000
,
0100
0000
0010
0000
,
0010
0000
0100
0000
,
0100
0000
1001
0000
,
0001
0000
0010
0000
,
0000
0000
0100
0000
,
1000
0000
0010
0000
,
0000
0000
1000
0000
,
0001
0000
0010
0000
,
0000
0000
0001
0000
,
1000
0000
0100
0000
,
0000
0000
1001
0000
,
0000
0000
0000
1001
0000
0000
0000
0000
,
0000
0000
1001
0000
,
0001
0000
0000
0000
0000
1001
0000
0000
,
0000
0000
0000
0000
1000
0000
0000
1000
,
0000
0000
0000
1001
0000
0000
0000
0000
,
0000
0000
0001
0000
,
0100
0000
0100
0000
,
0001
0000
0001
0000
,
1000
0000
1000
0000
,
0010
0000
0110
0000
,
0000
0000
0000
0000
,
0000
0000
0010
0010
,
0010
0010
0100
0100
,
0100
0100
0001
1000
,
0001
0000
1000
0000
0001
1000
0001
1000
,
0002
0000
1003
0000
,
0100
0000
1000
0000
,
0010
0000
0100
0000
,
0001
0000
0010
0000
,
0001
0000
1000
0001
,
1000
0000
0001
1000
,
0001
0000
0010
0000
,
0001
0000
0100
0000
,
0010
0000
0000
1001
,
0000
0001
0000
0000
1000
0000
0000
0000
,
0010
0000
0000
0110
,
0000
0100
0000
0000
0010
0000
0000
0000
,
1000
0000
0001
0000
,
0010
0000
0001
0000
,
0010
0000
0001
0000
,
1000
0000
0100
0000
,
0010
0000
1001
0000
,
1000
0000
0001
0000
,
0100
0000
0000
0220
,
0000
0000
0000
0000
,
0000
0000
0000
0000
,
0000
0000
0000
0330
;

//---------------dance-single - ----------------
#NOTES:
     dance-single:
     :
     Medium:
     8:
     0.331,0.500,0.255,0.136,0.000:
1000
0000
0100
0000
,
1000
0000
0100
0000
,
0010
0000
0001
0000
,
0010
0000
0001
0000
,
0100
0000
0010
0000
,
0100
0000
0010
0000
,
0100
0000
0001
0000
,
0100
0000
0001
0000
,
1000
0000
0001
0000
,
1000
0000
0001
0000
,
0010
0000
0100
0000
,
0010
0000
0100
0000
,
1000
0001
0000
2002
0000
0000
3003
0000
,
0000
0000
0000
0000
0000
0000
0000
0001
,
1000
0001
0000
2002
0000
0000
0000
0000
,
3003
0000
0000
0000
,
0110
0100
0010
0100
,
0000
0000
0000
0000
0001
1000
0001
0000
,
1000
0100
1000
0000
,
0010
0000
0100
0000
0001
1000
0001
0000
,
2000
0000
3100
0000
,
1000
0000
0000
1001
0000
0000
0000
0000
,
0002
0000
1003
0000
,
0010
0000
0000
0110
0000
0000
0000
0000
,
0200
0000
0301
0000
,
1000
0000
0000
1001
0000
0000
0000
0000
,
0010
0100
0010
1000
,
0100
0000
2000
0000
0000
0001
0000
0001
,
0000
3001
0000
0000
0110
0000
0010
0000
,
0100
0001
1000
0100
,
0010
0001
0100
0010
,
0100
0001
1000
0100
,
1000
0010
1000
0001
,
0010
0100
1000
0001
,
0100
0001
1000
0100
,
0010
0000
0001
0000
1000
0000
0000
1100
,
0000
1100
2002
0000
,
3003
0000
0000
0110
0000
0010
0000
0010
,
0000
0000
0000
0000
1000
0100
0000
1000
,
0100
0000
1000
0001
0000
1001
0000
1001
,
0000
0000
0000
0000
0200
0000
0000
0310
,
0000
0000
0000
1001
0000
1000
0000
1000
,
0000
0000
0001
0010
,
0001
0100
0001
0010
,
0100
1000
0001
1000
,
0001
1000
0100
0010
,
0001
1000
0002
0000
,
0000
0003
2000
0000
,
0000
0000
0000
3000
0001
0000
1001
0000
,
0001
1001
1000
0110
,
1000
0000
0110
0000
0001
0100
0010
0100
,
0001
1000
0001
1000
0100
0010
0100
1000
,
2002
0000
0000
3003
1001
0000
1000
0000
,
0010
0000
0110
0000
0100
1000
0100
0000
,
0010
0000
0011
0000
0001
1000
0100
0000
,
1100
0000
1000
0001
1000
0000
1001
0000
,
0100
0001
0100
0000
0001
0000
0100
0000
,
0010
0100
0010
0000
0100
0000
0001
0000
,
1000
0001
1000
0000
0001
0000
0010
0000
,
0100
0010
0100
0000
0010
0000
0001
0000
,
1000
0001
1000
0000
0000
0000
1001
0000
,
0000
1001
0000
0000
0110
0000
0010
0000
,
0100
0010
0000
0110
,
0000
0110
0000
0000
1001
0000
1000
0000
,
0001
0000
1000
0000
0001
0010
0001
0000
,
1000
0100
1000
0000
0001
0010
0001
0000
,
1000
0001
1000
0000
1001
0000
0001
0000
,
0100
0000
0010
0100
0001
0000
0010
0000
,
0100
0000
1000
0001
0100
0000
0001
0000
,
1000
0000
0010
0000
0100
0010
0100
0010
,
0100
0010
0100
0010
0000
0000
0220
0000
,
0000
0000
0000
0000
,
0000
0000
0000
0000
,
0000
0000
0000
0330
;

//---------------dance-single - ----------------
#NOTES:
     dance-single:
     :
     Hard:
     11:
     0.486,0.647,0.455,0.160,0.072: // measure 1
1000
0100
1000
0000
0010
0000
0000
0100
,  // measure 2
0000
0000
0001
0000
0000
0001
0000
0000
,  // measure 3
0010
0001
0010
0000
0001
0000
0000
0100
,  // measure 4
0000
0000
0010
0000
0000
0010
0000
0000
,  // measure 5
1000
0100
1000
0000
0001
0000
0000
0100
,  // measure 6
0000
0000
0010
0000
0000
0010
0000
0000
,  // measure 7
1000
0001
1000
0000
0100
0000
0000
1000
,  // measure 8
0000
0000
0010
0000
0000
0010
0000
0000
,  // measure 9
1000
0001
1000
0000
0001
0000
0000
0010
,  // measure 10
0000
0000
0100
0000
0000
0100
0000
0000
,  // measure 11
0010
0001
0010
0000
0001
0000
0000
0100
,  // measure 12
0000
0000
0010
0000
0000
0010
0000
0000
,  // measure 13
1001
1000
0000
2200
0000
0000
3300
0000
,  // measure 14
0000
0000
0000
0000
0000
0000
0000
0000
0000
0000
0000
0000
0000
0000
0010
0100
,  // measure 15
0010
0100
0000
0102
0000
0000
0000
0000
,  // measure 16
2003
0000
3002
0000
,  // measure 17
1003
0100
1000
0001
0010
0100
0000
0000
,  // measure 18
0000
0000
0000
1000
0000
0000
0001
0000
,  // measure 19
1000
0010
0100
0001
1000
0100
0000
1000
,  // measure 20
0000
0000
0000
1000
0000
0000
0001
1000
,  // measure 21
0200
0000
1300
0000
,  // measure 22
0110
0000
0000
0100
0000
0000
0001
0000
0000
0000
1000
0000
0100
0000
0010
0000
,  // measure 23
0100
1000
0001
0000
1001
0000
0000
0000
,  // measure 24
1010
0000
0000
0010
0000
0000
1000
0000
0000
0000
0001
0000
1000
0000
0100
0000
,  // measure 25
1000
0001
0100
0000
0110
0000
0000
0000
,  // measure 26
0010
0100
0010
0000
1000
0000
0100
0000
0000
0000
1000
0000
0001
0100
0001
0000
,  // measure 27
1000
0100
0010
0001
0100
0000
0010
0000
,  // measure 28
0010
0100
0001
0020
0000
0032
0000
2003
,  // measure 29
0000
3002
0000
1003
0001
0000
0011
0000
,  // measure 30
0010
0100
1000
0000
0010
0000
0110
0000
,  // measure 31
0100
0001
0010
0000
0001
0000
1001
0000
,  // measure 32
1000
0100
0010
0000
0101
0000
0100
0001
,  // measure 33
0000
0001
1000
0100
0010
0000
0101
0000
,  // measure 34
0110
0101
0110
1000
,  // measure 35
0010
1000
0100
0010
0001
0000
1001
0000
,  // measure 36
1100
0000
1001
0000
1100
0000
0000
0101
,  // measure 37
0000
0000
0000
0000
0110
0000
0000
0000
1001
0000
0000
0000
0001
1000
0010
0000
,  // measure 38
1000
0000
0000
1010
0000
0110
0000
0201
,  // measure 39
0000
0001
0301
0000
1000
0100
0001
0100
,  // measure 40
1000
0001
0010
0100
0000
1100
0000
1002
,  // measure 41
0000
1000
1003
0000
1001
0000
1000
0002
,  // measure 42
0000
1003
0000
0101
0000
0110
0000
1020
,  // measure 43
0000
1000
1030
0000
1001
0000
0001
0000
,  // measure 44
0001
0100
0001
0000
1001
0000
1000
0000
,  // measure 45
1000
0100
1000
0000
0100
0010
0100
0010
,  // measure 46
0001
0100
0001
0100
0001
1000
0001
1000
,  // measure 47
0100
0010
0001
1000
0200
0000
0000
0000
,  // measure 48
0000
0000
2300
0000
,  // measure 49
0000
0000
0000
0000
0000
0000
0000
0000
3010
0000
0000
0000
0110
0000
0000
0100
,  // measure 50
0000
0000
0000
0001
1000
0000
0000
0100
0010
0100
0000
0000
0101
0000
0000
0001
,  // measure 51
1000
0000
0000
0100
0010
0100
0000
0000
0110
0000
1000
0000
0100
0000
0010
0000
,  // measure 52
0001
0000
0100
0000
0010
0000
0100
0000
0001
1000
0001
0010
0100
1000
0010
0000
,  // measure 53
0202
0000
0000
0303
1001
0000
1000
0100
,  // measure 54
0000
0100
1000
0000
0010
0100
0001
0000
,  // measure 55
0100
0000
0110
0000
0001
1000
0100
0001
,  // measure 56
0100
0000
1000
0000
0001
0000
1000
0100
,  // measure 57
1000
0010
0100
0000
1001
0000
0001
0100
,  // measure 58
0000
0100
0001
0000
1000
0000
0100
0010
,  // measure 59
0001
0100
0010
0000
0100
0000
0001
0000
,  // measure 60
1000
0001
0010
1000
0010
0001
0010
0001
,  // measure 61
0100
0010
1000
0001
0000
0000
1001
0000
,  // measure 62
0000
1100
0000
0000
0011
0000
0011
0000
,  // measure 63
1001
1001
0000
1010
,  // measure 64
0000
1010
0000
0000
0101
0000
0101
0000
,  // measure 65
1001
0000
1001
0000
1000
0100
1000
0100
,  // measure 66
1000
0001
1000
0001
0100
0001
0100
0001
,  // measure 67
1000
0100
1000
0100
1100
0000
1000
0010
,  // measure 68
0100
0001
1000
0100
1100
0000
0010
0001
,  // measure 69
1000
0100
1000
0010
0110
0000
0100
0001
,  // measure 70
0100
0001
0010
0100
1100
1000
0001
0100
,  // measure 71
0010
0100
0010
0000
0100
0001
0100
0000
0000
0000
0000
0000
0220
0000
0000
0000
,  // measure 72
0000
0000
0000
0000
,  // measure 73
0000
0000
0000
0000
,  // measure 74
0000
0000
0000
0330
;

//---------------dance-single - ----------------
#NOTES:
     dance-single:
     :
     Challenge:
     13:
     0.608,0.736,0.431,0.231,0.251:
0001
0010
0200
0000
1000
0000
0000
1000
,
0000
0000
0010
0000
0000
0310
0000
0000
,
0001
1000
0020
0000
1000
0000
0000
1000
,
0000
0000
0100
0000
0000
0130
0000
0000
,
0001
1000
0200
0000
0010
0000
0000
0010
,
0000
0000
1000
0000
0000
1300
0000
0000
,
0010
0100
0002
0000
1000
0000
0000
1000
,
0000
0000
0100
0000
0000
0103
0000
0000
,
0001
0010
0200
0000
1000
0000
0000
1000
,
0000
0000
0010
0000
0000
0310
0000
0000
,
0001
1000
0020
0000
0100
0000
0000
0100
,
0000
0000
0001
0000
0000
0031
0000
0000
,
1001
1001
0000
2200
0000
0000
3300
0000
,
0000
0000
0000
0000
0000
0000
0000
0000
0000
0000
0000
0000
0000
0000
0100
0010
,
0100
0001
0000
0202
0000
0000
0003
0000
,
0020
0030
0002
0303
,
0001
0000
1000
0000
1001
0000
0001
0100
0010
0000
0100
0000
0000
0000
0000
0000
,
0000
0000
0000
0000
0000
0000
0010
0100
0010
0000
1000
0000
0100
0000
0010
0000
,
0001
0000
1000
0000
1001
0000
0001
0010
0100
0000
0010
0000
0000
0000
0001
1000
,
0001
0000
0000
1001
1000
0001
0010
0100
,
0020
0000
0032
0000
,
1003
0000
0000
1100
0000
0000
0011
0000
0000
0000
0001
0000
1000
0100
1000
0000
,
0001
0100
0020
0000
0230
0000
0000
0000
,
0310
0000
0000
1010
0000
0000
0101
0000
0000
0000
0001
0000
0010
0100
0010
0000
,
0001
1000
0020
0000
2030
0000
0000
0000
,
3001
1000
0001
1000
0100
0000
0010
0000
0000
0000
0100
0000
1000
0001
1000
0000
,
0100
0001
0100
1000
0001
0100
0010
0100
,
0001
1001
1000
0010
0000
1010
0000
0101
,
0000
0110
0000
0010
0100
0001
0010
0100
,
0010
0001
0100
0000
0001
1000
0001
1000
,
0100
0001
0100
1000
0010
0000
0110
0000
,
0100
0001
1000
0100
0010
0000
0002
1000
,
0000
1003
0001
0010
0100
0000
1000
0001
,
0010
0001
1000
0001
0010
0000
0002
1000
,
0000
1003
0001
0100
0010
0000
0110
0000
,
0010
1000
0001
0000
1001
1000
0001
0011
,
0010
0000
0100
0000
1100
0000
0000
0000
1001
0000
0000
0000
0001
1000
0010
1000
,
0001
0010
0000
0011
0000
0011
0000
2001
,
0000
0001
3001
0000
1000
0001
0100
1000
,
0001
0010
1000
0001
0000
1001
0000
1020
,
0000
0100
0130
0000
1001
0000
1000
1020
,
0000
0130
0000
0110
0000
0110
0000
0102
,
0000
1000
1003
0001
0100
0010
0100
0001
,
1000
0100
0001
0100
1000
0001
1000
0001
,
0100
0010
0100
0001
1001
1000
0010
1000
,
0001
0010
0001
0010
0100
1000
0010
0100
,
0001
1000
0001
1000
0001
1000
0001
1000
0001
0010
0100
0000
1000
0000
1000
0001
,
0000
0001
0000
0001
0100
0000
0100
0010
1000
0100
0010
0000
0001
0000
0001
1000
,
0000
1000
0000
1000
0100
0010
0001
1000
1100
0000
1000
0000
1001
0000
0000
0101
,
0000
0000
0000
0100
0100
0000
0000
0001
1000
0100
0000
0000
0011
0000
0000
0001
,
0001
0000
0000
0010
0001
1000
0000
0000
0010
0100
0001
0000
0010
0100
1000
0000
,
0001
1000
0100
0000
1000
0100
0010
0000
0001
1000
0100
0010
0001
0010
0100
1000
,
0002
0000
0000
0003
0110
0000
2000
0010
,
0000
3010
0100
0000
0001
1000
0010
0100
,
0001
0001
0100
0000
0001
1000
0100
0001
,
0100
0000
1000
0001
0010
0001
0010
0001
1000
0000
0000
0000
1100
0000
0000
0000
,
0010
0010
0100
0000
0110
0000
0200
0001
,
0000
0301
0010
0000
0100
1000
0001
1000
,
0010
0001
0010
0000
1010
0000
1000
0100
,
1000
0000
0010
0100
0010
0100
0001
0100
0001
0000
0010
0000
1000
0000
0010
0000
,
0001
0000
1000
0000
0100
0000
1000
0000
0010
0000
0100
0000
0001
0000
0000
0000
0000
0000
1001
0000
0000
1000
0000
0000
,
0010
0110
0000
0000
1001
0000
1001
0000
,
0010
0100
0010
0000
0110
0000
0000
0000
0000
0000
0000
0000
1001
0000
0001
0000
,
0100
0110
0000
0000
1001
0000
1001
0000
,
0100
0010
0100
0000
0110
0000
0000
0000
0010
0000
1000
0000
0100
0000
0010
0000
,
0100
1000
0010
1000
0100
0010
0100
1000
,
0001
0100
0001
0100
0001
0100
0001
0100
0001
0000
0100
0000
1000
0000
0100
0000
,
0001
0010
0100
1000
1001
0001
1000
0010
,
0001
0010
1000
0001
0101
0100
0001
0010
,
1000
0010
0001
1000
1100
0100
1000
0001
,
0100
0001
0100
0001
0010
0100
0010
0000
0100
0000
0000
0000
2010
0000
0000
0000
,
0000
0000
0000
0000
0000
0002
0000
0000
,
0000
0000
0000
0000
,
0000
0000
0000
3003
;

//---------------dance-single - ----------------
#NOTES:
     dance-single:
     :
     Beginner:
     2:
     0.097,0.141,0.096,0.000,0.000:
0001
0000
0000
0000
,
0000
0000
0000
0000
,
0001
0000
0000
0000
,
0000
0000
0000
0000
,
1000
0000
0000
0000
,
0000
0000
0000
0000
,
1000
0000
0000
0000
,
0000
0000
0000
0000
,
0010
0000
0000
0000
,
0000
0000
0000
0000
,
0100
0000
0000
0000
,
0000
0000
0000
0000
,
0110
0000
0000
0000
,
0000
0000
0000
0000
,
0110
0000
0000
0000
,
0000
0000
0000
0000
,
0001
0000
0000
0000
,
0000
0000
0000
0000
,
1000
0000
0000
0000
,
0000
0000
0000
0000
,
0001
0000
1001
0000
,
0000
0000
0000
0000
,
1000
0000
0001
0000
,
0000
0000
0000
0000
,
0010
0000
0100
0000
,
0000
0000
0000
0000
,
1000
0000
0001
0000
,
1000
0000
0001
0000
,
0000
0000
1001
0000
,
0001
0000
1000
0000
,
0000
0000
0001
0000
,
1000
0000
0001
0000
,
0000
0000
1000
0000
,
0001
0000
1000
0000
,
0000
0000
0001
0000
,
1000
0000
0001
0000
,
0000
0000
0010
0000
,
0000
0000
0000
0000
,
0000
0000
0100
0000
,
0000
0000
0000
0000
,
0000
0000
1000
0000
,
0000
0000
0000
0000
,
0000
0000
0001
0000
,
1000
0000
0001
0000
,
1000
0000
0001
0000
,
1000
0000
0001
0000
,
1000
0000
0001
0000
,
0000
0000
0000
0000
,
0000
0000
0100
0000
,
0000
0000
0010
0000
,
0000
0000
0100
0000
,
0100
0000
0100
0000
,
0110
0000
0010
0000
,
0100
0000
0010
0000
,
0000
0000
1000
0000
,
0001
0000
1000
0000
,
0000
0000
0001
0000
,
0010
0000
0001
0000
,
0000
0000
1000
0000
,
0100
0000
1000
0000
,
0000
0000
0000
1001
,
0000
0000
0000
0000
,
0000
0000
0000
1001
,
0000
0000
0000
0000
,
0000
0000
0001
0000
,
0010
0000
0001
0000
,
1000
0000
1001
0000
,
0000
0000
0110
0000
,
0000
0000
1001
0000
,
0000
0000
1001
0000
,
0000
0000
0000
0110
;
