#TITLE:uen;
#SUBTITLE:;
#ARTIST:少年ラジオ;
#TITLETRANSLIT:;
#SUBTITLETRANSLIT:;
#ARTISTTRANSLIT:SHOUNEN RADIO;
#CREDIT:DigiMindAxel;
#BANNER:uen.png;
#BACKGROUND:uen-bg.png;
#LYRICSPATH:uen.lrc;
#CDTITLE:pop'n music.png;
#MUSIC:uen.mp3;
#METERTYPE:DDR X;
#OFFSET:-8.435;
#SAMPLESTART:70.520;
#SAMPLELENGTH:12.000;
#SELECTABLE:YES;
#BPMS:0.000=200.000;
#STOPS:;
#BGCHANGES:;

//---------------dance-single - ----------------
#NOTES:
     dance-single:
     :
     Easy:
     6:
     0.244,0.337,0.067,0.092,0.000:
1001
0000
1000
0000
,
0001
0000
1000
0000
,
0010
0000
0010
0000
,
0100
0000
0010
0000
,
0110
0000
0000
0000
,
0010
0000
0000
0000
,
0010
0000
0000
0000
,
0010
0000
0000
0000
,
1000
0000
0001
0000
,
1000
0000
0001
0000
,
1000
0000
0010
0000
,
0100
0000
0001
0000
,
2000
0000
0000
0000
,
3002
0000
0000
0000
,
2003
0000
0000
0000
,
3020
0000
0000
0000
,
0230
0000
0000
0000
,
0302
0000
0000
0000
,
1003
0000
0001
0000
,
1000
0000
0000
0000
,
1001
0000
0010
0000
,
0100
0000
1000
0000
,
0001
0000
1000
0000
,
0001
0000
1000
0000
,
0100
0000
0010
0000
,
0001
0000
1000
0000
,
0010
0000
0010
0000
,
0100
0000
0000
0000
,
0110
0000
0000
0000
,
0010
0000
0000
0000
,
0100
0000
0000
0000
,
0010
0000
0000
0000
,
0100
0000
0000
0000
,
0010
0000
0000
0000
,
0110
0000
0000
0000
,
0100
0000
0000
0000
,
0001
0000
1000
0000
,
0001
0000
1000
0000
,
0010
0000
0100
0000
,
0010
0000
0100
0000
,
0001
0000
1000
0000
,
0001
0000
1000
0000
,
0100
0000
0010
0000
,
0100
0000
1000
0000
,
0002
0000
0000
0000
,
1003
0000
0000
0000
,
0002
0000
0000
0000
,
1003
0000
0000
0000
,
0001
0000
0010
0000
,
0100
0000
0010
0000
,
0001
0000
1000
0000
,
0001
0000
0000
0000
,
1001
0000
0010
0000
,
1001
0000
0010
0000
,
1001
0000
0010
0000
,
0100
0000
1000
0000
,
0001
1000
0001
0000
,
1000
0100
1000
0000
,
0001
1000
0001
0000
,
0010
0001
0010
0000
,
0001
1000
0001
0000
,
1000
0010
1000
0000
,
0001
1000
0001
0000
,
0100
0001
0100
0000
,
0020
0000
0000
0000
,
0230
0000
0000
0000
,
0310
0000
0100
0000
,
0010
0000
0010
0000
,
1000
0001
1000
0000
,
0100
1000
0100
0000
,
1000
0001
1000
0000
,
0001
0010
0001
0000
,
0100
0010
0100
0010
,
0100
0010
0100
0000
,
0010
0100
0010
0100
,
0010
0100
0010
0000
,
1000
0100
1000
0100
,
1000
0001
1000
0001
,
0010
0001
0010
0001
,
1000
0010
1000
0010
,
0100
0001
0100
0001
,
1000
0001
1000
0001
,
0010
0100
1000
0100
,
0010
0001
1000
0010
,
0100
0000
0100
0000
,
0100
0000
0100
0000
,
0010
0000
0010
0000
,
0010
0000
0010
0000
,
0200
0000
0000
0000
,
0000
0300
0000
0000
;

//---------------dance-single - ----------------
#NOTES:
     dance-single:
     :
     Medium:
     9:
     0.475,0.637,0.151,0.160,0.000:
0001
1000
0000
0100
1000
0100
0000
1000
,
0001
1000
0000
0100
0010
0100
0000
0000
,
1000
0001
0000
0010
0001
0010
0000
0001
,
1000
0001
0000
1000
0010
0000
0010
0000
,
0020
0000
0000
0000
,
0100
0000
0000
0000
,
0100
0000
0000
0000
,
0130
0000
0110
0000
,
0010
1000
0100
0010
,
0001
1000
0100
0010
,
0001
1000
0010
0100
,
0001
1000
0020
0000
,
0130
0000
0001
0000
,
0100
0000
0000
0000
0001
0010
0100
1000
,
0010
0000
0100
0000
,
0010
0000
0000
0000
0100
0001
0010
0100
,
1000
0000
0001
0000
,
1000
0000
0000
0000
0010
1000
0010
0100
,
0001
0001
1000
1000
,
0001
0001
0110
0000
,
0100
0010
0100
0000
0010
0100
0010
0000
,
1000
1001
0001
1001
,
1000
0100
0001
0100
,
1000
0010
0001
0010
,
1000
0001
1000
0000
0100
1000
0100
0000
,
0010
0001
0010
0000
0001
0000
1000
0000
,
0001
0010
1000
0010
,
0001
1000
0100
0000
,
2000
0000
0000
0000
0000
0000
0000
0001
,
3002
0000
0000
0000
,
2003
0000
0000
0000
0000
0000
0000
0001
,
3002
0000
0000
0000
,
0203
0000
0000
0010
,
0320
0000
0000
0000
,
0230
0000
0000
0010
,
0320
0000
0000
0030
,
1000
0001
0000
1000
0001
0000
1000
0001
,
0000
1000
0001
0000
0010
0001
0010
0000
,
0001
1000
0000
0001
1000
0000
0001
1000
,
0000
0001
1000
0000
0010
1000
0010
0000
,
0100
0010
0000
0100
0010
0000
0100
0010
,
0000
0100
0010
0000
1000
0001
1000
0000
,
0100
0010
0000
0100
0010
0000
0100
0010
,
0000
0100
0010
0000
0001
1000
0001
0000
,
2000
0000
0000
0000
,
3002
0000
0000
0000
,
2003
0000
0000
0000
,
3002
0000
0000
0000
,
1003
1000
0001
0001
,
1000
1000
0001
0001
,
0100
0010
1000
0001
,
1000
0000
0001
1000
0001
0000
0000
0000
,
1000
0000
0010
0000
1000
0010
1000
0010
,
0100
0000
0001
0000
1000
0100
1000
0001
,
0100
0000
0001
0000
0100
0010
0100
0001
,
1000
0000
0001
0000
1000
0001
1000
0000
,
0001
0010
0001
0000
0010
0100
0010
0000
,
0100
1000
0100
0000
1000
0001
1000
0000
,
0001
1000
0010
1000
0001
1000
0010
1000
,
0001
1000
0000
0010
0000
0000
0000
0000
,
1000
0000
0100
0000
1000
0100
1000
0100
,
0010
0000
0100
1000
0010
0100
0010
0000
,
1000
0000
0001
0000
0100
0001
1000
0010
,
0100
0010
0100
0001
,
1000
0010
0100
0001
0000
0001
0000
0000
,
1000
0100
0010
0001
0000
0001
0000
0000
,
0200
0000
0000
0010
0310
0000
0000
0000
,
2000
0000
0000
0001
3001
0000
0000
0000
,
1000
0100
1000
0000
0001
0000
1000
0000
,
0001
0100
0001
0000
1000
0000
0001
0000
,
0010
0100
0010
0000
0001
0000
1000
0000
,
0100
1000
0100
0000
1000
0000
0001
0000
,
0100
0110
0010
0110
,
1000
0110
0001
0110
,
1000
1001
0001
1001
,
0100
0010
0000
1000
0000
1000
0000
0000
,
0001
0010
0001
0010
0001
1000
0010
1000
,
0001
0010
0100
1000
0001
0000
0001
0000
,
1000
0010
1000
0010
1000
0001
0100
0001
,
1000
0100
0010
0001
1000
0000
1000
0000
,
1001
1001
0110
0110
,
1001
1001
0110
0110
,
0001
0100
0010
0000
0100
0010
0100
0000
,
0010
1000
0100
0000
1000
0100
1000
0000
,
0002
0000
0010
0000
,
0010
0000
0010
0003
,
0200
0000
0010
0000
,
0010
0000
0010
0000
,
0320
0000
0000
0000
,
0000
0030
0000
0000
;

//---------------dance-single - ----------------
#NOTES:
     dance-single:
     :
     Hard:
     13:
     0.646,0.675,0.193,0.227,0.000:
1000
1000
0000
0010
0100
0001
0000
1000
,
0001
0001
0000
0010
0100
1000
0000
0001
,
1000
1000
0000
0100
0010
0001
0000
1000
,
0001
0001
0000
0100
0010
1000
0100
0010
,
0002
0000
0000
0000
,
0023
0000
0000
0000
,
0230
0000
0000
0000
,
1300
0000
0001
0000
1001
0000
0000
0001
,
1000
0001
0000
1000
0001
0000
1000
0100
,
0000
1000
0100
0000
1000
0001
0000
1000
,
0001
0000
0010
0100
0000
1000
0001
0000
,
0100
0001
0000
1000
0020
0000
0000
0000
,
2030
0000
3200
0000
,
2300
0000
0000
0000
3001
0100
0010
1000
,
0002
0000
0023
0000
,
0032
0000
0000
0000
1003
0010
0100
0001
,
2000
0000
3002
0000
,
2003
0000
0000
0000
3001
0010
0100
1000
,
0001
0100
1000
0100
,
0001
0000
1000
0000
0010
0100
0010
0000
,
1000
0100
1000
0100
0010
0100
1000
0001
,
0100
0101
1001
0101
,
1001
0000
0001
1000
0100
0000
0010
0001
,
0010
0001
1000
0010
0100
0010
1000
0000
,
0100
0010
0100
0010
0001
1000
0010
1000
,
0001
0010
0100
0000
1100
0000
0100
0000
,
1001
0000
1000
0001
0100
0000
0001
0010
,
0100
1000
0100
0010
0001
1000
1000
0000
,
0020
0100
0100
0130
,
0002
1000
1000
1003
,
0200
1000
1000
1300
,
0020
0001
0001
0031
,
2000
0010
0010
3010
,
0200
0001
0001
0301
,
2000
0001
0001
3001
,
0100
0010
0100
0001
0001
0000
1001
0000
,
1000
1000
0001
0010
0100
1000
0100
0010
,
0001
1000
0010
0100
0001
1000
1000
0000
,
0001
0001
1000
0010
0100
0001
0100
0010
,
1000
0001
0010
0100
1000
0001
0001
0000
,
1000
1000
0001
0010
0100
0010
0001
1000
,
0010
0100
0010
1000
0001
1000
1000
0000
,
0001
0001
1000
0010
0100
0010
1000
0001
,
0010
0100
0010
0001
1000
0010
0010
0000
,
0200
0000
0010
0300
,
0020
0000
0100
0030
,
2000
0000
0001
3000
,
0002
0000
1000
0003
,
1000
0100
0001
0100
,
1000
0001
0010
0001
,
1000
0010
0001
0010
,
1000
0001
0010
0100
1000
0000
0000
0000
,
0001
0100
0001
0100
0001
0010
0100
1000
,
0001
0010
0001
0010
0001
0100
0010
1000
,
0100
0010
0100
0010
0100
1000
0010
0100
,
0001
1000
0001
1000
0001
0010
0100
0000
,
1000
0100
0001
0000
0001
0100
1000
0000
,
0001
0100
1000
0000
1000
0100
0001
0000
,
1000
0100
0010
0100
1000
0001
0100
0010
,
1000
1000
0000
0001
0001
0000
1001
0000
,
1000
0010
1000
0010
1000
0100
0010
0100
,
1000
0001
1000
0001
1000
0010
0100
0001
,
0010
0100
0010
0100
1000
0001
0100
0010
,
0100
0001
0100
0001
1000
0100
0010
0001
,
1000
1000
0010
0100
0000
0110
0000
0000
,
0001
0001
0010
0100
0000
0110
0000
0000
,
1000
0100
0001
0100
1000
0000
0001
0000
,
1000
0010
0001
0010
1000
0000
0001
0000
,
0010
0001
0010
0001
1000
0100
1000
0100
,
1000
0001
1000
0001
0100
0010
0100
0010
,
1000
0010
1000
0010
0100
0001
0100
0001
,
1000
0100
0010
0001
0010
0100
1000
0000
,
1100
1100
0011
0011
,
1001
1001
0110
0110
,
0101
0101
1010
1010
,
1000
0001
0000
0100
0000
0010
0000
0000
,
1000
1000
0001
0010
0100
1000
0001
0001
,
1000
0001
0010
0001
1000
1000
0001
0010
,
0100
0100
0010
0001
1000
0010
0100
0001
,
1000
1000
0100
0010
0001
0010
0100
0000
,
1000
0100
0001
0100
1000
0010
0100
0000
,
0001
0010
1000
0010
0001
0100
0010
0000
,
1000
0010
0100
0001
0100
0010
1000
0100
,
0001
0100
1000
0100
0001
0100
1000
0000
,
0002
1000
0000
0100
0000
1000
0000
0100
,
0000
1000
0000
0100
0000
1003
0000
0001
,
2000
0001
0000
0100
0000
0001
0000
0100
,
0000
0001
0000
0100
0000
0001
0000
3100
,
2000
0000
0000
0000
,
0000
3000
0000
0000
;

//---------------dance-single - ----------------
#NOTES:
     dance-single:
     :
     Challenge:
     15:
     0.815,0.937,0.126,0.210,0.391: // measure 1
0001
1000
0001
0000
1000
0000
0010
0000
0100
0010
0100
0000
0001
0000
1000
0000
,  // measure 2
0100
1000
0100
0000
0010
0000
0100
0000
1000
0001
1000
0000
0010
0000
0100
0000
,  // measure 3
0001
0100
0001
0000
0010
0000
0100
0000
1000
0001
1000
0000
0010
0000
1000
0000
,  // measure 4
0001
0010
0001
0000
0010
0000
0100
0000
1000
0000
1000
0000
0001
0000
0001
0000
,  // measure 5
1000
0002
0000
0000
0000
0000
0000
0000
,  // measure 6
0013
0200
0000
0000
0000
0000
0000
0000
,  // measure 7
1300
0002
0000
0000
0000
0000
1003
0100
,  // measure 8
1000
0000
0001
0000
0100
0000
0000
0000
1001
0000
0000
0000
0000
0000
1000
0001
,  // measure 9
1000
0100
1000
0100
0010
0001
0010
0001
,  // measure 10
1000
0010
1000
0010
0100
0001
0100
0001
,  // measure 11
0010
0000
0100
0000
0010
0000
0100
0000
1000
0000
0001
0000
1000
0000
0001
0100
,  // measure 12
0001
0100
0100
0001
1000
0002
0000
0000
,  // measure 13
1003
0010
0200
0000
,  // measure 14
0310
0000
1000
0000
0001
0100
1000
0100
,  // measure 15
0002
0000
2003
0000
,  // measure 16
3002
0000
0000
0000
1003
0100
0001
0100
,  // measure 17
2000
0000
3020
0000
,  // measure 18
0230
0000
0000
0000
0301
0010
1000
0010
,  // measure 19
0001
0000
0000
1000
0100
0000
0010
0000
0100
0000
0000
1000
0001
0000
0100
0000
,  // measure 20
0001
0000
0000
0000
0001
0000
0000
0000
1000
0000
1000
0000
0001
0100
0001
0000
,  // measure 21
1000
0100
1000
0001
0010
0100
1000
0001
,  // measure 22
0011
1100
0011
1001
,  // measure 23
0001
0100
0001
1000
0010
0100
0001
0010
,  // measure 24
0100
0010
0001
1000
0010
1000
0001
0000
,  // measure 25
0010
0100
1000
0100
0010
0001
1000
0010
,  // measure 26
1020
0130
0210
0301
,  // measure 27
1001
0000
0000
0001
1000
0000
0100
0000
0010
0000
0000
0100
1000
0000
0001
0000
,  // measure 28
0100
0001
1000
0100
0010
0001
1000
0000
,  // measure 29
0200
0000
1000
0000
1000
0000
1300
0001
,  // measure 30
0200
0001
0001
0301
,  // measure 31
2000
0000
0010
0000
0010
0000
3010
1000
,  // measure 32
0002
0010
0010
0013
,  // measure 33
0200
0000
0010
0000
0010
0000
0310
0001
,  // measure 34
2000
0001
0001
3001
,  // measure 35
1000
0001
1000
0001
1000
0001
1000
0001
,  // measure 36
0010
0000
0100
0000
0100
0000
0100
0000
1000
0001
1000
0000
0001
1000
0001
0000
,  // measure 37
1000
0100
0001
0100
1000
0100
0001
0100
,  // measure 38
1000
0010
0100
0010
1000
0001
1000
0000
,  // measure 39
0001
0100
1000
0100
0001
0100
1000
0100
,  // measure 40
0001
0010
0100
0010
0001
1000
0001
0000
,  // measure 41
1000
0010
0001
0010
1000
0010
0001
0010
,  // measure 42
1000
0100
0010
0001
1000
0010
1000
0000
,  // measure 43
0001
0010
1000
0010
0001
0010
1000
0010
,  // measure 44
0001
0010
0100
1000
0001
1000
0001
0100
,  // measure 45
0010
0010
0010
0010
,  // measure 46
0100
0100
0100
0100
,  // measure 47
0001
0001
0001
0001
,  // measure 48
1000
0000
1000
0000
1000
0001
1000
0001
,  // measure 49
1000
0100
0010
0000
0100
1000
0010
0000
,  // measure 50
0100
0001
0010
0000
0001
0010
0100
0000
,  // measure 51
1000
0010
0100
0001
1000
0010
0100
0001
,  // measure 52
1000
0100
0010
0001
1000
0000
0000
0000
,  // measure 53
0001
0000
1000
0000
0001
0010
0100
0010
0100
0000
1000
0000
0100
0000
0010
0000
,  // measure 54
0001
0000
0100
0000
0010
1000
0100
1000
0100
0000
1000
0000
0001
0000
0010
0000
,  // measure 55
0100
0000
0010
0000
0001
1000
0010
1000
0010
0000
1000
0000
0100
0000
0010
0000
,  // measure 56
0100
1000
0001
0100
0001
1000
0100
0000
,  // measure 57
1000
0000
0000
1000
0100
0000
0000
0100
0010
0000
0000
0010
0100
0000
0000
0100
,  // measure 58
1000
0000
0000
1000
0001
0000
0000
0001
0100
0000
0000
0100
0010
0000
0000
0010
,  // measure 59
1000
0001
0010
0100
1000
0100
0010
0001
,  // measure 60
0101
0000
0100
0000
0000
0000
0100
0000
0010
0100
0010
0000
1000
0001
1000
0000
,  // measure 61
0001
0000
1000
0000
0100
1000
0010
1000
0100
0000
0010
0000
0100
0000
1000
0000
,  // measure 62
0010
0000
0100
0000
0001
0100
0010
0100
0001
0000
0010
0000
0100
0000
1000
0000
,  // measure 63
0100
0000
0010
0000
0001
1000
0010
1000
0001
0000
1000
0000
0100
0000
0001
0000
,  // measure 64
0100
1000
0010
0100
0010
0010
1000
0001
,  // measure 65
1001
1000
0001
0011
0000
0011
0000
0000
,  // measure 66
1001
0001
1000
1010
0000
1010
0000
0000
,  // measure 67
1000
0100
0001
0100
1000
0010
0100
0001
,  // measure 68
1000
0000
0010
0000
0001
0000
0010
0000
1000
0001
1000
0000
0001
0100
0001
0000
,  // measure 69
1000
1000
0010
1000
0001
0001
0010
0100
,  // measure 70
0010
0010
0001
1000
0010
0010
1000
0001
,  // measure 71
0100
0100
0001
0010
0100
0100
0010
0001
,  // measure 72
1000
1000
0001
0100
0001
0001
1000
0000
,  // measure 73
1000
0000
0000
1000
0010
0000
0000
0010
0100
0000
0000
0100
0001
0000
0000
0001
,  // measure 74
1000
0000
0000
1000
0001
0000
0000
0001
0010
0000
0000
0010
0001
0000
0000
0001
,  // measure 75
0100
0000
0000
0100
0010
0000
0000
0010
1000
0000
0000
1000
0001
0000
0000
0000
,  // measure 76
0100
0000
0100
0000
0001
0000
1000
0000
0001
0100
0001
0000
1000
0100
1000
0000
,  // measure 77
0001
1000
0001
1000
0001
0000
0010
0000
0100
1000
0100
1000
0100
0000
1000
0000
,  // measure 78
0001
0100
0001
0100
0001
0000
1000
0000
0100
0010
0100
0010
0100
0000
1000
0000
,  // measure 79
0001
0010
0001
0010
0001
0000
1000
0000
0010
0100
0010
0100
0010
0000
1000
0000
,  // measure 80
0100
1000
0100
1000
0100
0000
1000
0000
0001
0100
0001
0100
0001
0000
0000
0000
,  // measure 81
1000
0100
1000
0001
0100
0001
1000
0100
0010
0001
1000
0001
,  // measure 82
1000
0010
1000
0001
0010
0001
1000
0100
0010
0001
0010
0100
,  // measure 83
1000
0000
0000
1000
0100
0000
0000
0100
0001
0000
0000
0001
0100
0000
0000
0100
,  // measure 84
1000
0000
0000
1000
0001
0000
0000
0001
0010
0000
0000
0010
0100
0000
0000
0100
,  // measure 85
2000
0000
0001
3001
0000
1000
0010
0200
,  // measure 86
0010
0310
0000
1000
0100
1000
0001
0000
,  // measure 87
2000
0000
0001
3001
0000
1000
0100
0020
,  // measure 88
0100
0130
0000
1000
0001
1000
0010
0100
,  // measure 89
0002
0000
0000
2000
,  // measure 90
0000
3003
0000
0000
;

//---------------dance-single - ----------------
#NOTES:
     dance-single:
     :
     Beginner:
     3:
     0.130,0.185,0.025,0.000,0.000:
0001
0000
1000
0000
,
0001
0000
1000
0000
,
0001
0000
1000
0000
,
0001
0000
1000
0000
,
0001
0000
0000
0000
,
0010
0000
0000
0000
,
0100
0000
0000
0000
,
1000
0000
0000
0000
,
0001
0000
0000
0000
,
0001
0000
0000
0000
,
1000
0000
0000
0000
,
1000
0000
0000
0000
,
1001
0000
0000
0000
,
0000
0000
0000
0000
,
0100
0000
0000
0000
,
0000
0000
0000
0000
,
0100
0000
0000
0000
,
0000
0000
0000
0000
,
0100
0000
0000
0000
,
0000
0000
0000
0000
,
0110
0000
0000
0000
,
0010
0000
0000
0000
,
0100
0000
0000
0000
,
0010
0000
0000
0000
,
1000
0000
0000
0000
,
0001
0000
0000
0000
,
1000
0000
0000
0000
,
0001
0000
0000
0000
,
1000
0000
0000
0000
,
0000
0000
0000
0000
,
0100
0000
0000
0000
,
0000
0000
0000
0000
,
0010
0000
0000
0000
,
0000
0000
0000
0000
,
0001
0000
0000
0000
,
0000
0000
0000
0000
,
1000
0000
1000
0000
,
1000
0000
0000
0000
,
0001
0000
0001
0000
,
0001
0000
0000
0000
,
1000
0000
1000
0000
,
1000
0000
0000
0000
,
0001
0000
0001
0000
,
0001
0000
0000
0000
,
1001
0000
0000
0000
,
0000
0000
0000
0000
,
0000
0000
0000
0000
,
0000
0000
0000
0000
,
0010
0000
0100
0000
,
0010
0000
0100
0000
,
0010
0000
0100
0000
,
0010
0000
0000
0000
,
1000
0000
0001
0000
,
1000
0000
0001
0000
,
1000
0000
0001
0000
,
1000
0000
0000
0000
,
0100
0000
0000
0000
,
0010
0000
0000
0000
,
0001
0000
0000
0000
,
1000
0000
0000
0000
,
0001
0000
1000
0000
,
0001
0000
1000
0000
,
0001
0000
1000
0000
,
0001
0000
1000
0000
,
0001
0000
0000
0000
,
0010
0000
0000
0000
,
0100
0000
0000
0000
,
1000
0000
0000
0000
,
0010
0000
0000
0000
,
0010
0000
0000
0000
,
0100
0000
0000
0000
,
0100
0000
0000
0000
,
0001
0000
1000
0000
,
0001
0000
1000
0000
,
0001
0000
1000
0000
,
0001
0000
0000
0000
,
0100
0000
0100
0000
,
0100
0000
0100
0000
,
0010
0000
0010
0000
,
0010
0000
0010
0000
,
1000
0000
1000
0000
,
0001
0000
0001
0000
,
1000
0000
0100
0000
,
0010
0000
0001
0000
,
1000
0000
0000
0000
,
0000
0000
0000
0000
,
1000
0000
0000
0000
,
0000
0000
0000
0000
,
0001
0000
0000
0000
;
