#TITLE:something special;
#SUBTITLE:;
#ARTIST:RAM;
#TITLETRANSLIT:;
#SUBTITLETRANSLIT:;
#ARTISTTRANSLIT:;
#CREDIT:DigiMindAxel;
#BANNER:something special.png;
#BACKGROUND:something special-bg.png;
#LYRICSPATH:;
#CDTITLE:beatmania.png;
#MUSIC:something special.mp3;
#METERTYPE:DDR X;
#OFFSET:-5.724;
#SAMPLESTART:50.920;
#SAMPLELENGTH:15.000;
#SELECTABLE:YES;
#BPMS:0.000=191.000;
#STOPS:;
#BGCHANGES:;

//---------------dance-single - ----------------
#NOTES:
     dance-single:
     :
     Beginner:
     2:
     0.093,0.140,0.038,0.000,0.000:
1000
0000
0000
0000
,
0000
0000
0000
0000
,
0001
0000
0000
0000
,
0000
0000
0000
0000
,
1001
0000
0000
0000
,
1000
0000
0000
0000
,
0001
0000
0000
0000
,
1000
0000
0000
0000
,
0100
0000
0000
0000
,
0010
0000
0000
0000
,
0100
0000
0000
0000
,
0010
0000
0000
0000
,
0001
0000
0000
0000
,
0100
0000
0000
0000
,
0001
0000
0000
0000
,
1000
0000
0000
0000
,
0010
0000
0000
0000
,
1000
0000
0000
0000
,
0001
0000
0000
0000
,
1000
0000
0000
0000
,
1001
0000
0000
0000
,
0000
0000
0000
0000
,
0100
0000
0000
0000
,
0000
0000
0000
0000
,
0010
0000
0000
0000
,
0000
0000
0000
0000
,
0100
0000
0000
0000
,
0000
0000
0000
0000
,
0010
0000
0000
0000
,
0001
0000
0000
0000
,
0010
0000
0000
0000
,
0001
0000
0000
0000
,
1000
0000
0000
0000
,
0100
0000
0000
0000
,
1000
0000
0000
0000
,
0100
0000
0000
0000
,
0010
0000
0000
0000
,
0100
0000
0000
0000
,
0010
0000
0000
0000
,
0010
0000
0000
0000
,
0001
0000
0000
0000
,
0100
0000
0000
0000
,
0001
0000
0000
0000
,
0001
0000
0000
0000
,
1000
0000
0000
0000
,
0010
0000
0000
0000
,
1000
0000
0000
0000
,
1000
0000
0000
0000
,
0001
0000
0000
0000
,
0010
0000
0000
0000
,
0100
0000
0000
0000
,
0100
0000
0000
0000
,
0110
0000
0000
0000
,
0000
0000
0000
0000
,
0010
0000
0000
0000
,
0000
0000
0000
0000
,
0010
0000
0000
0000
;

//---------------dance-single - ----------------
#NOTES:
     dance-single:
     :
     Easy:
     4:
     0.209,0.315,0.213,0.050,0.000:
0002
0000
0000
0000
,
2003
0000
0000
0000
,
3002
0000
0000
0000
,
1003
0000
0000
0000
,
1001
0000
0001
0000
,
1000
0000
0100
0000
,
1000
0000
0001
0000
,
1000
0000
0100
0000
,
0010
0000
0001
0000
,
0010
0000
0001
0000
,
1000
0000
0010
0000
,
0100
0000
0100
0000
,
0110
0000
0010
0000
,
0100
0000
0010
0000
,
1001
0000
1000
0000
,
0001
0000
1000
0000
,
1001
0000
0001
0000
,
0100
0000
0001
0000
,
1001
0000
1000
0000
,
0010
0000
1000
0000
,
1001
0000
0000
0000
,
0000
0000
0000
0000
,
0110
0000
0000
0000
,
0000
0000
0000
0000
,
1001
0000
0000
0000
,
0000
0000
0000
0000
,
0110
0000
0000
0000
,
0000
0000
0000
0000
,
0110
0000
0000
0000
,
0110
0000
0000
0000
,
0110
0000
0000
0000
,
1000
0000
0001
0000
,
1001
0000
0000
0000
,
1001
0000
0000
0000
,
1001
0000
0000
0000
,
0001
0000
0000
0000
,
0100
0000
0010
0000
,
0100
0000
0010
0000
,
1000
0000
1000
0000
,
0001
1000
0001
1000
,
0001
0000
0001
0000
,
0001
0000
0000
0000
,
0100
0010
0100
0010
,
0100
0000
0100
0000
,
0110
0000
0010
0000
,
1000
0000
0001
0000
,
1000
0100
1000
0100
,
1000
0000
1000
0000
,
0001
0000
0001
0000
,
0100
0000
0010
0000
,
0100
0001
0100
0001
,
0100
0001
1000
0001
,
1000
0000
0100
0000
,
0010
0000
0001
0000
,
2000
0000
0000
0000
,
0000
0000
3000
0000
,
1001
0000
0000
0000
;

//---------------dance-single - ----------------
#NOTES:
     dance-single:
     :
     Hard:
     12:
     0.559,0.560,0.113,0.050,0.100: // measure 1
1000
0100
0010
0001
0000
0000
1000
0000
,  // measure 2
0000
1000
0000
1000
,  // measure 3
0001
0100
0010
1000
0000
1001
0000
0000
,  // measure 4
0200
0010
0010
0310
,  // measure 5
1000
0100
1000
0001
0000
0001
0010
0000
,  // measure 6
0100
0000
0000
0000
1000
0000
0000
0100
0000
0000
0001
0000
0000
0000
0100
0000
,  // measure 7
1000
0001
0100
0001
0000
0001
1000
0000
,  // measure 8
0100
0000
0010
0100
0000
0100
0000
1000
,  // measure 9
0001
0100
0010
0100
0001
1000
0100
1000
,  // measure 10
0001
0000
0000
0000
1000
0000
0000
0100
0000
0000
0001
0000
0000
0000
0100
0000
,  // measure 11
1000
0001
0100
0001
1000
0100
0010
0100
,  // measure 12
2000
0001
0001
3001
,  // measure 13
1000
0000
0000
0100
0000
0000
1000
0000
0000
0000
0010
0000
0100
0000
0000
0000
,  // measure 14
0001
0000
0000
1000
0000
0000
0001
0000
0000
0000
0010
0000
0100
0000
0000
0000
,  // measure 15
0010
0000
0000
0001
0000
0000
1000
0000
0000
0000
0100
0000
0010
0000
0000
0000
,  // measure 16
0100
0000
0000
1000
0000
0000
0001
0000
0000
0000
0100
0000
0001
0000
0000
0000
,  // measure 17
1000
0100
0010
0100
1000
0001
0100
0001
,  // measure 18
1000
0000
0000
0000
0001
0000
0000
0100
0000
0000
1000
0000
0000
0000
0100
0000
,  // measure 19
0001
0010
0100
0010
0001
1000
0010
1000
,  // measure 20
0002
1000
1000
1003
,  // measure 21
0001
1000
0000
0100
0000
0010
0000
0100
,  // measure 22
0000
0010
0000
0100
0000
0010
0000
0001
,  // measure 23
1000
0010
0000
1000
0000
0010
0000
1000
,  // measure 24
0001
0000
0010
0100
0000
1000
0000
0001
,  // measure 25
1000
0010
0000
0100
0000
0010
0000
0100
,  // measure 26
0000
0010
0000
0100
0000
0010
0000
1000
,  // measure 27
0001
0010
0000
0001
0000
0010
0000
0001
,  // measure 28
1000
0000
0100
0010
0000
0001
0000
1000
,  // measure 29
0010
0000
0000
0010
0000
0000
0010
0000
0000
0000
1000
0000
0000
0000
0001
0000
,  // measure 30
0100
0000
0000
0100
0000
0000
0100
0000
0000
0000
0001
0000
0000
0000
1000
0000
,  // measure 31
0100
0000
0000
0100
0000
0000
0100
0000
0000
0000
1000
0000
0000
0000
0010
0000
,  // measure 32
0100
0000
0001
0010
0000
1000
0000
0010
,  // measure 33
0001
0000
0000
0001
0000
0000
0001
0000
0000
0000
0100
0000
0000
0000
0010
0000
,  // measure 34
1000
0000
0000
1000
0000
0000
1000
0000
0000
0000
0010
0000
0000
0000
0100
0000
,  // measure 35
0001
0000
0000
0001
0000
0000
0001
0000
0000
0000
0010
0000
0000
0000
0100
0000
,  // measure 36
2000
0000
0000
3000
,  // measure 37
0001
1000
0100
0000
0100
0010
0100
0000
,  // measure 38
0100
0000
1000
0000
0001
0000
0000
0100
0000
0000
0010
0000
0000
0000
0100
0000
,  // measure 39
0101
0000
0001
1000
1100
0000
1000
0001
,  // measure 40
0100
1000
0100
0001
1000
0000
1001
0000
,  // measure 41
1000
0001
0100
0000
0100
0010
0000
0100
,  // measure 42
0001
0000
0001
0010
0000
0010
0100
1000
,  // measure 43
0000
0001
1000
0100
0001
0100
1000
0010
,  // measure 44
0001
0010
1000
0100
0010
0001
1000
0000
,  // measure 45
0001
1000
0100
0000
0100
0010
0100
0000
,  // measure 46
0100
0000
1000
0000
0001
0000
0000
0100
0000
0000
0010
0000
0000
0000
0100
0000
,  // measure 47
0000
0001
1000
0010
0001
0010
1000
0100
,  // measure 48
1100
0000
0001
0010
0011
0000
1001
0000
,  // measure 49
1000
0001
0100
0000
0100
0010
0000
0100
,  // measure 50
0001
0000
0001
0010
0000
0010
0100
1000
,  // measure 51
0000
0001
1000
0010
0001
0010
1000
0100
,  // measure 52
0001
0100
1000
0010
0110
0000
0101
0000
,  // measure 53
0001
1000
0000
0100
0000
0010
0000
0001
,  // measure 54
0000
0000
1000
0000
0001
0000
0000
0100
0000
0000
1000
0000
0000
0000
0100
0000
,  // measure 55
0001
0000
1000
0000
0000
1000
0000
0000
,  // measure 56
1000
0000
0001
0100
0000
0010
0000
1000
,  // measure 57
0001
0000
0000
0000
;

//---------------dance-single - ----------------
#NOTES:
     dance-single:
     :
     Medium:
     10:
     0.459,0.525,0.175,0.125,0.038: // measure 1
1000
0000
1000
0000
,  // measure 2
1000
0000
1000
0000
,  // measure 3
0001
0000
0001
0000
,  // measure 4
2002
0000
0000
3003
,  // measure 5
1000
0010
1000
0000
0000
0010
0100
0000
,  // measure 6
0001
1000
0100
0001
,  // measure 7
0100
0000
1000
0010
0000
0100
0001
0000
,  // measure 8
1000
0000
0100
1000
0000
0010
0000
0100
,  // measure 9
0001
1000
0001
1000
0100
1000
0100
0000
,  // measure 10
0010
0001
0100
1000
,  // measure 11
0100
0000
0001
0000
1000
0001
1000
0001
,  // measure 12
0100
0000
0010
1000
0000
0100
0000
0010
,  // measure 13
0100
0000
0100
1000
0100
0000
1100
0000
,  // measure 14
1000
0000
1000
0001
1000
0000
1001
0000
,  // measure 15
0001
0000
0001
0100
0001
0000
0101
0000
,  // measure 16
0010
0000
0010
0100
0010
0000
0110
0000
,  // measure 17
0001
0000
0001
0010
0001
0000
0011
0000
,  // measure 18
0100
0000
0100
0001
0100
0000
0101
0000
,  // measure 19
0010
0000
0010
0100
0010
0000
0110
0000
,  // measure 20
1000
0100
1000
0100
0010
0001
0010
0001
,  // measure 21
2000
0000
0000
0000
,  // measure 22
0000
0000
0000
3000
,  // measure 23
0020
0000
0000
0000
,  // measure 24
0000
0000
0000
0030
,  // measure 25
0200
0000
0000
0000
,  // measure 26
0000
0000
0000
0300
,  // measure 27
0002
0000
0000
0000
,  // measure 28
0000
0000
0000
0003
,  // measure 29
0110
0000
0000
0100
0000
0000
0100
0000
0000
0000
0000
0000
0000
0000
0000
0000
,  // measure 30
0001
0000
0000
0001
0000
0000
0001
0000
0000
0000
0000
0000
0000
0000
0000
0000
,  // measure 31
1000
0000
0000
1000
0000
0000
1000
0000
0000
0000
0000
0000
0000
0000
0000
0000
,  // measure 32
0001
0000
1000
0100
0000
0010
0000
0001
,  // measure 33
1000
0000
0000
1000
0000
0000
1000
0000
0000
0000
0000
0000
0000
0000
0000
0000
,  // measure 34
0001
0000
0000
0001
0000
0000
0001
0000
0000
0000
0000
0000
0000
0000
0000
0000
,  // measure 35
0010
0000
0000
0010
0000
0000
0010
0000
0000
0000
0000
0000
0000
0000
0000
0000
,  // measure 36
2200
0000
0000
3300
,  // measure 37
1001
0000
1000
0100
0010
0000
0100
0010
,  // measure 38
0001
0000
1000
0010
0100
0010
1000
0000
,  // measure 39
1001
0000
0001
0100
0001
0000
0001
0100
,  // measure 40
0010
1000
0010
0100
0001
0000
0001
0000
,  // measure 41
1000
0100
1000
0000
0010
0100
0000
0001
,  // measure 42
1000
0000
0100
0010
0100
1000
0100
0000
,  // measure 43
1000
0100
0010
0001
0010
0100
1000
0000
,  // measure 44
1001
0000
0001
0100
0010
0000
0100
0000
,  // measure 45
0010
0100
0001
0000
0100
0010
1000
0000
,  // measure 46
0100
0000
0010
0100
1000
0100
0010
0000
,  // measure 47
0100
0000
1000
0010
0100
0001
0100
0010
,  // measure 48
1000
0000
0001
0100
0010
0000
0100
0000
,  // measure 49
0001
1000
0001
0000
1000
0100
0000
1000
,  // measure 50
0001
0000
0010
0100
0000
0010
0001
0010
,  // measure 51
0000
0001
1000
0100
0010
0001
1000
0100
,  // measure 52
0020
0130
2000
3001
,  // measure 53
1000
0001
0000
0100
0000
0010
0000
0100
,  // measure 54
0000
0001
1000
0100
0010
0100
1000
0000
,  // measure 55
0001
0000
1000
0000
0000
1000
0000
0000
,  // measure 56
1000
0001
0010
0100
,  // measure 57
1001
0000
0000
0000
;
