#TITLE:solitude;
#SUBTITLE:;
#ARTIST:TAG;
#TITLETRANSLIT:;
#SUBTITLETRANSLIT:;
#ARTISTTRANSLIT:;
#GENRE:;
#CREDIT:DigiMindAxel;
#BANNER:solitude.png;
#BACKGROUND:solitude-bg.png;
#LYRICSPATH:;
#CDTITLE:GITADORA.png;
#MUSIC:solitude.mp3;
#METERTYPE:DDR X;
#OFFSET:-7.679;
#SAMPLESTART:53.947;
#SAMPLELENGTH:12.000;
#SELECTABLE:YES;
#BPMS:0.000=144.000
;
#STOPS:
;
#BGCHANGES:;
#KEYSOUNDS:;
#ATTACKS:;

//---------------dance-single - ----------------
#NOTES:
     dance-single:
     :
     Easy:
     4:
     0.258,0.208,0.296,0.148,0.000,138.000,30.000,15.000,0.000,0.000,0.000,0.258,0.208,0.296,0.148,0.000,138.000,30.000,15.000,0.000,0.000,0.000: // measure 0
1000
1000
1000
1000
,  // measure 1
0001
0001
0001
0001
,  // measure 2
1000
1000
1000
1000
,  // measure 3
2002
0000
0000
3003
,  // measure 4
0110
0000
0110
0000
,  // measure 5
0110
0000
0001
1000
,  // measure 6
1001
0000
1001
0000
,  // measure 7
1001
0000
0010
0100
,  // measure 8
0110
0000
0110
0000
,  // measure 9
0110
0000
0010
0100
,  // measure 10
1001
0000
1001
0000
,  // measure 11
2000
0000
0000
0000
,  // measure 12
3001
1000
0001
0000
,  // measure 13
0100
0001
0100
0000
,  // measure 14
0010
1000
0010
0000
,  // measure 15
1000
0001
1000
0000
,  // measure 16
0100
1000
0100
0000
,  // measure 17
0010
0001
0010
0000
,  // measure 18
0001
1000
0001
0000
,  // measure 19
2000
0000
0000
0000
,  // measure 20
3001
0100
0010
0100
,  // measure 21
0001
1000
0001
1000
,  // measure 22
0001
0010
0100
1000
,  // measure 23
0001
0001
1000
1000
,  // measure 24
0100
0010
0001
1000
,  // measure 25
0010
1000
0100
0010
,  // measure 26
0001
1000
0001
1000
,  // measure 27
2002
0000
3003
0000
,  // measure 28
0110
0000
0110
0000
,  // measure 29
1001
0000
1001
0000
,  // measure 30
0001
0100
0001
0000
,  // measure 31
1000
1000
0001
0001
,  // measure 32
1001
0000
1001
0000
,  // measure 33
0110
0000
0110
0000
,  // measure 34
0010
0100
0010
0000
,  // measure 35
1000
0001
1000
0000
,  // measure 36
1001
0000
1001
0000
,  // measure 37
0110
0000
0110
0000
,  // measure 38
0010
0100
0010
0000
,  // measure 39
1000
0100
0010
0001
,  // measure 40
1001
0000
1001
0000
,  // measure 41
0110
0000
0110
0000
,  // measure 42
0010
0100
0001
1000
,  // measure 43
0002
0000
0000
0000
,  // measure 44
2003
0000
0000
0000
,  // measure 45
3002
0000
0000
0000
,  // measure 46
2003
0000
0000
0000
,  // measure 47
3200
0000
0000
0000
,  // measure 48
0320
0000
0000
0000
,  // measure 49
0032
0000
0000
0000
,  // measure 50
1003
0001
1000
0001
,  // measure 51
1000
0100
0010
0001
,  // measure 52
0000
2002
0000
3003
;

//---------------dance-single - ----------------
#NOTES:
     dance-single:
     :
     Medium:
     7:
     0.343,0.338,0.049,0.079,0.143,230.000,5.000,8.000,0.000,0.000,0.000,0.343,0.338,0.049,0.079,0.143,230.000,5.000,8.000,0.000,0.000,0.000: // measure 0
0001
0001
0001
0001
,  // measure 1
0010
0010
0010
0010
,  // measure 2
0100
0100
0100
0100
,  // measure 3
1000
0002
0000
0000
0000
0000
0000
0000
,  // measure 4
1003
0000
0100
0000
0000
0000
0000
1000
0000
0000
0000
0000
0000
0000
0000
0001
,  // measure 5
0000
0000
0000
0000
0000
0000
0000
1000
0000
0000
0001
0000
1000
0000
0001
0000
,  // measure 6
0100
0000
0001
0000
0000
0000
0000
1000
0000
0000
0000
0000
0000
0000
0000
0001
,  // measure 7
0000
0000
0000
0000
0000
0000
0000
1000
0000
0000
0001
0000
0010
0000
0100
0000
,  // measure 8
1000
0000
0001
0000
0000
0000
0000
0100
0000
0000
0000
0000
0000
0000
0000
0010
,  // measure 9
0000
0000
0000
0000
0000
0000
0000
0100
0000
0000
0000
0000
0001
0000
0000
0000
,  // measure 10
1000
0000
0001
0000
0000
0000
0000
0100
0000
0000
0000
0000
0000
0000
0000
0020
,  // measure 11
0000
0000
0100
0130
,  // measure 12
0001
1000
0100
0010
,  // measure 13
0001
1000
0100
1000
,  // measure 14
0001
0010
0100
1000
,  // measure 15
0001
0100
0001
0100
,  // measure 16
0001
1000
0010
0100
,  // measure 17
0001
1000
0001
1000
,  // measure 18
0010
0100
0001
1000
,  // measure 19
0002
2003
3002
2003
,  // measure 20
3001
1000
0100
1000
0100
0000
1000
0000
,  // measure 21
0001
0000
1000
0001
0100
0001
0100
0000
,  // measure 22
0001
1000
0001
0000
0010
0000
0100
0000
,  // measure 23
1000
0000
0001
1000
0010
1000
0001
0000
,  // measure 24
1000
0001
1000
0001
1000
0000
0010
0000
,  // measure 25
0100
0010
0100
0010
0100
0000
0001
0000
,  // measure 26
1000
0000
0100
1000
0100
0000
0000
0000
,  // measure 27
1001
0000
1001
0000
,  // measure 28
0010
0000
0100
0000
0001
0000
0000
0001
0000
0000
0000
0000
1000
0000
0000
1000
,  // measure 29
0000
0000
0000
0000
0001
0000
0000
0001
0000
0000
0000
0000
1000
0000
0001
0000
,  // measure 30
1000
0000
0000
0000
0010
0000
0000
0100
0000
0000
0000
0000
0001
0000
1000
0000
,  // measure 31
0001
0000
0000
0000
1001
0000
0000
0000
1000
0000
0000
1000
0000
0000
0000
0000
,  // measure 32
0010
0000
0100
0000
0001
0000
0000
0001
0000
0000
0000
0000
1000
0000
0000
1000
,  // measure 33
0000
0000
0000
0000
0001
0000
0000
0001
0000
0000
0000
0000
1000
0000
0001
0000
,  // measure 34
1000
0000
0000
0000
0100
0000
0000
0010
0000
0000
0000
0000
0001
0000
1000
0000
,  // measure 35
0010
0000
1000
0000
0001
0000
0000
0001
0000
0000
0000
0000
0100
0000
0001
0000
,  // measure 36
1000
0000
0000
0000
0001
0000
0000
0001
0000
0000
0000
0000
1000
0000
0000
1000
,  // measure 37
0000
0000
0000
0000
0010
0000
0000
0010
0000
0000
0000
0000
0100
0000
0010
0000
,  // measure 38
0100
0000
0000
0000
0001
0000
0000
1000
0000
0000
0000
0000
0001
0000
1000
0000
,  // measure 39
0001
0010
0100
1000
,  // measure 40
0100
0000
0010
0000
0001
0000
0000
0001
0000
0000
0000
0000
1000
0000
0000
1000
,  // measure 41
0000
0000
0000
0000
0001
0000
0000
0001
0000
0000
0000
0000
1000
0000
0001
0000
,  // measure 42
1000
0000
0000
0000
0010
0000
0000
0100
0000
0000
0000
0000
0001
0000
1000
0000
,  // measure 43
0001
0001
0001
0001
,  // measure 44
1000
1000
1000
1000
,  // measure 45
0100
0100
0100
0100
,  // measure 46
0010
0010
0010
0010
,  // measure 47
1001
0001
0001
0001
,  // measure 48
0100
0100
0100
0100
,  // measure 49
0010
0010
0010
0010
,  // measure 50
1000
0001
0000
1000
0001
0000
1000
0000
,  // measure 51
0001
1000
0100
0010
0001
0010
0100
1000
,  // measure 52
0000
2002
0000
3003
;

//---------------dance-single - ----------------
#NOTES:
     dance-single:
     :
     Hard:
     11:
     0.513,0.442,0.533,0.207,0.212,289.000,54.000,21.000,0.000,0.000,0.000,0.513,0.442,0.533,0.207,0.212,289.000,54.000,21.000,0.000,0.000,0.000: // measure 0
1000
0001
1000
0000
0100
0000
1000
0000
,  // measure 1
0001
1000
0001
0000
1000
0000
0100
0000
,  // measure 2
1000
0001
1000
0000
0001
0000
0100
0000
,  // measure 3
0001
0000
1000
0000
0100
0000
0000
1000
0000
0001
0000
0000
1000
0000
0000
0000
,  // measure 4
0001
0000
0010
0000
0001
0000
0000
0011
0000
0000
0000
0000
0010
0000
0000
0110
,  // measure 5
0000
0000
0000
0000
0100
0000
0000
1100
0000
0000
1000
0000
0001
0000
0010
0000
,  // measure 6
0100
0000
1000
0000
0001
0000
0000
1001
0000
0000
0000
0000
1000
0000
0000
1010
,  // measure 7
0000
0000
0000
0000
0100
0000
0000
0101
0000
0000
0001
0000
1000
0000
0100
0000
,  // measure 8
0010
0000
0001
0000
0100
0000
0000
0101
0000
0000
0000
0000
0001
0000
0000
1001
,  // measure 9
0000
0000
0000
0000
1000
0000
0000
1010
0000
0000
0010
0000
1000
0000
0001
0000
,  // measure 10
0010
0000
0100
0000
0010
0000
0000
0110
0000
0000
0000
0000
0001
0000
1000
0002
,  // measure 11
0000
0000
0000
0000
0000
0000
0000
1000
0000
0000
1000
0000
1003
0000
0000
0000
,  // measure 12
0001
1000
0010
1000
0001
1000
0010
0000
,  // measure 13
1000
0100
0010
0001
1000
0000
0100
0010
,  // measure 14
0200
1000
2300
0000
,  // measure 15
0001
0100
3001
1001
,  // measure 16
1000
0001
1000
0100
1000
0001
1000
0000
,  // measure 17
0100
0010
0100
1000
0010
0000
0100
0001
,  // measure 18
0200
0010
0310
0110
,  // measure 19
2000
3002
2003
3002
,  // measure 20
1003
0000
0001
0100
0001
0000
1000
0000
0100
0000
0010
0000
0100
0000
1000
0000
,  // measure 21
0001
0100
0010
1000
0100
0001
0100
1000
,  // measure 22
0001
0000
0001
0000
1000
0000
0000
0000
0002
0000
0000
0100
0000
0000
0103
0000
,  // measure 23
0001
0000
0000
0000
1000
0000
0010
0000
0001
0000
0010
0000
1000
0001
1000
0000
,  // measure 24
0001
0000
1000
0000
0100
0000
0010
0000
0200
0000
0000
1000
0000
0000
1300
0000
,  // measure 25
0000
0000
0001
0000
0010
0000
0100
0000
0020
0000
0000
0001
0000
0000
0031
0000
,  // measure 26
2000
0000
0000
0000
3010
0000
0100
0010
0100
0000
0000
0000
0100
0000
0000
0000
,  // measure 27
1001
0000
0000
0001
0000
0000
1000
0000
1001
0000
0000
0000
0100
0000
0001
0000
,  // measure 28
1000
0000
1000
0000
0010
0000
0000
0110
0000
0000
0000
0000
0110
0000
0000
0101
,  // measure 29
0000
0000
0000
0000
0101
0000
0000
1001
0000
0000
0000
0000
1000
0000
0100
0000
,  // measure 30
0010
0000
0000
0000
0101
0000
0000
0110
0000
0000
1000
0000
0010
0000
0100
0000
,  // measure 31
0101
0000
0000
0000
1100
0000
0000
0000
0101
0000
0000
1001
0000
0000
0000
0000
,  // measure 32
0010
0000
0100
0000
0001
0000
0000
1001
0000
0000
0000
0000
1001
0000
0000
1100
,  // measure 33
0000
0000
0000
0000
1100
0000
0000
0011
0000
0000
0000
0000
0001
0000
0100
0000
,  // measure 34
0010
0000
0000
0000
1010
0000
0000
0110
0000
0000
0001
0000
1000
0000
0100
0000
,  // measure 35
0010
0000
0010
0000
0100
0000
0000
1100
0000
0000
0000
0000
1000
0000
0001
0000
,  // measure 36
0100
0000
0001
0000
0101
0000
0000
1001
0000
0000
0000
0000
1001
0000
0000
1100
,  // measure 37
0000
0000
0000
0000
1100
0000
0000
0110
0000
0000
0000
0000
0010
0000
0100
0000
,  // measure 38
0001
0000
0000
0000
0101
0000
0000
1001
0000
0000
1000
0000
0001
0000
0010
0000
,  // measure 39
0110
0000
0000
0000
1010
0000
0000
0000
0101
0000
0000
0001
0000
0000
0001
0000
,  // measure 40
1000
0000
0001
0000
0101
0000
0000
1001
0000
0000
0000
0000
1001
0000
0000
1100
,  // measure 41
0000
0000
0000
0000
1100
0000
0000
0101
0000
0000
0001
0000
1000
0000
0010
0000
,  // measure 42
0100
0000
0000
0000
0101
0000
0000
1001
0000
0000
1000
0000
0001
0000
0010
0000
,  // measure 43
0200
1000
0010
1300
,  // measure 44
0020
0001
0100
0031
,  // measure 45
0200
1000
0010
1300
,  // measure 46
0020
0001
0100
0031
,  // measure 47
2001
0100
0001
3100
,  // measure 48
2000
0010
0100
3010
,  // measure 49
0200
0001
0010
0301
,  // measure 50
1000
1000
0010
0100
0100
0001
1000
0100
,  // measure 51
0000
1000
0001
0000
0010
0000
1000
0000
0010
0000
0001
0000
1000
0001
0000
0001
,  // measure 52
0000
2002
0000
3003
;

//---------------dance-single - ----------------
#NOTES:
     dance-single:
     :
     Challenge:
     13:
     0.662,0.703,0.444,0.227,0.617,402.000,45.000,23.000,0.000,0.000,0.000,0.662,0.703,0.444,0.227,0.617,402.000,45.000,23.000,0.000,0.000,0.000: // measure 0
1000
0000
0001
0000
2000
0000
0000
0000
0100
0000
0000
0100
0000
0000
3100
0000
,  // measure 1
0010
0000
0001
0000
0020
0000
0000
0000
0100
0000
0000
0100
0000
0000
0130
0000
,  // measure 2
1000
0000
0010
0000
2000
0000
0000
0000
0001
0000
0000
0001
0000
0000
3001
0000
,  // measure 3
1000
0000
1000
0000
0100
1000
0000
0001
0000
0100
0000
0001
1000
0000
0000
0000
,  // measure 4
0001
0000
0001
0000
0010
0001
0010
0001
0000
0000
0010
0000
0100
0010
0100
0010
,  // measure 5
0000
0000
0100
0000
1000
0100
1000
0100
0000
0000
1000
0000
0001
0000
0010
0000
,  // measure 6
0100
0000
1000
0000
0001
0100
0001
0100
0000
0000
0001
0000
1000
0010
1000
0010
,  // measure 7
0000
0000
1000
0000
0100
0010
0100
0010
0000
0000
0001
0000
1000
0000
0010
0000
,  // measure 8
0100
0000
0001
0000
1000
0100
1000
0100
0000
0000
1000
0000
0001
0010
0001
0010
,  // measure 9
0000
0000
0001
0000
0100
0010
0100
0010
0000
0000
1000
0000
0001
0000
0010
0000
,  // measure 10
0100
0000
1000
0000
0010
0100
0010
0100
0000
0000
0001
1000
0001
1000
0001
2000
,  // measure 11
0000
0000
0000
0000
0000
0000
0000
0001
0000
0000
0001
0000
3001
0000
0000
0000
,  // measure 12
1000
0000
0001
0100
0001
0000
0010
0100
0000
0010
0200
0000
0000
0000
1000
0000
,  // measure 13
1300
0000
0001
0000
0001
0000
0100
0020
0000
0000
0000
0000
1030
0000
0001
0000
,  // measure 14
0200
0000
0000
0010
0000
0000
0310
0000
2000
0000
0000
0000
0001
0000
0000
0000
,  // measure 15
0001
3001
1000
1010
,  // measure 16
1000
0000
0001
0010
0001
0000
0100
0010
0000
0100
0020
0000
0000
0000
1000
0000
,  // measure 17
1030
0000
0001
0000
0001
0000
0010
0200
0000
0000
0000
0000
0310
0000
0001
0000
,  // measure 18
0020
0000
0000
0100
0000
0000
0130
0000
1000
0000
0000
0000
1100
0000
0000
0000
,  // measure 19
2000
0000
3200
0000
0320
0000
0031
0001
,  // measure 20
1000
0000
0010
1000
0010
0000
0100
0000
0001
1000
0000
0100
0000
1000
0000
0001
,  // measure 21
0000
0000
1000
0100
1000
0000
0001
0000
0100
0000
0001
0000
0010
0100
0000
0010
,  // measure 22
0000
0000
0001
0000
1000
0000
0000
0000
0020
0000
0000
0100
0000
0000
0130
0000
,  // measure 23
0002
0000
0000
0000
1003
0000
0100
0000
1000
0000
0001
1000
0000
0010
0000
0100
,  // measure 24
0001
0000
1000
0000
0100
0000
0001
0000
0200
0000
0000
1000
0000
0000
2300
0000
,  // measure 25
0000
0000
3001
0000
0100
0000
1000
0000
0200
0000
0000
0001
0000
0000
0301
0000
,  // measure 26
2000
0000
0000
0000
3001
0000
0100
0010
0200
0000
0000
0000
0310
0000
0000
0000
,  // measure 27
0101
0000
0000
0101
0000
0000
0101
0000
1001
0000
0000
0000
0001
0000
1000
0000
,  // measure 28
1100
0000
1000
0000
0010
0100
0000
0110
0000
0000
0001
0000
0100
0010
0000
0110
,  // measure 29
0000
0000
1000
0000
0010
0100
0000
0110
0000
0000
0001
0000
1001
0000
1000
0000
,  // measure 30
0010
0000
0000
0000
1010
0000
0000
1001
0000
0000
0001
0000
0100
0000
0010
0000
,  // measure 31
0110
0000
0000
0000
1100
0000
0000
0000
0011
0000
0000
1001
0000
0000
0001
0000
,  // measure 32
0010
0000
0100
0000
1000
0010
0000
1010
0000
0000
1000
0000
0001
0100
0000
0101
,  // measure 33
0000
0000
0001
0000
1000
0010
0000
1010
0000
0000
1000
0000
1001
0000
0001
0000
,  // measure 34
0010
0000
0000
0000
0011
0000
0000
1001
0000
0000
0001
0000
1000
0000
0100
0000
,  // measure 35
0001
0000
0100
0000
1000
0001
0000
1001
0000
0000
0001
0000
1001
0000
1000
0000
,  // measure 36
0001
0000
0010
0000
0100
1000
0000
1100
0000
0000
0100
0000
0010
0001
0000
0011
,  // measure 37
0000
0000
0010
0000
0100
1000
0000
1100
0000
0001
1000
0001
1000
0000
0001
0000
,  // measure 38
0101
0000
0000
0000
1010
0000
0000
1001
0000
0000
1000
0000
0001
0000
0010
0000
,  // measure 39
0011
0000
0000
0000
0110
0000
0000
0000
1100
0000
0000
1001
0000
0000
1000
0000
,  // measure 40
1001
0000
0001
0000
0010
0100
0000
0110
0000
0000
1000
0000
0100
0010
0000
0110
,  // measure 41
0000
0000
0001
0000
0010
0100
0000
0110
0000
1000
0001
1000
0001
0000
0010
0000
,  // measure 42
0011
0000
0000
0000
1100
0000
0000
1001
0000
0001
1000
0100
1000
0100
1000
0100
,  // measure 43
1000
0000
0001
0000
0100
0000
0000
0000
0001
0000
0100
0001
0000
0100
0001
0000
,  // measure 44
0010
0000
0100
0000
1000
0000
0000
0000
0001
0000
1000
0100
0000
1000
0100
0000
,  // measure 45
1000
0000
0001
0000
0100
0000
0000
0000
0001
0000
1000
0001
0000
1000
0001
0000
,  // measure 46
1000
0000
0100
0000
0010
0000
0000
0000
0001
0000
0100
0001
0000
0100
0001
0000
,  // measure 47
1001
0000
0000
0000
1000
0000
0000
0000
0001
0000
0100
0001
0000
0100
0001
0000
,  // measure 48
1000
0000
0100
0000
0010
0000
0000
0000
0100
0000
1000
0001
0000
1000
0001
0000
,  // measure 49
0010
0000
0100
0000
1000
0000
0000
0000
0001
0000
1000
0010
0000
1000
0010
0000
,  // measure 50
0100
0000
0100
0000
0000
0001
0010
0100
0010
0100
0000
0010
0001
1000
0001
1000
,  // measure 51
0000
0001
0010
0001
0010
0100
1000
0100
1000
0001
0100
0001
1000
0010
0000
1010
,  // measure 52
0000
2002
0000
3003
;

//---------------dance-single - ----------------
#NOTES:
     dance-single:
     :
     Beginner:
     1:
     0.090,0.077,0.158,0.000,0.000,48.000,16.000,0.000,0.000,0.000,0.000,0.090,0.077,0.158,0.000,0.000,48.000,16.000,0.000,0.000,0.000,0.000: // measure 0
0001
0000
0000
0000
,  // measure 1
1000
0000
0000
0000
,  // measure 2
0001
0000
0000
0000
,  // measure 3
1000
0000
0000
0000
,  // measure 4
1001
0000
0000
0000
,  // measure 5
0000
0000
0000
0000
,  // measure 6
0110
0000
0000
0000
,  // measure 7
0000
0000
0000
0000
,  // measure 8
1001
0000
0000
0000
,  // measure 9
0000
0000
0000
0000
,  // measure 10
0110
0000
0000
0000
,  // measure 11
0000
0000
0000
0000
,  // measure 12
0010
0000
0000
0000
,  // measure 13
0010
0000
0000
0000
,  // measure 14
0010
0000
0000
0000
,  // measure 15
0000
0000
0000
0000
,  // measure 16
0100
0000
0000
0000
,  // measure 17
0100
0000
0000
0000
,  // measure 18
0100
0000
0000
0000
,  // measure 19
0001
0000
0000
0000
,  // measure 20
1001
0000
0000
0000
,  // measure 21
1000
0000
0000
0000
,  // measure 22
0001
0000
0000
0000
,  // measure 23
0010
0000
0000
0000
,  // measure 24
0100
0000
0000
0000
,  // measure 25
1000
0000
0000
0000
,  // measure 26
0100
0000
0000
0000
,  // measure 27
1001
0000
0000
0000
,  // measure 28
0110
0000
0000
0000
,  // measure 29
0010
0000
0000
0000
,  // measure 30
0110
0000
0000
0000
,  // measure 31
0100
0000
0000
0000
,  // measure 32
1001
0000
0000
0000
,  // measure 33
0001
0000
0000
0000
,  // measure 34
1001
0000
0000
0000
,  // measure 35
1000
0000
0000
0000
,  // measure 36
0110
0000
0000
0000
,  // measure 37
0010
0000
0000
0000
,  // measure 38
0110
0000
0000
0000
,  // measure 39
0100
0000
0000
0000
,  // measure 40
1001
0000
0000
0000
,  // measure 41
0001
0000
0000
0000
,  // measure 42
1001
0000
0000
0000
,  // measure 43
1000
0000
0000
0000
,  // measure 44
1000
0000
0000
0000
,  // measure 45
1000
0000
0000
0000
,  // measure 46
1000
0000
0000
0000
,  // measure 47
1001
0000
0000
0000
,  // measure 48
0001
0000
0000
0000
,  // measure 49
0001
0000
0000
0000
,  // measure 50
0001
0000
0000
0000
,  // measure 51
0100
0000
0000
0000
,  // measure 52
0000
0110
0000
0000
;
